#VERSION:0.83;
#TITLE:Pop The Track;
#ARTIST:J-Mi and Midi-D feat. Hanna Stockzell;
#TAGS:DMCA;
#CREDIT:GlenDisc;
#BANNER:Pop The Track.png;
#BACKGROUND:Pop The Track-bg.png;
#JACKET:Pop The Track-jacket.png;
#MUSIC:Pop The Track.ogg;
#OFFSET:-1.487;
#SAMPLESTART:62.931019;
#SAMPLELENGTH:15;
#BPMS:0=160;

//---------------dance-single - NewbStepper-ESP----------------
#NOTEDATA:;
#CHARTNAME:NewbStepper-ESP;
#STEPSTYPE:dance-single;
#DESCRIPTION:NewbStepper-ESP;
#DIFFICULTY:Hard;
#METER:11;
#RADARVALUES:0.485441,0.538510,0.271518,0.213923,0.024683,413,380,33,26,0,0,0,0,0,0.485441,0.538510,0.271518,0.213923,0.024683,413,380,33,26,0,0,0,0,0;
#CREDIT:NewbStepper;
#NOTES:
// measure 0
0000
0000
0000
0000
,  // measure 1
0000
0000
0000
0000
,  // measure 2
0000
0000
0000
0000
,  // measure 3
0000
0000
0000
0000
,  // measure 4
0000
0000
0000
0000
,  // measure 5
0000
0000
0000
0000
,  // measure 6
0000
0000
0000
0000
,  // measure 7
0000
0000
0000
0000
0000
0000
0000
0002
,  // measure 8
0000
0000
0000
0003
,  // measure 9
1000
0000
1100
0000
0010
0001
0100
0010
,  // measure 10
2000
0010
0001
3010
,  // measure 11
0100
0001
0000
0010
0000
0010
0100
0000
,  // measure 12
0010
0001
0101
0000
0010
1000
1100
0000
,  // measure 13
0001
0000
0101
0000
0010
1000
0100
0010
,  // measure 14
0002
0010
1000
0013
,  // measure 15
1000
0100
0001
0000
0001
0100
1000
0000
,  // measure 16
0010
1000
0010
0100
0010
0001
0010
0000
,  // measure 17
1000
0100
0000
0010
0001
0000
0100
0010
,  // measure 18
2000
0001
0100
3010
,  // measure 19
1000
0100
0000
0010
0000
0010
0000
0001
,  // measure 20
0200
0001
1000
0010
,  // measure 21
0301
0100
0000
0010
1000
0000
0100
0010
,  // measure 22
0002
1000
0100
0013
,  // measure 23
0001
1000
0010
1000
0100
0001
0100
1000
,  // measure 24
1010
0011
0110
1001
,  // measure 25
0010
0101
0010
1100
,  // measure 26
1000
0010
0100
0001
1000
0100
0001
0000
,  // measure 27
0200
0000
1300
0010
1000
0100
0010
0000
,  // measure 28
0001
0100
1000
0100
0010
0100
0001
0000
,  // measure 29
0010
1100
0010
0101
,  // measure 30
0001
0010
0100
1000
0001
0100
1000
0000
,  // measure 31
0200
0000
0301
0010
0001
0100
0010
0000
,  // measure 32
1000
0000
0001
0100
0001
0000
1000
0100
1000
0000
0001
0000
0100
0000
0000
0000
,  // measure 33
0010
1001
1000
1100
,  // measure 34
0001
0101
0010
1010
,  // measure 35
1000
0001
0100
0000
0001
1000
0100
0000
,  // measure 36
0001
0100
1000
0010
0100
0001
1000
0100
,  // measure 37
0010
1001
0001
0101
,  // measure 38
1000
1100
0010
0011
,  // measure 39
0001
1000
0100
0000
1000
0001
0100
0000
,  // measure 40
1000
0100
0001
0010
0100
1000
0010
0000
,  // measure 41
2010
0000
3001
0000
0100
0010
1000
0000
,  // measure 42
0100
0010
0001
1000
0010
1000
0001
0000
,  // measure 43
0021
0000
0130
0000
1000
0010
0100
0000
,  // measure 44
0001
0100
1000
0100
0001
1000
0100
0000
,  // measure 45
0012
0000
1003
0000
0100
0010
0001
0000
,  // measure 46
0100
0010
1000
0001
0010
0001
1000
0000
,  // measure 47
1020
0000
0130
0000
0001
0010
0100
0000
,  // measure 48
1000
0100
0001
0100
1000
0010
0100
0000
,  // measure 49
0001
1000
0100
1000
0001
0100
1000
0100
,  // measure 50
0001
1000
0100
0001
0100
1000
0001
0000
,  // measure 51
1000
0100
0010
0001
1000
0010
0100
0000
,  // measure 52
0001
0010
1000
0010
0001
1000
0010
0000
,  // measure 53
1000
0001
0100
0001
1000
0100
0001
0100
,  // measure 54
1000
0001
0100
1000
0100
0001
1000
0000
,  // measure 55
0001
0100
0010
0000
1000
0100
0010
0000
,  // measure 56
0011
1100
2002
3003
,  // measure 57
0010
0000
0100
1000
0001
0100
1000
0100
,  // measure 58
0002
0010
1000
0103
,  // measure 59
0010
1000
0100
0000
0010
0001
0100
0000
,  // measure 60
0020
1000
0001
0130
,  // measure 61
0010
0000
0100
0001
1000
0100
0001
0100
,  // measure 62
2000
0010
0001
3100
,  // measure 63
0010
0001
1000
0010
1000
0001
0010
0000
,  // measure 64
0100
1000
0001
0100
0001
1000
0100
0000
,  // measure 65
0010
0001
0100
0000
0010
1000
0100
0000
,  // measure 66
2000
3200
0320
0032
,  // measure 67
1003
0001
1000
0100
0010
0001
0100
0000
,  // measure 68
0001
1000
0001
0100
0010
1000
0100
0000
,  // measure 69
0010
0000
0000
0010
0000
0000
0001
0000
0100
0000
0000
0100
0000
0000
0010
0000
,  // measure 70
1000
0000
0000
1000
0000
0000
0100
0000
0001
0000
0000
0001
0000
0000
0100
0000
,  // measure 71
1100
0101
0110
1001
,  // measure 72
1000
0100
0010
0001
0100
0010
1000
0000
,  // measure 73
1020
0000
0000
0001
0000
0100
0030
0000
,  // measure 74
0201
0000
0000
0320
,  // measure 75
2000
0000
0000
0030
,  // measure 76
0000
0002
0000
0000
0000
0000
0000
0000
,  // measure 77
3003
0000
0000
0000
;

//---------------dance-single - NewbStepper-DSP----------------
#NOTEDATA:;
#CHARTNAME:NewbStepper-DSP;
#STEPSTYPE:dance-single;
#DESCRIPTION:NewbStepper-DSP;
#DIFFICULTY:Medium;
#METER:8;
#RADARVALUES:0.302078,0.443479,0.148101,0.320885,0.024683,257,239,18,39,0,0,0,0,0,0.302078,0.443479,0.148101,0.320885,0.024683,257,239,18,39,0,0,0,0,0;
#CREDIT:NewbStepper;
#NOTES:
0000
0000
0000
0000
,
0000
0000
0000
0000
,
0000
0000
0000
0000
,
0000
0000
0000
0000
,
0000
0000
0000
0000
,
0000
0000
0000
0000
,
0000
0000
0000
0000
,
0000
0000
0000
0000
0000
0000
0000
2000
,
0000
0000
0000
3000
,
0001
0000
0100
0000
0010
0000
1000
0001
,
0200
0000
0000
0310
,
1000
0000
0100
0000
0010
0001
0010
0000
,
1000
0010
0001
0000
,
1000
0000
0100
0000
0010
0000
0001
1000
,
0200
0000
0000
0310
,
0001
0100
0010
1000
,
2002
0000
0000
3003
,
0010
0001
0010
0000
0100
0000
0100
0000
,
0020
0000
0000
0031
,
1000
0010
1000
0000
0001
0000
0001
0000
,
0200
0000
0000
0300
,
0001
0010
0100
0000
1000
0000
0010
0000
,
0200
0000
0000
0301
,
2000
0000
0000
3000
,
1100
0010
0101
0010
,
1000
0100
0010
0001
,
1000
0100
1000
0100
0010
0000
0001
0000
,
0100
0000
0010
0000
1000
0010
1000
0000
,
0100
0010
0001
0000
,
0001
0100
0010
1000
,
0001
0100
0001
0100
0010
0000
1000
0000
,
0100
0000
0010
0000
0001
0010
0001
0000
,
0100
0010
1000
0000
,
2010
0000
3020
0100
,
0001
0100
2030
0001
,
3100
0000
0021
0100
,
0001
0230
1000
0010
,
1300
0000
0001
0100
,
1000
0010
0001
0100
,
0220
0000
0000
0330
,
2002
0000
0000
3003
,
1000
0000
0100
0010
0001
0000
0100
0000
,
0020
0000
1000
1030
,
0001
0000
0010
0100
1000
0000
0000
0000
,
0001
0100
1010
0000
,
0001
0000
0100
0010
1000
0000
0100
0000
,
0020
0000
0001
0031
,
1000
0000
0010
0100
0001
0000
0000
0000
,
1000
0100
0011
0000
,
0001
0000
0100
1000
0100
0001
0010
0000
,
0220
0000
0330
1001
,
1000
0000
0100
0010
0001
0000
0000
0010
,
0000
0100
1000
0100
0010
0000
0001
0000
,
1000
0000
0100
0001
0100
1000
0010
0000
,
0220
0000
0330
1001
,
0001
0000
0100
0010
1000
0000
0000
0010
,
0000
0100
0001
0100
0010
0000
1000
0000
,
0001
0100
1000
0010
,
0002
0000
0000
1003
,
0100
0010
0100
0000
1000
0001
1000
0000
,
0020
0000
0000
0030
,
1000
0100
0001
0010
,
2000
0000
0000
3001
,
0010
0100
1100
0000
,
0010
0100
0101
0000
,
0010
0000
0001
0000
0100
0010
1000
0000
,
0002
0023
0230
2300
,
3001
0000
0000
0001
0000
0000
0002
0000
0000
0000
0000
0000
0003
0000
0000
0000
,
1000
0000
0000
1000
0000
0000
2000
0000
0000
0000
0000
0000
3000
0000
0000
0000
,
0010
0000
0000
0010
0000
0000
0010
0000
0100
0000
0000
0100
0000
0000
0100
0000
,
0001
0000
0000
0001
0000
0000
0001
0000
1000
0000
0000
1000
0000
0000
1000
0000
,
0010
0101
0010
1100
,
2002
0000
0000
3003
,
0020
0000
0000
0000
,
0002
0000
0030
0000
,
2000
0000
0003
0000
,
0000
0020
0000
0000
0000
0000
0000
0000
,
3030
0000
0000
0000
;

//---------------dance-single - NewbStepper-BSP----------------
#NOTEDATA:;
#CHARTNAME:NewbStepper-BSP;
#STEPSTYPE:dance-single;
#DESCRIPTION:NewbStepper-BSP;
#DIFFICULTY:Easy;
#METER:5;
#RADARVALUES:0.226853,0.316771,0.115189,0.222151,0,193,179,14,27,0,0,0,0,0,0.226853,0.316771,0.115189,0.222151,0,193,179,14,27,0,0,0,0,0;
#CREDIT:NewbStepper;
#NOTES:
0000
0000
0000
0000
,
0000
0000
0000
0000
,
0000
0000
0000
0000
,
0000
0000
0000
0000
,
0000
0000
0000
0000
,
0000
0000
0000
0000
,
0000
0000
0000
0000
,
0000
0000
0000
0000
,
0000
0000
0000
0000
,
0001
0100
0010
0000
,
1000
0100
0010
0000
,
0001
0100
0001
0000
,
0200
0000
0010
0310
,
1000
0100
0010
0000
,
0001
0100
0010
0000
,
2000
0000
0000
3000
,
0002
0000
0000
0003
,
1000
0100
0010
0001
,
0200
0000
0000
0310
,
1000
0010
0100
0001
,
0020
0000
0000
0130
,
1000
0010
1000
1000
,
0002
0000
0000
0003
,
0200
0000
0000
0300
,
0010
0010
0010
0010
,
1000
0100
0010
0001
,
1000
0010
1000
1000
,
1010
0000
0011
0000
,
0100
0010
0110
0000
,
0001
0100
0010
1000
,
0001
0010
0001
0001
,
0011
0000
1010
0000
,
0100
0010
0110
0000
,
1000
0100
1000
0000
,
0001
0100
0001
0000
,
1000
0010
1000
0000
,
0001
0010
0001
0000
,
0100
0000
1000
0100
,
0010
0100
0001
0100
,
0020
0000
0000
0030
,
0200
0000
0000
0300
,
1001
0010
0001
0100
,
0020
0000
0000
1030
,
1001
0001
0100
0000
,
0010
1000
0100
0000
,
1001
0010
1000
0100
,
0020
0000
0000
0031
,
1001
1000
0100
0000
,
0010
0001
0100
0000
,
0010
1000
0010
1000
,
0001
0010
0001
0001
,
0010
0001
0010
0001
,
1000
0100
0010
0000
,
0010
0001
0010
0001
,
1000
0010
1000
1000
,
0010
1000
0010
1000
,
0001
0100
0010
0000
,
2000
0000
0000
3000
,
0002
0000
0000
0003
,
0200
0300
0020
0030
,
0220
0000
0000
0330
,
0002
0000
0000
0003
,
2000
0000
0000
3000
,
0200
0300
0020
0030
,
0220
0000
0330
0000
,
1000
0010
1000
0000
,
0010
0001
0010
0000
,
0001
0100
0001
0000
,
0100
1000
0100
0000
,
1000
0010
1000
0010
,
0100
0001
0100
0001
,
0010
0100
0010
0100
,
0220
0000
0000
0330
,
2002
0000
0000
0000
,
0000
0000
0000
0000
,
0000
0000
0000
0000
,
0000
0000
0000
0000
,
3003
0000
0000
0000
;

//---------------dance-single - NewbStepper-bSP----------------
#NOTEDATA:;
#CHARTNAME:NewbStepper-bSP;
#STEPSTYPE:dance-single;
#DESCRIPTION:NewbStepper-bSP;
#DIFFICULTY:Beginner;
#METER:2;
#RADARVALUES:0.104611,0.150158,0.008228,0.131645,0,89,88,1,16,0,0,0,0,0,0.104611,0.150158,0.008228,0.131645,0,89,88,1,16,0,0,0,0,0;
#CREDIT:NewbStepper;
#NOTES:
0000
0000
0000
0000
,
0000
0000
0000
0000
,
0000
0000
0000
0000
,
0000
0000
0000
0000
,
0000
0000
0000
0000
,
0000
0000
0000
0000
,
0000
0000
0000
0000
,
0000
0000
0000
0000
,
0000
0000
0000
0000
,
0001
0000
0000
0000
,
1000
0000
0000
0000
,
0001
0000
0000
0000
,
1000
0000
0000
0000
,
0100
0000
0010
0000
,
0100
0000
0000
0000
,
0010
0000
0100
0000
,
0010
0000
0000
0000
,
0001
0000
1000
0000
,
0001
0000
0000
0000
,
0001
0000
1000
0000
,
0001
0000
0000
0000
,
1000
0000
0001
0000
,
1000
0000
0000
0000
,
1000
0000
0001
0000
,
1000
0000
0000
0000
,
0010
0000
0010
0000
,
0100
0000
0100
0000
,
0001
0000
0000
0000
,
1000
0000
0000
0000
,
0010
0000
0010
0000
,
0100
0000
0100
0000
,
1000
0000
0000
0000
,
0001
0000
0000
0000
,
2000
0000
0000
0000
,
0000
0000
0000
0000
,
3000
0000
0002
0000
,
0000
0000
0000
0000
,
0003
0000
2000
0000
,
0000
0000
0000
0000
,
0000
0000
3000
0000
,
0020
0000
0000
0030
,
1000
0000
0001
0000
,
2000
0000
3000
0000
,
0001
0000
1000
0000
,
0001
0000
0000
0000
,
0100
0000
0010
0000
,
0200
0000
0300
0000
,
0010
0000
0100
0000
,
0010
0000
0000
0000
,
1000
0000
1000
0000
,
0100
0000
0100
0000
,
0010
0000
0010
0000
,
0001
0000
0001
0000
,
1000
0000
0001
0000
,
2000
0000
3000
0000
,
0001
0000
1000
0000
,
0001
0000
0000
0000
,
1000
0000
0100
0000
,
2000
0000
3000
0000
,
0001
0000
0100
0000
,
0002
0000
0003
0000
,
1000
0000
0010
0000
,
2000
0000
3000
0000
,
0001
0000
0010
0000
,
0002
0000
0003
0000
,
0100
0000
0100
0000
,
0010
0000
0010
0000
,
2000
0000
3000
0000
,
0200
0000
0300
0000
,
0020
0000
0030
0000
,
0002
0000
0003
0000
,
0100
0000
0010
0000
,
0200
0000
0300
0000
,
1001
0000
0000
0000
;

//---------------dance-double - NewbStepper-EDP----------------
#NOTEDATA:;
#CHARTNAME:NewbStepper-EDP;
#STEPSTYPE:dance-double;
#DESCRIPTION:NewbStepper-EDP;
#DIFFICULTY:Hard;
#METER:11;
#RADARVALUES:0.471336,0.538510,0.238607,0.156328,0.032911,401,372,29,19,0,0,0,0,0,0.471336,0.538510,0.238607,0.156328,0.032911,401,372,29,19,0,0,0,0,0;
#CREDIT:NewbStepper;
#NOTES:
00000000
00000000
00000000
00000000
,
00000000
00000000
00000000
00000000
,
00000000
00000000
00000000
00000000
,
00000000
00000000
00000000
00000000
,
00000000
00000000
00000000
00000000
,
00000000
00000000
00000000
00000000
,
00000000
00000000
00000000
00000000
,
00000000
00000000
00000000
00000000
00000000
00000000
00000000
00002000
,
00000000
00000000
00000000
00003000
,
00010000
00000000
00001000
00000000
00100000
01000000
10000000
00000000
,
00020000
00100000
10000000
00130000
,
00010000
00100000
00000000
00001000
00000000
00010000
00000100
00000000
,
00000010
00000001
00000100
00001000
00010000
00001000
00100000
00000000
,
00001000
00000000
00010000
00000000
00000010
00000100
00000001
00000000
,
00002000
00000010
00000001
00003010
,
00000001
00000100
00001000
00000000
00010000
01000000
10000000
00000000
,
00100000
10000000
00100000
01000000
00100000
00010000
00001000
00000000
,
00000010
00000001
00000000
00000100
00000010
00000000
00010000
00001000
,
00000020
00000001
00000100
00001030
,
00010000
00001000
00000000
00100000
00000000
00010000
00000000
01000000
,
00200000
10000000
00010000
01300000
,
00100000
10000000
00000000
01000000
00100000
00000000
00001000
00010000
,
00200000
10000000
01000000
00310000
,
00001000
00010000
00100000
00000000
00010000
00001000
00000010
00000000
,
00000011
00001010
00000110
00001001
,
00000010
00001100
00000010
00000101
,
00000001
00000010
00001000
00010000
00100000
10000000
00010000
00000000
,
10000000
01000000
00010000
00001000
00010000
00001000
00000100
00000000
,
00000001
00000100
00001000
00010000
00001000
00010000
01000000
00000000
,
00100000
01010000
00100000
11000000
,
10000000
00100000
00010000
00001000
00000010
00000001
00001000
00000000
,
00000001
00000100
00001000
00010000
00001000
00010000
01000000
00000000
,
10000000
01000000
00010000
00001000
00010000
00001000
00000100
00000000
,
00001001
00000000
00000100
00000000
00000001
00000010
00001000
00000000
,
00010000
01000000
10000000
00000000
00100000
10000000
01000000
00000000
,
10010000
00000000
01000000
00000000
10000000
00100000
00010000
00000000
,
00001000
00000100
00000001
00000000
00000010
00000001
00000100
00000000
,
00001001
00000000
00000100
00000000
00000001
00000010
00000100
00000000
,
00000010
00001000
00010000
00000000
00001000
00010000
00100000
00000000
,
10000000
00010000
01000000
00000000
00010000
10000000
01000000
00000000
,
00010000
00001000
00000010
00001000
00010000
00100000
00010000
00000000
,
00011000
00000000
00000100
00000000
00001000
00000010
00000100
00000000
,
00000001
00000010
00001000
00010000
01000000
10000000
00010000
00000000
,
00100000
00000000
00010000
01000000
00100000
00000000
10000000
01000000
,
00000000
00010000
00001000
00000010
00001000
00010000
00000100
00000000
,
00011000
00000000
01000000
00000000
00010000
00100000
01000000
00000000
,
10000000
00100000
00010000
00001000
00000100
00000001
00001000
00000000
,
00000010
00000000
00001000
00000100
00000010
00000000
00000001
00000100
,
00000000
00001000
00010000
00100000
00010000
00001000
01000000
00000000
,
00010000
10000000
00100000
10000000
00010000
10000000
01000000
00010000
,
00001000
00000100
00000001
00001000
00000100
00010000
00001000
00000000
,
00100000
00000000
00010000
01000000
00000000
00100000
10000000
01000000
,
00000000
00010000
00001000
00000100
00000001
00000000
00001001
00000000
,
00001000
00000001
00000010
00000001
00001000
00000001
00000100
00001000
,
00010000
01000000
10000000
00010000
01000000
00001000
00010000
00000000
,
00000010
00000000
00001000
00000100
00000000
00000010
00000001
00000000
,
00000011
00001100
00002002
00003003
,
00000010
00000000
00000100
00001000
00000001
00000100
00001000
00010000
,
02000000
10000000
00010000
13000000
,
00100000
00010000
00001000
00000000
00000010
00001000
00010000
00000000
,
01001000
10100000
01010000
10010000
,
00100000
00000000
01000000
00010000
10000000
01000000
00010000
00001000
,
00000200
00000001
00001000
00000301
,
00000010
00000001
00001000
00000001
00000010
00001000
00010000
00000000
,
00100000
10000000
00010000
10000000
00100000
00010000
00001000
00000000
,
00000100
00000011
00000100
00001010
,
00002000
00003200
00020300
00032000
,
00103000
00000000
00000000
00100000
00000000
00000000
00010000
00000000
01000000
00000000
00000000
01000000
00000000
00000000
00100000
00000000
,
10000000
00000000
00000000
10000000
00000000
00000000
01000000
00000000
00010000
00000000
00000000
00010000
00000000
00000000
00001000
00000000
,
00000010
00000000
00000000
00000010
00000000
00000000
00000001
00000000
00000100
00000000
00000000
00000100
00000000
00000000
00001000
00000000
,
00010000
00000000
00000000
00010000
00000000
00000000
01000000
00000000
10000000
00000000
00000000
10000000
00000000
00000000
01000000
00000000
,
01100000
10010000
11000000
01010000
,
00001000
00010000
00000100
00001000
00000010
00000100
00000001
00000000
,
00000021
00000000
00000000
00001000
00000000
00000100
00000030
00000000
,
00001200
00000000
00000000
00000320
,
00002000
00000000
00000000
00000030
,
00000000
00020000
00000000
00000000
00000000
00000000
00000000
00000000
,
00033000
00000000
00000000
00000000
;

//---------------dance-double - NewbStepper-DDP----------------
#NOTEDATA:;
#CHARTNAME:NewbStepper-DDP;
#STEPSTYPE:dance-double;
#DESCRIPTION:NewbStepper-DDP;
#DIFFICULTY:Medium;
#METER:8;
#RADARVALUES:0.295026,0.443479,0.106962,0.345568,0.024683,251,238,13,42,0,0,0,0,0,0.295026,0.443479,0.106962,0.345568,0.024683,251,238,13,42,0,0,0,0,0;
#CREDIT:NewbStepper;
#NOTES:
00000000
00000000
00000000
00000000
,
00000000
00000000
00000000
00000000
,
00000000
00000000
00000000
00000000
,
00000000
00000000
00000000
00000000
,
00000000
00000000
00000000
00000000
,
00000000
00000000
00000000
00000000
,
00000000
00000000
00000000
00000000
,
00000000
00000000
00000000
00000000
00000000
00000000
00000000
00020000
,
00000000
00000000
00000000
00030000
,
00001000
00000000
01000000
00000000
00100000
00000000
10000000
00010000
,
02000000
00000000
00000000
03100000
,
00010000
00000000
00001000
00000000
00000100
00000001
00000100
00000000
,
00000001
00000010
00001000
00000000
,
00010000
00000000
00000100
00000000
00000010
00000000
00000001
00001000
,
00000200
00000000
00000000
00000310
,
00001000
00010000
01000000
00100000
,
20020000
00000000
00000000
30030000
,
00100000
10000000
00100000
00000000
01000000
00000000
01000000
00000000
,
00200000
00000000
00000000
00310000
,
00001000
00010000
00001000
00000000
00000010
00000000
00000010
00000000
,
00000200
00000000
00000000
00000300
,
00000001
00000010
00000100
00000000
00001000
00000000
00000010
00000000
,
00020000
00000000
00000000
00031000
,
00200000
00000000
00000000
00300000
,
00110000
01000000
10100000
01000000
,
00010000
10000000
00100000
00010000
,
00001000
00100000
00001000
00100000
00010000
00000000
00001000
00000000
,
00000100
00000000
00000010
00000000
00000001
00000100
00000001
00000000
,
00000100
00001000
00010000
00000100
,
00001000
00000001
00000010
00001000
,
00010000
00000010
00010000
00000010
00001000
00000000
00010000
00000000
,
01000000
00100000
10000000
01000000
,
00010000
00001000
00011000
00000000
,
00000020
00001030
00020000
00031000
,
00000020
00001030
00020000
00031000
,
00011000
00000000
00200000
00310000
,
00002000
00013000
00200000
00310000
,
00011000
00000000
00000200
00001300
,
00020000
00031000
00000200
00001300
,
00020000
00000000
00000000
00000000
,
00002000
00000000
00000000
00033000
,
00100000
00000000
00001000
00010000
01000000
00000000
10000000
00000000
,
00200000
00000000
00010000
00310000
,
00000100
00000000
00010000
00001000
00000010
00000000
00000000
00000000
,
00000001
00000100
00001010
00000000
,
00000010
00000000
00010000
00001000
00000100
00000000
00000001
00000000
,
00000020
00000000
00001000
00001030
,
01000000
00000000
00001000
00010000
00100000
00000000
00000000
00000000
,
10000000
01000000
00110000
00000000
,
10000000
00000000
01000000
00100000
01000000
00010000
00001000
00000000
,
00022000
00000000
00033000
00000100
,
00000010
00000000
00000001
00000100
00000001
00000000
00000000
00001000
,
00000000
00000001
00000100
00000001
00001000
00000000
00000000
00000000
,
00000001
00000000
00000100
00000010
00000100
00001000
00010000
00000000
,
00022000
00000000
00033000
01000000
,
00100000
00000000
10000000
01000000
10000000
00000000
00000000
00010000
,
00000000
10000000
01000000
10000000
00010000
00000000
00000000
00000000
,
10000000
01000000
00010000
00001000
,
00000020
00000000
00000000
00000031
,
00001000
00000100
00001000
00000000
00000001
00000100
00000001
00000000
,
00002000
00000000
00000000
00003000
,
00000001
00000100
00001000
00010000
,
00200000
00000000
00000000
10300000
,
00010000
01000000
10000000
00000000
,
10000000
01000000
00010000
00000000
,
00100000
00000000
00001000
00000000
00010000
00000100
00000010
00000000
,
00000002
00000203
00000320
00002030
,
00003001
00000000
00000000
00000001
00000000
00000000
00000002
00000000
00000000
00000000
00000000
00000000
00000003
00000000
00000000
00000000
,
00001000
00000000
00000000
00001000
00000000
00000000
00002000
00000000
00000000
00000000
00000000
00000000
00003000
00000000
00000000
00000000
,
00010000
00000000
00000000
00010000
00000000
00000000
00010000
00000000
00100000
00000000
00000000
00100000
00000000
00000000
00100000
00000000
,
01000000
00000000
00000000
01000000
00000000
00000000
01000000
00000000
10000000
00000000
00000000
10000000
00000000
00000000
10000000
00000000
,
00100000
01010000
00100000
11000000
,
20020000
00000000
00000000
30030000
,
00200000
00000000
00000000
00000000
,
00020000
00000000
00300000
00000000
,
00002000
00000000
00000000
00030000
,
00000000
00000200
00000000
00000000
00000000
00000000
00000000
00000000
,
00003300
00000000
00000000
00000000
;

//---------------dance-double - NewbStepper-BDP----------------
#NOTEDATA:;
#CHARTNAME:NewbStepper-BDP;
#STEPSTYPE:dance-double;
#DESCRIPTION:NewbStepper-BDP;
#DIFFICULTY:Easy;
#METER:5;
#RADARVALUES:0.224502,0.316771,0.115189,0.222151,0,191,177,14,27,0,0,0,0,0,0.224502,0.316771,0.115189,0.222151,0,191,177,14,27,0,0,0,0,0;
#CREDIT:NewbStepper;
#NOTES:
00000000
00000000
00000000
00000000
,
00000000
00000000
00000000
00000000
,
00000000
00000000
00000000
00000000
,
00000000
00000000
00000000
00000000
,
00000000
00000000
00000000
00000000
,
00000000
00000000
00000000
00000000
,
00000000
00000000
00000000
00000000
,
00000000
00000000
00000000
00000000
,
00000000
00000000
00000000
00000000
,
10000000
01000000
00100000
00000000
,
00010000
01000000
00100000
00000000
,
10000000
01000000
10000000
00000000
,
02000000
00000000
00010000
03010000
,
00001000
00000100
00000010
00000000
,
00001000
00000001
00000100
00000000
,
00002000
00000000
00000000
00003000
,
00020000
00000000
00000000
00030000
,
00100000
01000000
00100000
10000000
,
00020000
00000000
00000000
00130000
,
00001000
00010000
00000100
00001000
,
00000020
00000000
00000000
00000130
,
00000001
00000010
00000001
00000001
,
00002000
00000000
00000000
00003000
,
00000200
00000000
00000000
00000300
,
00010000
00010000
00010000
00010000
,
00001000
00100000
01000000
10000000
,
00010000
01000000
00010000
00000000
,
11000000
00000000
01010000
00000000
,
00010000
00001000
00011000
00000000
,
00010000
00000010
00000100
00000001
,
00001000
00000100
00001000
00000000
,
00000101
00000000
00001100
00000000
,
00001000
00010000
00011000
00000000
,
00100000
01000000
00100000
00000000
,
10000000
00100000
10000000
00000000
,
00100000
00010000
00100000
00000000
,
00010000
00001000
00010000
00000000
,
00000100
00000000
00001000
00000100
,
00000010
00000100
00000001
00000100
,
00000020
00000000
00000000
00000030
,
00000200
00000000
00000000
00000300
,
00001001
00000010
00010000
00001000
,
00200000
00000000
00000000
01300000
,
10010000
10000000
00100000
00000000
,
01000000
00010000
00100000
00000000
,
10010000
00100000
00001000
00010000
,
00000020
00000000
00000000
00000130
,
00001001
00000001
00000010
00000000
,
00000100
00001000
00000010
00000000
,
00000100
00000001
00000100
00001000
,
00000100
00001000
00010000
00001000
,
00010000
00100000
10000000
00100000
,
10000000
00010000
00100000
00000000
,
01000000
10000000
01000000
00010000
,
01000000
00010000
00001000
00010000
,
00001000
00000100
00000001
00000100
,
00000001
00001000
00000100
00000000
,
00000020
00000000
00000000
00000030
,
00002000
00000000
00000000
00003000
,
00020000
00030000
00002000
00003000
,
00022000
00000000
00000000
00033000
,
00200000
00000000
00000000
00300000
,
00020000
00000000
00000000
00030000
,
00002000
00003000
00020000
00030000
,
00022000
00000000
00033000
00000000
,
00010000
00100000
00010000
00000000
,
00100000
10000000
00100000
00000000
,
10000000
01000000
10000000
00000000
,
01000000
00010000
01000000
00000000
,
00010000
00001000
00010000
00001000
,
00000100
00000001
00000100
00000001
,
00000010
00000100
00000010
00000100
,
00000220
00000000
00000000
00000330
,
00002002
00000000
00000000
00000000
,
00000000
00000000
00000000
00000000
,
00000000
00000000
00000000
00000000
,
00000000
00000000
00000000
00000000
,
00003003
00000000
00000000
00000000
;
