f#VERSION:0.83;
#TITLE:Pollinosis;
#ARTIST:dj REMO-CON;
#BANNER:Pollinosis.png;
#BACKGROUND:Pollinosis-bg.png;
#JACKET:Pollinosis-jacket.png;
#MUSIC:Pollinosis.ogg;
#OFFSET:-0.433793;
#SAMPLESTART:75.286163;
#SAMPLELENGTH:15;
#SELECTABLE:YES;
#BPMS:0=145;
#BGCHANGES:-0.25=Pollinosis.avi=1=0=0=0=StretchNoLoop====,99999=-nosongbg-=1=0=0=0 // don't automatically add -songbackground-;

//---------------dance-single - Kowalski-bSP----------------
#NOTEDATA:;
#CHARTNAME:Kowalski-bSP;
#STEPSTYPE:dance-single;
#DESCRIPTION:Kowalski-bSP;
#DIFFICULTY:Beginner;
#METER:2;
#RADARVALUES:0.109611,0.142317,0.033001,0.148505,0,93,89,4,18,0,0,0,0,0,0.109611,0.142317,0.033001,0.148505,0,93,89,4,18,0,0,0,0,0;
#CREDIT:Kowalski;
#NOTES:
0000
0000
0000
0000
,
0000
0000
0000
0000
,
0000
0000
0000
0000
,
0000
0000
0000
0000
,
0000
0000
0000
0000
,
0000
0000
0000
0000
,
0100
0000
0000
0000
,
0100
0000
0000
0000
,
0100
0000
0000
0100
,
0000
0010
0000
0000
,
0010
0000
0010
0000
,
0010
0000
0001
0000
,
0001
0000
0001
0000
,
1000
0000
1000
0000
,
1000
0000
0010
0000
,
0010
0000
0100
0000
,
0100
0000
0100
0000
,
0100
0000
0010
0000
,
0010
0000
0010
0000
,
0100
0000
0100
0000
,
0001
0000
0001
0000
,
0001
0000
0001
0000
,
0000
2000
0000
3000
,
0000
2000
0000
3000
,
0000
2000
0000
3000
,
0000
0200
0000
0300
,
0000
0020
0000
0030
,
0000
0020
0000
0030
,
0000
0020
0000
0030
,
0000
0002
0000
0003
,
0000
0002
0000
0003
,
0000
0002
0000
0003
,
0000
0020
0000
0030
,
0000
0020
0000
0030
,
0000
0200
0000
0300
,
0000
0200
0000
0300
,
0000
0200
0000
0300
,
0000
2000
0000
3000
,
0000
0000
1000
0000
,
0010
0000
0100
0000
,
0020
0000
0000
0000
,
0030
0000
0000
0200
,
0000
0000
0300
0000
,
0000
1001
0000
0000
,
0000
0000
0000
0000
,
0010
0000
0000
0000
,
0010
0000
0010
0000
,
0010
0000
1000
0000
,
1000
0000
1000
0000
,
0001
0000
0001
0000
,
0001
0000
0100
0000
,
0100
0000
0100
0000
,
0010
0000
0000
0000
,
1001
0000
0000
0000
,
1001
0000
0000
0000
,
0010
0000
0000
0000
,
0010
0000
0010
0000
,
0100
0000
0100
0000
,
1000
0000
1000
0000
,
0000
0000
1000
0000
,
0001
0000
0000
0000
,
0001
0000
0000
0000
,
0001
0000
0000
0000
,
0010
0000
0010
0000
,
1000
0000
1000
0000
,
0000
0100
0000
0000
,
0100
0000
0010
0000
,
0010
0000
0000
0000
,
0100
0000
0010
0000
,
1001
0000
0000
0000
;

//---------------dance-single - Kowalski-BSP----------------
#NOTEDATA:;
#CHARTNAME:Kowalski-BSP;
#STEPSTYPE:dance-single;
#DESCRIPTION:Kowalski-BSP;
#DIFFICULTY:Easy;
#METER:5;
#RADARVALUES:0.221579,0.284635,0.132004,0.198007,0,188,172,16,24,0,0,0,0,0,0.221579,0.284635,0.132004,0.198007,0,188,172,16,24,0,0,0,0,0;
#CREDIT:Kowalski;
#NOTES:
0000
0000
0000
0000
,
0000
0000
0000
0000
,
0000
0000
0000
0000
,
0000
0000
0000
0000
,
0000
0000
0000
0000
,
0000
0000
0000
0000
,
1000
0000
1000
0000
,
1000
0000
0010
0000
,
0010
0000
0010
0000
,
0010
0000
0010
0000
,
0001
0001
0100
0100
,
0010
0010
1000
1000
,
0001
0001
0001
0100
,
1000
1000
1000
0010
,
1000
1000
0010
0010
,
0010
0100
0100
0100
,
0100
0001
0001
0001
,
0001
0000
1000
0000
,
1000
0000
1000
0000
,
0010
0000
0010
0000
,
0100
0000
0100
0000
,
0100
0000
0100
0000
,
0010
0200
0000
0300
,
0001
0200
0000
0300
,
1000
0020
0000
0030
,
0100
0020
0000
0030
,
0001
0020
0000
0030
,
0100
0002
0000
0003
,
0001
2000
0000
3000
,
0100
0020
0000
0030
,
0010
0200
0000
0300
,
0010
0002
0000
0003
,
0100
2000
0000
3000
,
0010
0200
0000
0300
,
0001
0202
0000
0303
,
1000
2200
0000
3300
,
0010
0220
0000
0330
,
0100
2002
0000
3003
,
0101
0000
1100
0000
,
1001
0000
0110
0000
,
0100
0100
0100
0010
,
0010
0010
0100
0200
,
0000
0000
0000
0000
,
0020
0000
0000
0000
,
0330
0000
0000
0000
,
1000
0100
0010
0100
,
1000
0100
0010
0100
,
0001
0100
0010
1000
,
0010
1000
0100
0010
,
0001
0001
0100
0100
,
0010
0010
1000
1000
,
0100
0100
0100
0001
,
0100
1000
0100
0001
,
1001
0000
0100
0000
,
1100
0000
1000
0000
,
1010
0000
0010
0000
,
0110
0000
0010
0000
,
0100
0100
0100
0000
,
1000
1000
1000
0001
,
2002
0000
0000
3003
,
1001
0000
0000
0000
,
0011
0001
0010
0100
,
1000
0100
0010
0100
,
0010
1000
0100
0010
,
0100
0001
0100
0000
,
0010
0001
0010
0001
,
0010
0100
0010
0100
,
0010
1000
0010
1000
,
0010
1000
0100
0100
,
1001
0000
0000
0000
;

//---------------dance-single - Kowalski-DSP----------------
#NOTEDATA:;
#CHARTNAME:Kowalski-DSP;
#STEPSTYPE:dance-single;
#DESCRIPTION:Kowalski-DSP;
#DIFFICULTY:Medium;
#METER:8;
#RADARVALUES:0.302903,0.512342,0.396013,0.396013,0.016501,257,209,48,48,0,0,0,0,0,0.302903,0.512342,0.396013,0.396013,0.016501,257,209,48,48,0,0,0,0,0;
#CREDIT:Kowalski;
#NOTES:
0000
0000
0000
0000
,
0000
0000
0000
0000
,
0000
0000
0000
0000
,
0000
0000
0000
0000
,
0000
0000
0000
0000
,
0000
0000
0000
0000
,
0001
0010
0001
0010
,
0001
0010
0100
0010
,
0100
0010
0100
1000
,
0100
1000
0100
0000
,
1001
1001
1100
1100
,
0101
0101
0110
0110
,
1010
1010
0011
0011
,
1001
0000
1001
0000
1000
0001
1000
0000
,
1000
0010
1000
0000
0010
1000
0010
0000
,
0010
1000
0100
0000
0100
0010
1000
0000
,
0200
0320
2030
3002
,
1003
0000
1000
0000
1000
0001
1001
0000
,
2000
0001
0000
0001
,
0000
0001
0000
3100
,
0200
0010
0000
0010
,
0000
0010
0000
0310
,
0002
0020
0000
0033
,
2000
0200
0000
3300
,
2000
0002
0000
3003
,
0002
0200
0000
0303
,
0100
0220
0000
0330
,
0001
0202
0000
0303
,
1000
2002
0000
3003
,
0010
2020
0000
3030
,
0010
0220
0000
0330
,
0100
2200
0000
3300
,
0100
0202
0000
0303
,
0001
2002
0000
3003
,
0002
0200
0000
0303
,
2000
0200
0000
3300
,
0002
0020
0000
0033
,
2000
0002
0000
3003
,
0011
0000
1100
0000
,
0110
0000
1001
0000
,
1000
0000
0000
0000
1000
0000
0100
0000
0000
1000
0000
0000
0001
0000
0100
0000
,
0000
0001
0000
0000
0100
0000
0000
0000
0010
0000
0000
0000
0010
0000
0000
0000
,
2002
0000
0000
0000
,
3000
0200
0000
0000
,
0303
0000
0000
0000
,
0010
1010
1000
1100
,
0100
0110
0010
0011
,
0001
1001
1000
1010
,
0010
0110
0100
0000
,
0011
0011
1010
1010
,
0110
0110
1001
1001
,
1010
1010
1010
0010
,
1001
0000
0000
0000
,
2000
0100
3001
0200
,
1000
0310
0002
0010
,
1003
0100
0010
1000
,
0001
0001
1000
0000
,
0020
0100
0031
2000
,
0010
3100
0002
0100
,
1003
1000
0010
0010
,
0100
0000
0100
0000
0100
0000
0200
0000
0000
0000
0000
0000
,
0301
0000
0100
0000
0010
0001
0100
0000
,
1000
0000
0010
0000
0100
1000
0100
0000
,
0010
0000
1000
0000
0100
0010
0001
0000
,
1000
0010
0100
0000
,
0100
0000
0010
1000
0001
0000
0100
0000
,
1000
0010
0001
0000
1000
0000
0001
0100
,
1000
0100
0001
0001
,
1000
0000
1000
0000
0010
0000
0001
1000
,
1001
0000
0000
0000
;

//---------------dance-single - NewbStepper-ESP----------------
#NOTEDATA:;
#CHARTNAME:NewbStepper-ESP;
#STEPSTYPE:dance-single;
#DESCRIPTION:NewbStepper-ESP;
#DIFFICULTY:Hard;
#METER:13;
#RADARVALUES:0.513875,0.683123,0.602270,0.099003,0.354762,436,363,73,12,0,0,0,0,0,0.513875,0.683123,0.602270,0.099003,0.354762,436,363,73,12,0,0,0,0,0;
#CREDIT:NewbStepper;
#NOTES:
0000
0000
0000
0000
,
0000
0000
0000
0000
,
0000
0000
0000
0000
,
0000
0000
0000
0000
,
0000
0000
0000
0000
,
0000
0000
0000
0000
0000
0000
0000
0001
,
0010
0001
0000
0001
0000
0001
0000
1000
,
0000
1000
0000
1000
0000
0100
0000
0100
,
0010
0100
0000
0100
0000
0100
0000
0100
,
0000
0100
0000
0010
0000
0010
0000
0001
,
0101
1100
1010
0011
,
0110
1001
0101
1010
,
1100
0101
0011
1010
,
0110
0000
0000
0000
1001
0000
0000
0000
0010
0000
0001
0000
0000
1000
0000
0100
,
0010
0110
1001
0011
,
1100
0110
0011
0101
,
1100
1010
0011
1001
,
0110
0000
0000
0010
1000
0000
0100
0000
0001
0000
0100
0000
0000
1000
0010
0100
,
0002
0100
0000
0100
,
0000
0100
0000
0100
,
2003
0010
0000
0010
,
0000
0010
0000
3010
,
0100
2002
0000
0003
,
0000
0020
0000
0000
,
3030
1002
0000
0000
,
0000
0000
0200
0000
0003
0000
0000
0310
,
0110
1000
1000
0010
,
0010
0001
0001
0100
,
0100
1000
0001
0010
,
1000
0001
0100
1000
,
0010
1000
0001
0000
0010
0001
1000
0000
,
0100
0010
0001
0000
0100
0010
1000
0000
,
0001
0100
1000
0000
1000
0100
0001
0000
,
0001
0010
1000
0000
1000
0010
0001
0100
,
0010
0000
1000
0001
0010
0100
1000
0001
,
0100
0000
0010
1000
0100
0010
0001
0100
,
0010
0000
1000
0001
1000
0010
0100
0001
,
1000
0000
0001
0010
0100
1000
0001
0100
,
0110
0000
0000
0000
0010
1000
0010
1000
0010
0000
0000
0000
0100
0010
0100
0010
,
0100
0000
0000
0000
0001
1000
0001
1000
0001
0000
0000
0000
1000
0100
1000
0100
,
0000
0010
0000
0000
0100
0000
1000
0000
0000
0010
0000
0000
0100
0000
0001
0000
,
0000
1000
0000
0001
0100
0000
0010
0100
0000
1000
0000
0100
0001
0100
0001
0100
,
0020
0000
0000
0000
,
0000
2000
0000
3030
,
0001
0100
0001
0100
0010
1000
0010
1000
0200
0000
0000
0300
0000
0000
1000
0000
,
1100
0101
0011
1010
,
0110
1001
1100
0011
,
0101
1100
1010
0011
,
0110
0000
0000
0000
1001
0000
0000
0000
0010
0000
1000
0000
0000
0001
0000
0100
,
0010
0110
1001
1010
,
0101
0110
1010
1100
,
0101
0011
1010
1001
,
0011
0110
2000
3002
,
0103
0000
0100
0010
0000
0010
1000
0000
1000
0001
0000
0001
,
0100
0000
0100
1000
0000
1000
0100
0000
0100
0001
1000
0010
,
0100
0000
0100
0010
0000
0010
1000
0000
1000
0001
0000
0001
,
0010
0000
0010
1000
0000
1000
0010
0001
0100
0010
1000
0100
,
0010
0000
0000
0011
0000
0000
0001
0100
0001
0100
0010
1000
,
0100
0000
0000
1100
0000
0000
1000
0100
0001
0100
0000
0000
,
1000
0010
1000
0001
0010
0001
1000
0100
0010
0001
0100
0010
,
1010
0000
0110
0000
0101
0000
1001
0000
0000
1001
0000
0000
,
0101
0000
0000
0001
1000
0000
0100
0000
0010
0000
0001
1000
0001
0000
0100
0000
,
0010
0000
0000
0010
1000
0000
0100
0000
0010
0000
0000
0010
0001
0000
0100
0010
,
1000
0000
0000
1000
0100
0000
0010
0001
0100
0000
0000
0100
0010
0000
1000
0001
,
1000
0000
0000
0100
0010
0000
0001
0000
0000
0001
0100
0000
0010
0000
1000
0000
,
1001
0000
0000
0001
0100
0000
0010
0000
1010
0000
0000
1000
0100
0000
0010
0000
,
0011
0000
0000
0001
0100
0000
0010
0000
1010
0000
0000
0001
0100
0000
0010
0000
,
0000
1010
0000
1001
0000
0000
0010
0000
0000
0011
0000
1001
0000
0000
0100
0000
,
1000
0000
0100
0010
0001
0000
0100
0010
1000
0000
0100
0010
0001
0000
0100
0010
,
1000
0000
0000
0000
;

//---------------dance-single - DDRDAIKENKAI-CSP----------------
#NOTEDATA:;
#CHARTNAME:DDRDAIKENKAI-CSP;
#STEPSTYPE:dance-single;
#DESCRIPTION:DDRDAIKENKAI-CSP;
#DIFFICULTY:Challenge;
#METER:15;
#RADARVALUES:0.714239,0.796977,0.750776,0.635272,0.697149,606,515,91,77,0,0,0,0,0,0.714239,0.796977,0.750776,0.635272,0.697149,606,515,91,77,0,0,0,0,0;
#CREDIT:DDRDAIKENKAI;
#NOTES:
0000
0000
0000
0000
,
0000
0000
0000
0000
,
0000
0000
0000
0000
,
0000
0000
0000
0000
,
0000
0000
0000
0000
,
0000
0000
0000
0000
,
1010
0000
0001
0100
0000
0000
0001
0100
0000
0000
0001
1000
0000
0000
0001
1000
,
0000
0000
0010
1000
0000
0000
0010
1000
0000
0000
0100
1000
0000
0000
0100
1000
,
0000
0000
1000
0010
0000
0000
1000
0010
0000
0000
1000
0001
0000
0000
1000
0001
,
0000
0000
0100
0000
0001
0010
0001
0000
0100
0000
0010
0000
1000
0100
1000
0000
,
2020
3030
2002
3003
0022
0033
2002
3003
,
2020
3030
2002
3003
0202
0303
2002
3003
,
0022
0033
0220
0330
2200
3300
2020
3030
,
0220
0000
0330
0000
0202
0000
0303
0000
1001
0000
0001
0000
0000
0100
0000
0010
,
1010
1000
1001
0001
0011
0010
0110
0100
,
1100
1000
1010
0010
0110
0100
0101
0001
,
0011
1000
1100
0010
1010
0100
0101
0010
,
0120
0000
0000
1030
0100
0000
0001
0000
0100
0000
1000
0000
0000
0001
0000
0001
,
0200
0010
0320
0001
0000
0100
0000
1000
,
0000
1030
0002
0010
0000
1000
0000
0100
,
0000
1003
0200
1000
0000
0010
0000
1000
,
0000
0310
0002
0010
0000
1000
0000
0103
,
0110
2000
0000
0000
,
3010
2000
0000
0000
,
3100
2000
0000
0000
,
3010
0000
2000
0000
0000
0000
0000
3000
,
0110
0000
0000
0000
2000
0000
0000
3001
0000
1000
0100
0000
0010
0000
0001
0000
,
0100
0000
0000
0000
0002
0000
0000
1003
0000
0010
0100
0000
0001
0000
1000
0000
,
1100
0000
0100
0000
0020
0000
0000
0130
0000
1000
0001
0000
0100
0000
0001
0000
,
0100
0000
0100
0000
0020
0000
0000
1030
0100
0000
0100
0000
1000
0000
0010
0000
,
0110
0000
0001
0000
0200
0000
0000
0310
0000
1000
0100
1000
0001
0000
0001
0000
,
0100
0000
0010
0000
2010
0000
0000
3010
0000
1000
0001
1000
0100
0000
1000
0000
,
0010
0000
0100
0000
0210
0000
0000
0310
0000
1000
0010
0100
0001
0000
0010
0000
,
0100
0000
0010
0000
0120
0000
0000
0031
0100
0000
0100
0000
0010
0000
1000
0000
,
1002
0000
0000
0000
1003
0100
1000
0100
1000
0100
1000
0100
1000
0100
1000
0100
,
0020
0000
0000
0000
0031
1000
0001
1000
0001
1000
0001
1000
0001
1000
0001
0000
,
0120
0000
0000
0000
0130
0001
0100
0001
0100
0001
0100
0001
0100
0001
0100
0001
,
2000
0000
0000
0000
3010
1000
0010
1000
0010
1000
0010
1000
0010
1000
0010
0000
,
0120
2030
3200
0300
0120
0032
0203
0300
,
0120
0000
2030
0000
3200
0000
0300
0000
0120
0000
0032
0000
0203
0000
0310
1000
,
0000
1001
0000
0000
1010
0000
1001
0000
0000
0101
0000
0000
1001
0000
0110
0000
,
0000
0011
0000
0001
1000
0000
0100
1000
0000
0010
0000
1000
0100
0010
0001
0100
,
0002
0000
0000
0000
,
0000
0103
0000
0000
0020
0000
0000
0000
0000
0000
0000
0000
0000
0000
0000
0000
,
1030
0100
1000
0010
0100
0001
0100
0010
2000
0000
3001
0010
0000
0001
1000
0000
,
0011
0100
1010
0001
1100
0010
0101
1000
,
0011
0100
1010
0001
1100
0010
0101
1000
,
0011
0100
1010
0001
1100
0010
0101
1000
,
0011
0000
0100
0000
1010
0000
0001
0000
0100
0000
0010
0000
0100
0001
0000
0010
,
0011
1000
1010
0001
0101
1000
1100
0010
,
0110
1000
1001
0100
0110
0001
1001
1000
,
1010
0010
0011
0001
0101
0100
1100
1000
,
0002
0003
0200
0300
2020
3030
2002
3003
,
1000
0010
1000
0001
0100
0001
1000
0010
1000
0001
0100
0001
,
1000
0100
1000
0001
0010
0001
1000
0100
1000
0001
0001
0001
,
1000
0010
0100
0001
0010
0100
1000
0010
1000
0100
0010
0001
,
1000
0100
1000
0010
0100
0001
0010
0010
0010
0001
0000
1000
,
0001
0010
0001
1000
0100
1000
0001
0010
0001
0100
0010
0100
,
0001
0010
0100
1000
0010
0100
0001
1000
0100
0010
0001
1000
,
0001
0010
1000
0001
0100
1000
0001
0010
1000
0001
0100
1000
,
1010
0000
1001
0000
0101
0000
0110
0000
0000
2001
0000
0000
,
3001
0100
0010
1000
0001
0000
1000
0000
0010
0100
0001
1000
0100
0000
0010
0000
,
0100
1000
0010
0100
0001
0000
0010
0000
0100
1000
0100
0010
0001
0000
1000
0000
,
0010
1000
0001
0100
0001
0000
0010
0000
0001
1000
0100
1000
0001
0000
0100
0000
,
0010
1000
0100
1000
0001
0000
0010
0000
0000
0011
0000
1100
0000
0000
1001
0000
,
0001
0100
0010
1000
0200
0000
0310
0000
0001
1000
0010
0100
0002
0000
0013
0000
,
0100
1000
0001
0100
0020
0000
1030
0000
0100
0010
0001
1000
0020
0000
1030
0000
,
0000
1010
0000
1001
0000
0000
0101
0000
0000
0011
0000
1001
0000
0000
1100
0000
,
0001
0100
0010
1000
0001
0010
0100
1000
0001
0100
0010
1000
0001
0010
0002
0000
,
0103
0000
0000
0000
;

//---------------dance-double - DDRDAIKENKAI-BDP----------------
#NOTEDATA:;
#CHARTNAME:DDRDAIKENKAI-BDP;
#STEPSTYPE:dance-double;
#DESCRIPTION:DDRDAIKENKAI-BDP;
#DIFFICULTY:Easy;
#METER:5;
#RADARVALUES:0.220400,0.313098,0.140255,0.214507,0,187,170,17,26,0,0,0,0,0,0.220400,0.313098,0.140255,0.214507,0,187,170,17,26,0,0,0,0,0;
#CREDIT:DDRDAIKENKAI;
#NOTES:
00000000
00000000
00000000
00000000
,
00000000
00000000
00000000
00000000
,
00000000
00000000
00000000
00000000
,
00000000
00000000
00000000
00000000
,
00000000
00000000
00000000
00000000
,
00000000
00000000
00000000
00000000
,
10000000
00000000
01000000
00000000
,
00100000
00000000
00010000
00000000
,
00001000
00000000
00000100
00000000
,
00000010
00000000
00000001
00000000
,
00001000
00001000
00000001
00000000
,
00000100
00000010
00000100
00000000
,
00000010
00000010
00001000
00000000
,
00000100
00001000
00000100
00000100
,
00010000
00010000
00001000
00000000
,
00010000
00001000
00010000
00000000
,
00001000
00001000
00100000
00000000
,
00010000
00010000
01000000
01000000
,
01100000
00200000
00000000
00000000
,
00300000
02000000
00000000
00000000
,
03000000
00020000
00000000
00000000
,
00030000
20000000
00000000
30000000
,
10010000
00020000
00000000
00000000
,
00030000
02000000
00000000
00000000
,
03000000
00020000
00000000
00000000
,
00030000
00200000
00000000
00300000
,
00011000
00020000
00000000
00000000
,
00030000
00000200
00000000
00000000
,
00000300
00002000
00000000
00000000
,
00003000
00000020
00000000
00000030
,
00000110
00000200
00000000
00000000
,
00000300
00000002
00000000
00000000
,
00000003
00000020
00000000
00000000
,
00000030
00000200
00000000
00000300
,
00000110
00002000
00000000
00000000
,
00003000
00020000
00000000
00030000
,
00011000
00020000
00000000
00000000
,
00030000
00002000
00000000
00003000
,
00011000
00000000
00110000
00000000
,
00011000
00000000
00001100
00000000
,
00000000
00000100
00000000
00000100
00000000
00010000
00000000
00010000
,
00000000
00001000
00000000
00001000
00000000
00100000
00100000
00000000
,
02200000
00000000
00000000
00000000
,
03300000
00020000
00000000
00000000
,
20000000
00000000
30030000
00000000
,
10000000
10000000
00010000
00010000
,
00100000
00100000
00001000
00001000
,
00010000
00010000
00000100
00000100
,
00001000
00000000
00001000
00000000
00000001
00000001
00000000
00000001
,
00001000
00001000
00000100
00000100
,
00010000
00010000
00001000
00001000
,
00100000
00100000
00010000
00010000
,
10000000
01000000
01100000
10010000
,
10000000
00100000
01000000
00010000
,
10000000
01000000
00100000
00010000
,
10000000
00010000
01000000
00100000
,
10000000
00010000
00100000
00100000
,
00010000
10000000
00010000
01000000
,
00010000
00100000
00001000
00010000
,
00001000
00001000
00001000
00001000
,
00022000
00000000
00033000
00011000
,
00001000
00000100
00000010
00000001
,
00000010
00000100
00001000
00010000
,
00100000
01000000
10000000
01000000
,
00100000
00010000
00000000
00011000
,
00001000
00100000
00010000
01000000
,
00100000
10000000
00100000
01000000
,
00010000
00100000
00001000
00010000
,
00000100
00001000
00000001
00000100
,
00000110
00000000
00000000
00000000
;

//---------------dance-double - DDRDAIKENKAI-DDP----------------
#NOTEDATA:;
#CHARTNAME:DDRDAIKENKAI-DDP;
#STEPSTYPE:dance-double;
#DESCRIPTION:DDRDAIKENKAI-DDP;
#DIFFICULTY:Medium;
#METER:8;
#RADARVALUES:0.320582,0.512342,0.280510,0.239258,0.008250,272,238,34,29,0,0,0,0,0,0.320582,0.512342,0.280510,0.239258,0.008250,272,238,34,29,0,0,0,0,0;
#CREDIT:DDRDAIKENKAI;
#NOTES:
00000000
00000000
00000000
00000000
,
00000000
00000000
00000000
00000000
,
00000000
00000000
00000000
00000000
,
00000000
00000000
00000000
00000000
,
00000000
00000000
00000000
00000000
,
00000000
00000000
00000000
00000000
,
10000000
00010000
00000000
10000000
00000000
00010000
00000000
00010000
,
00000000
00100000
00000000
00010000
00000000
00100000
00000000
00100000
,
00000000
00001000
00000000
00010000
00000000
00001000
00000000
00001000
,
00000000
00010000
00000000
00000100
00000000
00000010
00000000
00000001
,
00001000
00000010
00001000
00000010
,
00000100
00000001
00000100
00000001
,
00000010
00000001
00000010
00000001
,
00001000
00000000
00000100
00000000
00001000
00001000
00000000
00000100
,
00010000
01000000
00010000
01000000
,
10000000
00100000
10000000
00100000
,
00010000
00100000
00010000
00100000
,
10000000
00000000
01000000
00000000
00100000
00010000
00000000
00010000
,
10000000
00200000
00000000
00000000
,
01300000
00020000
00000000
00000000
,
00130000
00002000
00000000
00000000
,
00013000
00000200
00000000
00000300
,
00000110
00000002
00000000
00000000
,
00000103
00000020
00000000
00000000
,
00001030
00000200
00000000
00000000
,
00000310
00000002
00000000
00000003
,
00001001
00000000
00002000
00000000
00000000
00003100
00010000
00000000
,
00001000
00000000
00200000
00000000
00000000
00310000
10000000
00000000
,
01000000
00000000
20000000
00000000
00000000
31000000
00100000
00000000
,
01000000
00000000
20000000
00000000
30100000
00100000
01000000
00000000
,
01100000
00000000
00020000
00000000
00000000
00130000
00001000
00000000
,
00000010
00000000
00000002
00000000
00000000
00001003
00000010
00000000
,
00000100
00000000
00000002
00000000
00000000
00001003
00000010
00000000
,
00001000
00000000
00000200
00000000
00010300
00010000
00001000
00000000
,
00011000
00200000
00000000
00300000
,
10010000
00020000
00000000
00030000
,
00011000
00000200
00000000
00000300
,
00001001
00000020
00000000
00000030
,
00002000
00000001
00003000
00000000
00000002
00001000
00000003
00000000
,
00002000
00010000
00003000
00000000
00020000
10000000
00030000
00000000
,
00000000
00010000
00000000
00010000
00000000
01000000
00000000
01000000
,
00000000
00100000
00000000
00100000
00000000
10000000
00000000
20000000
,
00020000
00000000
00000000
00000000
00000000
00000000
00000000
30030000
,
00000000
02000000
00000000
00000000
,
00200000
00000000
03300000
00000000
,
10000000
00010000
00100000
00001000
,
00010000
00000100
00001000
00000001
,
00000010
00000001
00001000
00000100
,
00010000
00000000
00001000
00000000
00100000
00100000
00000000
01000000
,
01000000
10000000
00100000
01000000
,
00010000
00100000
00001000
00010000
,
00000100
00001000
00000010
00000100
,
00000001
00000010
00000110
00001001
,
00001010
00001001
00001100
00000100
,
00010100
00011000
00101000
00100000
,
01100000
11000000
10010000
10000000
,
10100000
01100000
00010000
00010000
,
00110000
00011000
00001100
00000110
,
00000011
00000101
00000110
00001010
,
00010100
00010100
00101000
00101000
,
00010000
00000000
00010000
00000000
00010000
00000000
00001000
00000000
00000000
00012000
00000000
00000000
,
00103000
00010000
00100000
00000000
00010000
01000000
00010000
00000000
,
01000000
10000000
01000000
00000000
10000000
00100000
10000000
00000000
,
00100000
00010000
00100000
00000000
00001000
00010000
00001000
00000000
,
00000100
00001000
00000100
00000000
00000000
00000001
00001000
00000000
,
00000001
00000010
00000001
00000000
00000100
00000001
00000100
00000000
,
00001000
00000100
00001000
00000000
00000010
00001000
00000010
00000000
,
00000000
00000001
00000000
00000100
00000000
00000010
00000000
00001000
,
00000001
00001000
00010000
01000000
,
01100000
00000000
00000000
00000000
;

//---------------dance-double - DDRDAIKENKAI-EDP----------------
#NOTEDATA:;
#CHARTNAME:DDRDAIKENKAI-EDP;
#STEPSTYPE:dance-double;
#DESCRIPTION:DDRDAIKENKAI-EDP;
#DIFFICULTY:Hard;
#METER:13;
#RADARVALUES:0.506803,0.654660,0.643522,0.222758,0.346512,430,352,78,27,0,0,0,0,0,0.506803,0.654660,0.643522,0.222758,0.346512,430,352,78,27,0,0,0,0,0;
#CREDIT:DDRDAIKENKAI;
#NOTES:
00000000
00000000
00000000
00000000
,
00000000
00000000
00000000
00000000
,
00000000
00000000
00000000
00000000
,
00000000
00000000
00000000
00000000
,
00000000
00000000
00000000
00000000
,
00000000
00000000
00000000
00000000
00000000
00000000
00000000
00020000
,
10030000
00100000
01000000
00100000
10000000
01000000
00100000
00000000
,
00001000
00010000
00001000
00100000
00001000
00010000
00000100
00000000
,
00001000
00000010
00000100
00000001
00000010
00000001
00000100
00000000
,
00000010
00000001
00000010
00000100
00001000
00010000
00100000
00000000
,
10100000
10010000
11000000
10010000
,
00110000
10010000
01010000
10010000
,
10100000
01010000
00101000
00010100
,
00001010
00000000
00000000
00000000
00000101
00000000
00000000
00000000
00000010
00000000
00000001
00000000
00001000
00000001
00000000
00000000
,
00000011
00000110
00001100
00000110
,
00001010
00000110
00000101
00000110
,
00000011
00000110
00001100
00011000
,
00110000
00000000
00000000
00010000
10000000
00000000
00100000
00000000
10000000
00000000
10000000
00000000
00010000
10000000
00000000
00000000
,
02000000
00100000
00000000
00100000
,
03200000
00010000
00000000
00010000
,
00320000
00001000
00000000
00001000
,
00032000
00000010
00000000
00003010
,
00000110
00000020
00000000
00000000
,
00000130
00000020
00000000
00000000
,
00000130
00000020
00000000
00000000
,
00000130
00000000
00000020
00000000
00000000
00000000
00000000
00001030
,
00001001
00000000
00000002
00000000
00000000
00000100
00000103
00000000
,
00000001
00000000
00002000
00000000
00000000
00000100
00003100
00000000
,
00001000
00000000
00000020
00000000
00000000
00000100
00000130
00000000
,
00000001
00000000
00002000
00000000
00003100
00000100
00010000
00001000
,
00100000
00000000
00020000
00000000
00000000
01000000
01030000
00000000
,
00100000
00000000
02000000
00000000
00000000
00100000
03100000
00000000
,
10000000
00000000
00020000
00000000
00000000
10000000
10030000
00000000
,
01000000
00000000
00200000
00000000
01300000
01000000
00100000
00010000
,
00110000
00002000
00000000
00000000
,
00013000
00000020
00000000
00000030
,
00001010
00000002
00000000
00000000
,
00001003
00000200
00000000
00000300
,
00011000
00001000
00100000
00000000
00110000
00010000
01000000
00000000
,
01100000
01000000
00010000
00000000
00011000
00001000
00000100
00000001
,
00000000
00000011
00000000
00000000
00000001
00000000
00001000
00000000
00000000
00001010
00000000
00000000
00001000
00000000
00000001
00000000
,
00000000
00001001
00000000
00001000
00000001
00000000
00001000
00000020
00000000
00001030
00000000
00000100
00010000
00001000
00010000
00000000
,
00022000
00000000
00000000
00000000
,
00033000
00000020
00000000
00000030
,
00000100
00000001
00000100
00000001
00000100
00000001
00000100
00000001
00002000
00000000
00003100
00000010
00000000
00000100
00001000
00000000
,
00001100
00010100
00011000
00101000
,
00011000
00001100
00011000
00110000
,
00101000
00010100
00001100
00110000
,
00011000
00000000
00000000
00000000
00010100
00000000
00000000
00000000
00000100
00000000
00010000
00000000
00001000
00100000
00000000
00000000
,
00110000
10100000
11000000
01010000
,
00011000
00001010
00000011
00000101
,
00001100
00011000
00110000
01100000
,
10000000
00100000
01100000
10010000
,
10000000
00000000
10000000
00100000
00000000
00100000
01000000
00000000
01000000
00010000
00000000
00010000
,
00100000
00000000
00100000
00001000
00000000
00001000
00010000
00000000
00010000
00000100
00000010
00000100
,
00000010
00000000
00000010
00000001
00000000
00000001
00000100
00000000
00000100
00001000
00000000
00001000
,
00010000
00000000
00010000
00100000
00000000
00100000
10000000
00010000
10000000
00010000
00000000
00010000
,
10000000
00000000
10000000
01000000
00000000
01000000
00100000
00010000
00100000
00010000
00000000
00010000
,
00001000
00000000
00001000
00010000
00000000
00010000
00100000
10000000
00100000
10000000
00000000
10000000
,
00100000
00010000
00100000
00001000
00010000
00001000
00010000
00000100
00010000
00000100
00001000
00000100
,
00000010
00000000
00000010
00000000
00000010
00000000
00001001
00000000
00000000
00011000
00000000
00000000
,
00001000
00100000
00000000
00001000
00100000
00000000
00010000
00000000
10000000
00100000
00000000
10000000
00100000
00000000
01000000
00000000
,
00010000
10000000
00000000
00010000
10000000
00000000
01000000
00000000
00100000
00010000
00000000
00100000
00010000
00000000
01000000
00000000
,
00010000
00100000
00000000
00010000
00100000
00000000
00001000
00000000
00010000
00000100
00000000
00010000
00000100
00000000
00001000
00000000
,
00000100
00000010
00000000
00000100
00000010
00000000
00000100
00000000
00000000
00001100
00000000
00010100
00000000
00000000
00001100
00000000
,
00001000
00000010
00000000
00001000
00000001
00000000
00000100
00000000
00000001
00000010
00000000
00000001
00001000
00000000
00000100
00000000
,
00001000
00000010
00000000
00010000
00001000
00000000
00100000
00000000
00001000
00010000
00000000
00000100
00010000
00000000
00001000
00000000
,
00000000
00101000
00000000
00101000
00000000
00000000
00110000
00000000
00000000
10010000
00000000
10010000
00000000
00000000
10100000
00000000
,
10000000
00010000
00100000
00001000
00010000
00000100
00000010
00000002
,
00000103
00000000
00000000
00000000
;

//---------------dance-double - DDRDAIKENKAI-CDP----------------
#NOTEDATA:;
#CHARTNAME:DDRDAIKENKAI-CDP;
#STEPSTYPE:dance-double;
#DESCRIPTION:DDRDAIKENKAI-CDP;
#DIFFICULTY:Challenge;
#METER:15;
#RADARVALUES:0.707167,0.796977,0.651772,0.676523,0.730150,600,521,79,82,0,0,0,0,0,0.707167,0.796977,0.651772,0.676523,0.730150,600,521,79,82,0,0,0,0,0;
#CREDIT:DDRDAIKENKAI;
#NOTES:
// measure 0
00000000
00000000
00000000
00000000
,  // measure 1
00000000
00000000
00000000
00000000
,  // measure 2
00000000
00000000
00000000
00000000
,  // measure 3
00000000
00000000
00000000
00000000
,  // measure 4
00000000
00000000
00000000
00000000
,  // measure 5
00000000
00000000
00000000
00000000
,  // measure 6
11000000
00000000
01000000
00100000
00000000
00000000
00100000
00010000
00000000
00000000
00010000
00001000
00000000
00000000
00001000
00000100
,  // measure 7
00000000
00000000
00000100
00000010
00000000
00000000
00000010
00000001
00000000
00000000
00000001
00000100
00000000
00000000
00000100
00000010
,  // measure 8
00000000
00000000
00000010
00001000
00000000
00000000
00001000
00000100
00000000
00000000
00000100
00010000
00000000
00000000
00010000
00001000
,  // measure 9
00000000
00000000
00001000
00100000
00000000
00000000
00100000
01000000
00000000
00000000
01000000
10000000
00000000
00000000
00100000
00000000
,  // measure 10
20200000
30300000
20020000
30030000
00220000
00330000
02020000
03030000
,  // measure 11
02200000
03300000
00220000
00330000
00022000
00033000
00202000
00303000
,  // measure 12
00220000
00330000
00020200
00030300
00022000
00033000
00002200
00003300
,  // measure 13
00002020
00000000
00003030
00000000
00000220
00000000
00000330
00000000
00000001
00000000
00001000
00000000
00000000
00010000
00000000
00100000
,  // measure 14
00110000
10000000
22000000
33000000
10100000
00010000
02020000
03030000
,  // measure 15
00110000
00100000
00202000
00303000
00011000
00010000
00020200
00030300
,  // measure 16
00001100
00000100
00000110
00000010
00000011
00000001
00001001
00001000
,  // measure 17
00001020
00000000
00000000
00001030
00000100
00000000
00000010
00000000
00000100
00000000
00001000
00000000
00000000
00001000
00000000
00010000
,  // measure 18
02000000
00000000
00100000
00000000
03200000
00000000
00000000
00010000
00000000
00000000
00310000
00000000
00001000
00000000
00000100
00000000
,  // measure 19
00000010
00000000
00001000
00000000
00000200
00000000
00000000
00000010
00000000
00000000
00000310
00000000
00000001
00000000
00000010
00000000
,  // measure 20
00001000
00000000
00000010
00000000
00000002
00000000
00000000
00000100
00000000
00000000
00000103
00000000
00000010
00000000
00001000
00000000
,  // measure 21
00000100
00000000
00010000
00000000
00002000
00000000
00000000
00010000
00000000
00000000
00013000
00000000
01000000
00000000
10000000
00000000
,  // measure 22
10010000
00200000
00000000
00300000
,  // measure 23
10010000
00200000
00000000
00300000
,  // measure 24
10010000
00200000
00000000
00300000
,  // measure 25
10010000
00000000
00200000
00000000
00000000
00000000
00300000
00020000
,  // measure 26
10030000
00000000
00000000
00000000
00120000
00000000
00000000
00130000
00000000
00001000
00100000
00000000
01000000
00000000
00100000
00000000
,  // measure 27
00010000
00000000
00000000
00000000
00000200
00000000
00000000
00000301
00000000
00000010
00000100
00000000
00000010
00000000
00000001
00000000
,  // measure 28
00000100
00000000
00000010
00000000
00002000
00000000
00000000
00003001
00000000
00000010
00000100
00000000
00000010
00000000
00000001
00000000
,  // measure 29
00001000
00000000
00000100
00000000
00000002
00000000
00000000
00000103
00001000
00000000
00001000
00000000
00000100
00000000
00010000
00000000
,  // measure 30
00011000
00000000
00001000
00000000
02000000
00000000
00000000
03100000
00000000
10000000
01000000
00000000
10000000
00000000
00010000
00000000
,  // measure 31
01000000
00000000
00100000
00000000
20000000
00000000
00000000
31000000
00000000
00100000
00010000
00000000
01000000
00000000
10000000
00000000
,  // measure 32
01000000
00000000
00010000
00000000
00120000
00000000
00000000
00130000
00000000
00001000
00010000
00000000
01000000
00000000
00100000
00000000
,  // measure 33
00010000
00000000
00001000
00000000
00000200
00000000
00000000
00000310
00000100
00000000
00000100
00000000
00001000
00000000
00000010
00000000
,  // measure 34
00000210
00000000
00000000
00000000
00000301
00000010
00000001
00000010
00000001
00000010
00000001
00000010
00000001
00000010
00000001
00000010
,  // measure 35
00000200
00000000
00000000
00000000
00001300
00000100
00001000
00000100
00001000
00000100
00001000
00000100
00001000
00000100
00001000
00000000
,  // measure 36
00012000
00000000
00000000
00000000
01003000
00010000
01000000
00010000
01000000
00010000
01000000
00010000
01000000
00010000
01000000
00010000
,  // measure 37
20000000
00000000
00000000
00000000
30100000
01000000
00100000
01000000
00100000
01000000
00100000
01000000
00100000
01000000
00100000
00000000
,  // measure 38
10200000
02300000
03010000
00000000
00210000
00302000
00013000
00000000
,  // measure 39
00010200
00000000
00002300
00000000
00003010
00000000
00000000
00000000
00000120
00000000
00002030
00000000
00003001
00000000
00000010
00000100
,  // measure 40
00000000
00001001
00000000
00000000
00000101
00000000
00001010
00000000
00000000
00001100
00000000
00000000
00010100
00000000
00011000
00000000
,  // measure 41
00000000
00110000
00000000
00010000
10000000
00000000
01000000
10000000
00000000
00100000
00000000
01000000
00010000
00100000
00001000
00010000
,  // measure 42
00002000
00000000
00000000
00000000
,  // measure 43
00010000
00003020
00000000
00000000
,  // measure 44
00000031
00000100
00000010
00001000
00000100
00010000
00001000
00100000
00020000
00000000
00130000
00010000
00000000
00010000
10000000
00000000
,  // measure 45
10100000
00100000
01100000
01000000
01010000
00010000
00110000
00100000
,  // measure 46
01100000
01000000
11000000
10000000
10010000
00010000
00110000
00100000
,  // measure 47
00101000
00001000
00011000
00010000
00010100
00000100
00001100
00001000
,  // measure 48
00001001
00000000
00000001
00000000
00000011
00000000
00000010
00000000
00000001
00000000
00000001
00000000
00000100
00000010
00000000
00001000
,  // measure 49
00001010
00000000
00000010
00001000
00000010
00000000
00000100
00000001
00000100
00000000
00000001
00000010
00000001
00000000
00001000
00000100
,  // measure 50
00001000
00000000
00000100
00000000
00000100
00000000
00010000
00001000
00010000
00000000
01000000
00100000
01000000
00000000
10000000
00100000
,  // measure 51
10000000
00000000
00100000
01000000
00100000
00000000
01000000
00010000
01000000
00000000
00010000
00100000
00010000
00000000
10000000
00000000
,  // measure 52
00020000
00030000
02000000
03000000
02200000
03300000
20020000
30030000
,  // measure 53
00010000
00100000
00001000
00010000
00001000
00100000
00010000
00100000
00001000
00010000
00001000
00100000
,  // measure 54
00010000
01000000
00010000
10000000
00100000
10000000
00100000
01000000
00010000
00100000
00010000
00100000
,  // measure 55
00001000
00010000
00000100
00001000
00000100
00010000
00001000
00010000
00000100
00001000
00000100
00010000
,  // measure 56
00001000
00010000
00000010
00001000
00000100
00010000
00000100
00000010
00000001
00000010
00000000
00000010
,  // measure 57
00000100
00001000
00000100
00010000
00001000
00010000
00001000
00100000
00001000
00100000
00010000
00100000
,  // measure 58
01000000
10000000
01000000
10000000
00100000
10000000
00100000
01000000
00100000
01000000
00010000
01000000
,  // measure 59
00010000
00100000
01000000
10000000
01000000
00100000
00001000
00010000
00001000
00010000
00000100
00000010
,  // measure 60
00000011
00000000
00001001
00000000
00001100
00000000
00000110
00000000
00000000
00001002
00000000
00000000
,  // measure 61
00000013
00000100
00000010
00000100
00001000
00000000
00000001
00000000
00001000
00000010
00001000
00000010
00000100
00000000
00000010
00000000
,  // measure 62
00001000
00000100
00010000
00000100
00001000
00000000
00000100
00000000
00010000
00001000
00100000
00001000
00010000
00000000
00001000
00000000
,  // measure 63
00100000
00010000
01000000
00100000
10000000
00000000
01000000
00000000
00100000
00010000
00100000
01000000
10000000
00000000
00100000
00000000
,  // measure 64
01000000
00010000
10000000
01000000
10000000
00000000
00010000
00000000
00000000
00110000
00000000
00101000
00000000
00000000
00001100
00000000
,  // measure 65
00000100
00000010
00000001
00000010
00000200
00000000
00001300
00000000
00000010
00001000
00000100
00010000
00002000
00000000
00103000
00000000
,  // measure 66
00010000
01000000
00010000
00100000
00002000
00000000
00013000
00000000
00000100
00010000
00000100
00001000
00000020
00000000
00000130
00000000
,  // measure 67
00000000
00000101
00000000
00001001
00000000
00000000
00001100
00000000
00000000
00010100
00000000
00011000
00000000
00000000
00101000
00000000
,  // measure 68
00001000
00100000
00010000
00000000
10000000
00010000
01000000
00000000
00001000
00100000
00010000
00000000
00100000
00001000
00020000
00000000
,  // measure 69
00030100
00000000
00000000
00000000
;
