#TITLE:Pillar of Fire;
#ARTIST:Iris;
#BANNER:Pillar of Fire.png;
#BACKGROUND:Pillar of Fire-bg.png;
#MUSIC:Pillar of Fire.ogg;
#OFFSET:2.141;
#SAMPLESTART:70.893;
#SAMPLELENGTH:15;
#BPMS:0=138;

//---------------dance-single - leeium-bSP----------------
#NOTES:
     dance-single:
     leeium:
     Beginner:
     5:
     0.162964,0.256278,0.027823,0.062602,0.017389,164,160,4,9,0,0,0.162964,0.256278,0.027823,0.062602,0.017389,164,160,4,9,0,0:
0000
0000
0000
0000
,
0000
0000
0000
0000
,
0000
0000
0000
0000
,
0000
0000
0000
0000
,
0000
0000
0000
0000
,
0000
0000
0000
0000
,
0000
0000
0000
0000
,
0000
0000
0000
0000
,
0000
0000
0000
0000
,
0000
0000
0000
0000
,
1000
0000
0000
0000
,
0100
0000
0000
0020
,
0000
0000
0000
0000
,
0030
0000
0000
0000
,
0001
0000
0000
0000
,
0100
0000
0000
0000
,
0020
0000
0000
0000
,
0030
0000
0000
0000
,
0100
0000
0100
0000
,
0001
0000
0001
0000
,
0100
0000
0100
0000
,
0010
0000
0010
0000
,
1000
0000
1000
0000
,
0100
0000
0100
0000
,
0020
0000
0000
0000
,
0030
0000
0000
0000
,
0001
0000
0001
0000
,
1000
0000
1000
0000
,
0010
0000
0010
0000
,
1000
0000
1000
0000
,
0100
0000
0100
0000
,
0010
0000
0010
0000
,
0002
0000
0000
0000
,
0003
0000
0000
0000
,
0001
0001
0001
0001
,
0001
0001
0001
0001
,
1000
1000
1000
1000
,
1000
1000
1000
1000
,
0010
0010
0010
0010
,
0100
0100
0100
0100
,
0010
0010
0100
0100
,
0002
0000
0000
1003
,
0001
0000
0010
0000
,
1000
0000
0100
0000
,
0001
0000
0100
0000
,
0010
0000
0001
0000
,
1000
0000
0010
0000
,
0001
0000
0100
0000
,
1000
0000
0100
0000
,
0001
0000
0010
0000
,
1000
0000
0100
0000
,
0001
0000
1000
0000
,
0010
0000
0001
0000
,
0100
0000
1000
0000
,
0001
0000
1000
0000
,
0100
0000
0001
0000
,
0010
0000
0100
0000
,
0010
0000
0000
0000
0000
0000
0000
0000
0100
0000
0000
0100
0000
0000
0100
0000
,
0000
0000
0000
0100
0000
0000
0100
0000
,
0010
0000
0000
0010
0000
0000
0010
0000
,
0001
0000
0000
0001
0000
0000
0001
0000
,
1000
0000
0000
1000
0000
0000
1000
0000
,
0001
0001
0001
0001
,
0010
0000
0000
0010
0000
0000
0010
0000
,
0001
0000
0000
0001
0000
0000
0001
0000
,
0100
0000
0000
0100
0000
0000
0100
0000
,
0010
0000
0000
0010
0000
0000
0010
0000
,
0100
0000
0000
0100
0000
0000
0100
0000
,
0001
0000
0100
0000
,
1000
0000
0100
0000
,
0001
0000
0000
0001
0000
0000
0001
0000
,
1000
0000
0000
1000
0000
0000
1000
0000
,
0100
0000
0001
0000
,
0100
0100
0100
1001
,
0000
0000
0002
0003
0000
0000
2000
3000
,
0000
0000
0000
0000
0000
0000
0000
0000
0000
0010
0000
0000
0010
0000
0000
0000
,
0000
0000
0100
0001
,
0100
0000
0000
0000
0000
0000
0000
0000
0010
0000
0000
0010
0000
0000
0010
0000
,
0000
0000
0000
0000
0000
0000
2000
3000
,
0000
0000
0000
0000
0000
0000
0000
0000
0001
0000
0000
0001
0000
0000
0000
0000
,
0000
0000
0020
0000
,
0130
0000
0000
0000
0000
0000
0000
0000
0110
0000
0000
0110
0000
0000
0110
0000
;

//---------------dance-single - leeium-BSP----------------
#NOTES:
     dance-single:
     leeium:
     Easy:
     7:
     0.251402,0.341703,0.034779,0.048691,0.017389,253,248,5,7,0,0,0.251402,0.341703,0.034779,0.048691,0.017389,253,248,5,7,0,0:
0000
0000
0000
0000
,
0000
0000
0000
0000
,
0000
0000
0000
0000
,
0000
0000
0000
0000
,
0000
0000
0000
0000
,
0000
0000
0000
0000
,
0000
0000
0000
0000
,
0000
0000
0000
0000
,
0000
0000
0000
0000
,
0000
0000
0000
0000
,
0001
0000
0000
0001
0000
0000
0000
0100
,
0000
0000
0000
0100
0000
0100
0000
0000
,
0001
0000
0000
0001
0000
0000
1000
0000
,
0100
0000
0000
0100
0000
0100
0000
0000
,
1000
0000
0000
1000
0000
0000
0000
0010
,
0000
0000
0000
0010
0000
0010
0000
0000
,
0100
0000
0000
0100
0000
0100
0000
0000
,
0001
0000
0000
0001
0000
0001
0000
0000
,
0010
0000
0001
0000
,
0010
0001
0010
0100
,
1000
0000
0100
0000
,
1000
0100
1000
0010
,
0100
0000
0010
0000
,
0100
0010
0100
0001
,
0010
0000
0000
0010
0000
0000
0010
0000
,
0100
0000
0000
0100
0000
0100
0000
0000
,
1000
0000
0100
0000
,
1000
0100
1000
0001
,
0100
0000
0001
0000
,
0100
0001
0010
0100
,
0010
0000
0001
0000
,
0010
0001
0010
0100
,
1000
0000
0000
1000
0000
1000
0000
0000
,
0001
0000
0000
0001
0000
0001
0000
0000
,
0100
0100
0100
0100
,
0010
0010
0010
0010
,
1000
1000
1000
1000
,
0001
0001
0001
0001
,
0010
0010
0001
0001
,
0100
0100
0010
0010
,
1000
0100
0010
0001
,
0200
0010
0310
1001
,
0010
1000
0010
1000
,
0100
0001
0100
0001
,
0010
1000
0010
1000
,
0100
0001
0100
0001
,
1000
0010
1000
0010
,
0001
0100
0001
0100
,
1000
0010
1000
0010
,
0001
0100
0001
0100
,
0010
0100
0001
0100
,
0010
0100
0001
1000
,
0100
0001
0100
1000
,
0100
0001
0100
1000
,
0010
0100
1000
0100
,
0010
0100
1000
0100
,
0001
0010
0100
1000
,
0200
0000
0000
0000
0000
0000
0000
0000
0310
0000
0000
0010
0000
0000
0010
0000
,
0000
0000
0000
0010
0000
0000
0001
0000
,
0010
0000
0000
0010
0000
0000
0001
0000
,
0100
0000
0000
0100
0000
0000
0010
0000
,
1000
0000
0000
1000
0000
0000
0001
0000
,
1000
0100
0010
0100
,
0010
0000
0000
0010
0000
0000
0001
0000
,
1000
0000
0000
1000
0000
0000
0001
0000
,
0010
0000
0000
0010
0000
0000
0001
0000
,
0100
0000
0000
0001
0000
0000
0100
0000
,
0010
0000
0000
1000
0000
0000
0010
0000
,
0100
0001
0010
1000
,
0100
0001
0010
1000
,
0010
0000
0000
0001
0000
0000
0100
0000
,
0001
0000
0000
1000
0000
0000
0100
0000
,
1000
0010
0001
0100
,
1000
0100
0001
1001
,
0000
0000
0002
0003
0000
0000
2000
3000
,
0000
0000
0000
0000
0000
0000
0010
0000
0000
0010
0000
0000
0100
0000
0000
0000
,
0010
0001
0100
1000
,
0200
0000
0000
0000
0000
0000
0000
0000
0310
0000
0000
0010
0000
0000
0010
0000
,
0100
0000
0001
0000
0100
0000
0020
0030
,
1000
0000
0000
0000
0100
0000
0000
0000
1000
0000
0000
1000
0000
0000
0000
0000
,
0001
1000
0020
0100
,
0130
0000
0000
0000
0001
0000
0000
0000
1001
0000
0000
1001
0000
0000
1001
0000
;

//---------------dance-single - leeium-DSP----------------
#NOTES:
     dance-single:
     leeium:
     Medium:
     10:
     0.406417,0.484080,0.027823,0.132160,0.121726,409,405,4,19,0,0,0.406417,0.484080,0.027823,0.132160,0.121726,409,405,4,19,0,0:
0000
0000
0000
0000
,
0000
0000
0000
0000
,
0000
0000
0000
0000
,
0000
0000
0000
0000
,
0000
0000
0000
0000
,
0000
0000
0000
0000
,
0000
0000
0000
0000
,
0000
0000
0000
0000
,
0000
0000
0000
0000
,
0000
0000
0000
0000
,
0002
0000
0000
1000
0000
0000
0000
0000
,
0023
0032
0000
2003
,
3100
0000
0000
1000
0000
0000
0001
0000
0000
0100
0000
0000
0001
0000
1000
0000
,
0001
0000
0000
0010
0000
0000
0001
0000
0000
1000
0000
0000
0002
0000
0000
0000
,
2003
0000
0000
0001
0000
0000
0000
3020
,
0000
0000
0000
0130
0000
0200
0000
0000
,
0302
0000
0000
1000
0000
1000
0000
0000
,
0203
0000
0000
0001
0000
0001
0000
0000
,
0301
0000
0001
0100
0001
0000
0001
0100
,
0002
0010
1000
0010
,
1003
0000
1000
0100
1000
0000
1000
0100
,
2000
0010
0001
0010
,
3100
0000
0100
0010
0100
0000
0100
0010
,
0200
1000
0010
0001
,
0310
0000
0000
0001
0000
0000
0010
0000
0000
0001
0000
0000
1000
0000
0010
0000
,
1000
0000
0000
0001
0000
0000
1000
0000
0000
0100
0000
0000
1000
0000
0000
0000
,
0001
0000
1000
0100
1000
0000
1000
0100
,
1000
0000
0100
1000
0100
1000
0001
0000
,
0100
0000
0010
0100
0010
0100
0001
0000
,
1000
0000
0001
1000
0001
1000
0100
0000
,
0010
0000
0001
0010
0001
0000
0001
0010
,
0001
0000
1000
0001
1000
0001
0100
0000
,
0010
0000
0100
0010
0100
0010
1000
0000
,
0001
0000
1000
0001
1000
0001
0010
0000
,
0100
0100
1000
1000
,
0010
0010
0100
0100
,
0001
0001
0010
0010
,
0100
0100
1000
1000
,
0010
1000
0010
1000
0010
1000
0010
1000
,
0001
0010
0001
0010
0001
0010
0001
0010
,
0100
1000
0100
1000
0001
0100
0001
0100
,
0010
0100
0002
0000
1000
0000
0103
0000
,
0001
0100
0010
0000
0001
0100
0010
0000
,
0001
0100
0010
0000
0001
0100
0010
0000
,
0100
0001
0010
0000
0100
0001
0010
0000
,
0100
0001
0010
0000
0100
0001
0010
0000
,
1000
0010
0001
0000
1000
0010
0001
0000
,
1000
0010
0001
0000
1000
0010
0001
0000
,
0100
1000
0001
0000
0100
1000
0001
0000
,
0100
1000
0001
0000
0100
1000
0001
0000
,
0010
0001
1000
0000
0010
0001
1000
0000
,
0010
0001
1000
0000
0010
0001
1000
0100
,
1000
0001
0100
0000
1000
0001
0100
0000
,
1000
0001
0100
0000
1000
0001
0100
0001
,
0010
0100
0001
0000
0010
0100
0001
0000
,
0010
0100
0001
0000
0010
0100
0001
0100
,
1000
0010
0100
0000
1000
0010
0100
0010
,
0200
0000
0000
0000
0301
0000
0001
0000
1000
0000
0000
1001
0000
0000
0001
0000
,
0010
0000
0100
0000
0100
0000
0010
0000
0000
0001
0000
0000
0010
0000
0001
0000
,
1000
0000
0000
0001
0000
0000
0100
0000
0000
0001
0000
0000
1000
0000
0010
0000
,
1000
0000
0000
0100
0000
0000
0010
0000
0000
0100
0000
0000
1000
0000
0001
0000
,
1000
0000
0000
0100
0000
0000
0010
0000
0000
0001
0000
0000
1000
0000
0001
0000
,
0100
0000
0001
0000
0010
0000
0001
0000
0000
1000
0000
0000
0001
0000
0100
0000
,
0010
0000
0000
1000
0000
0000
0010
0000
0000
0100
0000
0000
0001
0000
0100
0000
,
0001
0000
0000
0010
0000
0000
0100
0000
0000
0010
0000
0000
0001
0000
1000
0000
,
0001
0000
0000
0100
0000
0000
0010
0000
0000
1000
0000
0000
0001
0000
1000
0000
,
0100
0000
1000
0000
0010
0000
0100
0000
0000
0010
0000
0000
0100
0000
0001
0000
,
0100
0000
0000
0010
0000
0000
1000
0000
0000
0001
0000
0000
1000
0000
0001
0000
,
0010
0001
0100
0000
0010
0001
0100
0000
,
0010
1000
0100
0000
0010
1000
0100
0000
,
1000
0000
0010
0000
1000
0000
0001
0000
0000
0010
0000
0000
0001
0000
1000
0000
,
0001
0000
0000
0010
0000
0000
0001
0000
0000
1000
0000
0000
0100
0000
0010
0000
,
0100
1000
0100
1000
0100
1000
0100
0010
,
0001
0100
0010
1000
0001
0000
1001
0000
,
0001
1000
0200
0300
0010
0000
0002
0003
,
1000
0000
0000
0000
0010
0000
0100
0000
0000
0001
0000
0000
0001
0000
0100
0000
,
0001
0000
1000
0000
0100
0000
0001
0100
,
0020
0000
0000
0000
0001
0000
0000
0000
0130
0000
0000
0100
0000
0000
0100
0000
,
0010
0000
0001
0000
1000
0000
0001
0100
,
0001
0000
0000
0000
1000
0000
0000
0000
0001
0000
0000
0001
0000
0000
0100
0000
,
0010
0000
0000
0010
0000
0000
0010
0000
0200
0000
0000
0000
0001
0000
0000
0000
,
0310
0000
0000
1000
0000
0000
0001
0000
0010
0000
0000
1001
0000
0000
1001
0000
;

//---------------dance-single - Talkion-ESP----------------
#NOTES:
     dance-single:
     Talkion:
     Hard:
     12:
     0.439209,0.626456,0.034779,0.250409,0.205196,442,437,5,36,0,0,0.439209,0.626456,0.034779,0.250409,0.205196,442,437,5,36,0,0:
0000
0000
0000
0000
,
0000
0000
0000
0000
,
0000
0000
0000
0000
,
0000
0000
0000
0000
,
0000
0000
0000
0000
,
0000
0000
0000
0000
,
0000
0000
0000
0000
,
0000
0000
0000
0000
,
0000
0000
0000
0000
,
0000
0000
0000
0000
,
2000
0000
0000
0000
0000
0100
0000
0100
0000
0000
0000
0000
0000
0000
3001
0000
,
0200
0000
0000
0010
0000
0000
1000
0000
0000
0010
0000
0000
0301
0000
0010
0000
,
0200
0000
0000
1000
0000
0000
0010
0000
0000
0001
0000
0000
0310
0000
0002
0000
,
2003
0000
0000
0010
0000
0000
0100
0000
0000
0100
0000
0000
3001
0000
0010
0000
,
0002
0000
0000
1000
0000
0000
0003
0200
,
0000
0000
0000
0010
0000
0010
0000
0300
,
0002
0000
0000
1000
0000
1000
0000
0003
,
0020
0000
0000
0100
0000
0100
0000
0030
,
0001
0000
1000
0010
1000
0000
0010
0100
,
0010
0000
0001
0010
0100
0010
1000
0000
,
0001
0000
0010
0100
0001
0100
0010
0000
,
0001
0000
1000
0010
0100
0010
1000
0000
,
0001
0000
0010
0100
0010
0000
0001
1000
,
0020
0000
0000
0100
0000
0000
0001
0000
0000
0100
0000
0000
1030
0000
0100
0000
,
0020
0000
0000
0001
0000
0000
0100
0000
0000
1000
0000
0000
0130
0000
2000
0000
,
3002
0000
0000
0010
0000
0000
0100
0000
0000
0100
0000
0000
1003
0000
0100
0000
,
0010
0000
0001
1000
0001
0000
0100
0010
,
0100
0000
1000
0100
0010
0100
0001
0000
,
1000
0000
0100
0010
1000
0010
0100
0000
,
1000
0000
0001
0100
0010
0100
0001
0000
,
1000
0000
0100
0010
0100
0000
1000
0001
,
1000
0000
0010
0100
0001
0100
0010
0000
,
0001
0000
0010
0100
0001
0100
0010
0000
,
1000
0000
0001
1000
0001
0010
0100
1000
,
0001
0001
0100
0100
,
1000
1000
0010
0010
,
0001
0001
0010
0010
,
1000
1000
0100
0100
,
0001
0100
0010
0100
0001
1000
0001
0010
,
0100
1000
0001
1000
0010
0100
0010
1000
,
0001
0010
0100
1000
0010
0100
0001
0010
,
2000
3002
0203
1300
,
0001
0100
1000
0000
0001
0100
0010
0000
,
0001
0100
1000
0000
0001
0100
0010
0000
,
0001
1000
0010
0000
0001
0010
1000
0000
,
0001
1000
0010
0000
0001
0001
0010
0000
,
1000
0010
0001
0000
1000
0010
0100
0000
,
1000
0010
0001
0000
1000
0010
0100
0000
,
2000
0100
0100
3000
0002
0100
0100
0003
,
1000
0001
0010
0000
1000
1000
0010
0000
,
0001
0010
0100
1000
0010
1000
0001
0000
,
0100
0010
0001
1000
0100
1000
0010
0000
,
0001
0100
0010
1000
0100
1000
0001
0000
,
0010
0100
0010
0100
0001
0001
0010
0000
,
1000
0100
0010
0001
0100
0001
1000
0000
,
0010
0100
1000
0001
0010
0001
0100
0000
,
2000
0000
0000
3001
0010
0100
0010
0100
,
1000
0001
1000
0001
1000
0000
0010
0000
0110
0000
0000
0110
0000
0000
0120
0000
,
0000
0000
1030
0001
1000
0100
0020
0000
0000
0100
0000
0000
0031
0000
1000
0000
,
0002
0000
0000
0010
0000
0000
0100
0000
0000
0013
0000
0000
0001
0000
1000
0010
,
0200
0000
0000
0001
0000
0000
0010
0000
0000
0301
0000
0000
1000
0000
0100
0000
,
0020
0000
0000
0001
0000
0000
0100
0000
0000
0031
0000
0000
0010
0000
0100
0000
,
0100
0000
1000
0001
1000
0010
0200
0000
0000
0010
0000
0000
0301
0000
1000
0000
,
0002
0000
0000
0100
0000
0000
0010
0000
0000
0103
0000
0000
0001
0000
1000
0100
,
0020
0000
0000
0001
0000
0000
0100
0000
0000
0031
0000
0000
1000
0000
0010
0000
,
0200
0000
0000
0001
0000
0000
0010
0000
0000
0301
0000
0000
1000
0000
0100
0000
,
0010
0000
0000
0001
0000
0000
1000
0000
0010
0100
0000
0010
0100
0000
0001
0000
,
1000
0000
0000
0100
0000
0000
0010
0000
0001
1000
0000
0001
1000
0000
0000
0000
,
0001
0010
0100
0000
0001
0010
0100
0000
,
1000
0010
0100
0000
1000
0010
0100
0000
,
0010
0000
0000
1000
0000
0000
0001
0000
0010
0100
0000
0010
0100
0000
1000
0000
,
0001
0000
0000
0100
0000
0000
0010
0000
1000
0001
0000
1000
0001
0000
0000
0000
,
1000
0100
1000
0100
0010
0001
0010
0001
,
1000
0010
0100
0010
1000
0100
0001
0000
,
0100
0000
1000
0001
2000
0000
3000
0000
0010
0000
0000
0000
0200
0000
0300
0001
,
0000
0000
0001
0000
1000
0000
0000
0000
0100
0010
0000
0000
0020
0000
0000
0000
,
0031
0000
1000
0000
0010
0000
0100
0001
,
0000
1000
0000
0000
1000
0000
0100
0010
0200
0000
0000
0010
0000
0000
1300
0000
,
0001
0000
0000
0000
1000
0000
0000
0000
0010
0000
0000
0000
0200
0000
0300
0001
,
0000
0000
0001
0000
1000
0000
0000
0000
0200
0000
0000
0310
0000
0000
0010
0000
,
0001
0100
2000
3002
,
0013
0000
0100
0000
0010
0000
1000
0001
1000
0000
0000
1001
0000
0000
1001
0000
;

//---------------dance-single - Talkion-CSP----------------
#NOTES:
     dance-single:
     Talkion:
     Challenge:
     15:
     0.607142,0.939685,0.041735,0.472994,0.639933,611,605,6,68,0,0,0.607142,0.939685,0.041735,0.472994,0.639933,611,605,6,68,0,0:
0000
0000
0000
0000
,
0000
0000
0000
0000
,
0000
0000
0000
0000
,
0000
0000
0000
0000
,
0000
0000
0000
0000
,
0000
0000
0000
0000
,
0000
0000
0000
0000
,
0000
0000
0000
0000
,
0000
0000
0000
0000
,
0000
0000
0000
0000
,
2000
0000
0000
0000
0000
0001
0000
0001
0000
0000
0000
0000
0000
0000
3100
0000
,
0020
0000
0000
1000
0000
0000
0230
0000
0000
0001
0000
0000
0310
0000
0001
0000
,
0200
0000
0000
0000
0000
0000
0000
0000
0000
1000
0000
0000
0000
0000
0000
0000
0000
0000
0320
0000
0000
0000
0000
0000
0000
0000
0000
0001
0000
0000
0000
0000
0000
0000
0000
0000
0130
0000
0000
0000
0000
0000
0001
0000
1000
0000
0001
0000
,
2000
0000
0000
0010
0000
0000
3001
0000
0010
0100
0000
0010
0001
0000
1000
0000
,
0020
0000
0000
0100
0000
0000
0030
2000
,
0001
0000
0000
3100
0010
0100
1000
0000
,
0002
0000
0000
0100
0000
0100
0000
0003
,
2000
0000
0000
0000
0000
0000
3100
0000
1000
0100
0010
0001
1000
0001
0100
0010
,
2000
0000
3001
0020
1000
0000
0031
0020
,
1000
0000
0031
0010
0100
0010
1000
0010
,
0200
0000
1300
0020
0001
0000
1030
0020
,
0001
0000
1030
0010
0100
0010
0001
0010
,
0200
0000
0301
0020
1000
0000
0031
0020
,
1000
0000
0000
0100
0000
0000
0031
0000
0000
1000
0001
1000
0010
0100
0001
0000
,
0200
0000
0000
0000
0000
0000
0000
0000
0000
1000
0000
0000
0000
0000
0000
0000
0000
0000
0320
0000
0000
0000
0000
0000
0000
0000
0000
0001
0000
0000
0000
0000
0000
0000
0000
0000
0130
0000
0000
0000
0000
0000
0001
0000
1000
0000
0001
0000
,
2000
0000
0000
0010
0000
0000
3001
0000
1000
0010
0100
0001
1000
0001
0010
0100
,
2000
0000
3001
0200
1000
0000
0301
0200
,
1000
0000
0301
0100
0010
0100
1000
0100
,
0020
0000
1030
0200
0001
0000
1300
0200
,
0001
0000
1300
0100
0010
0100
0001
0100
,
0020
0000
0031
0200
1000
0000
0301
0200
,
1000
0000
0301
0100
0010
0100
1000
0100
,
0020
0000
0000
0000
0130
0000
0001
0000
1000
0000
0001
0000
0020
0100
0000
0001
,
0000
0100
0000
0031
1000
0000
0001
0000
0100
0010
1000
0001
1000
0100
0010
0001
,
1000
1000
0010
0010
,
0100
0100
0001
0001
,
1000
1000
0100
0100
,
0010
0010
0001
0001
,
1000
0010
0100
0000
0001
0000
1000
0000
0001
0010
0100
0000
1000
0000
0001
0000
,
0100
0010
0100
0000
0001
0000
1000
0000
0100
0010
0100
0000
1000
0000
0001
0000
,
0100
0010
1000
0001
1000
0100
0010
0001
0100
0010
1000
0001
1000
0100
0010
0100
,
0002
0000
2003
0000
3020
0000
0031
1000
,
0001
0100
0010
0000
0001
0000
0010
0000
1000
0100
0010
0000
2000
0000
0000
3010
,
0000
0010
0100
0000
1000
0000
0001
0000
0100
0010
0100
0000
2000
0000
3100
0000
,
0001
0010
0100
0000
0001
0000
0100
0000
1000
0010
0100
0000
1000
0000
0100
0010
,
2000
0000
0001
0000
0100
0000
3001
1000
,
0001
0010
0100
0000
0001
0000
0100
0000
1000
0010
0100
0000
1000
0100
0000
0001
,
0000
0000
0010
0000
0001
0000
1000
0000
0001
0000
0010
0000
0001
0000
1000
0000
0000
0000
0100
0010
0100
0000
0000
0000
0010
0000
0000
0000
0001
0000
0000
0000
,
2000
0100
0000
3010
0100
0000
0100
0000
0002
0100
0000
0013
0100
0010
0100
0000
,
1000
0000
0001
0100
0020
0000
0000
0000
0001
0000
0000
0000
0230
0000
0301
0000
,
1000
0100
0010
0000
1000
0000
0001
0000
0100
0010
0001
0000
2000
0000
0000
3010
,
0000
0010
0100
0000
1000
0000
0001
0000
0010
0100
0001
0000
1000
0000
0100
0000
,
0010
0100
0010
0000
1000
0000
0001
0000
0100
0010
0100
0000
1000
0000
0001
0000
,
0100
0000
0100
0010
1000
0001
1000
0000
0100
0010
0001
1000
0001
0000
0100
0000
,
0010
0100
0010
0000
0001
0000
1000
0000
0100
0010
0100
0000
0001
0000
1000
0100
,
0000
0010
0100
0000
0001
0000
1000
0000
0010
0100
1000
0000
0002
0000
0010
0000
,
2003
0000
0010
0000
0010
0000
3010
0000
0100
0001
1000
0001
0010
0100
1000
0001
,
0100
0010
0100
0010
0100
0000
0110
0000
1001
0000
0000
1001
0000
0000
1002
0000
,
0000
0000
0013
0100
1000
0010
0200
0000
0000
1000
0000
0000
0310
0000
1000
0100
,
0020
0000
0000
0001
0000
0000
0100
0000
0000
1030
0000
0010
0100
1000
0001
0100
,
0020
0000
0000
1000
0000
0000
0100
0000
0000
0031
0000
0010
0100
0001
1000
0100
,
0020
0000
0000
0001
0000
0000
0100
0000
0000
1030
0000
0010
0100
0000
0010
0001
,
1000
0000
0100
0010
0001
0100
0020
0000
0000
0001
0000
0000
0130
0000
0001
0010
,
0200
0000
0000
1000
0000
0000
0010
0000
0000
0301
0000
0100
0010
0001
1000
0010
,
0200
0000
0000
0001
0000
0000
0010
0000
0000
1300
0000
0100
0010
1000
0010
0100
,
0002
0000
0000
1000
0000
0000
0010
0000
0000
1003
0000
0100
0010
0000
0010
0000
,
0001
0000
1000
0010
0100
0000
1000
0000
0100
0010
0000
0010
1000
0001
1000
0000
,
0100
0000
0001
0100
0010
0000
0001
0000
1000
0010
0000
0010
0100
0001
1000
0001
,
0020
0100
0001
0030
0002
0010
1000
0003
,
2000
0010
0001
3000
0002
0010
1000
0003
,
1000
0000
0001
0010
0100
0000
0001
0000
0100
0010
0000
0010
0001
1000
0001
0000
,
0100
0000
1000
0100
0010
0000
1000
0000
0001
0010
0000
0010
0100
1000
0001
1000
,
0010
0100
0010
1000
0100
0010
0100
1000
0001
0100
0010
0100
0001
0010
0100
0010
,
0001
1000
0010
0100
0001
0010
0001
0100
0010
1000
0100
0010
0001
0000
0000
0000
,
1000
0000
1000
0001
0200
0000
0300
0000
0010
0100
0001
0000
2000
0000
0000
3100
,
0000
0010
0000
0010
1000
0000
0010
0000
0100
0010
0000
0100
2000
0000
0000
3000
,
0001
0100
0010
0000
0001
0000
0010
0000
1000
0100
0010
0000
1000
0000
0020
0000
,
0000
0100
0000
0000
0031
0000
0001
1000
0020
0000
0000
0100
0000
0000
1030
0000
,
0001
0010
0100
0000
0001
0000
0100
0000
1000
0001
1000
0000
0020
0000
0000
0130
,
0000
0010
0000
0010
0001
0000
0010
0000
2000
0000
0000
0001
0000
0000
3100
0000
,
0001
0100
0010
0000
0001
0000
1000
0000
0020
0000
0000
0000
0230
0000
0000
0000
,
0301
0000
1000
0100
1000
0000
0001
0100
0010
0000
0000
0110
0000
0000
0110
0000
;

//---------------dance-double - leeium-BDP----------------
#NOTES:
     dance-double:
     leeium:
     Easy:
     7:
     0.251402,0.313228,0.027823,0.041735,0.017389,253,249,4,6,0,0,0.251402,0.313228,0.027823,0.041735,0.017389,253,249,4,6,0,0:
// measure 0
00000000
00000000
00000000
00000000
,  // measure 1
00000000
00000000
00000000
00000000
,  // measure 2
00000000
00000000
00000000
00000000
,  // measure 3
00000000
00000000
00000000
00000000
,  // measure 4
00000000
00000000
00000000
00000000
,  // measure 5
00000000
00000000
00000000
00000000
,  // measure 6
00000000
00000000
00000000
00000000
,  // measure 7
00000000
00000000
00000000
00000000
,  // measure 8
00000000
00000000
00000000
00000000
,  // measure 9
00000000
00000000
00000000
00000000
,  // measure 10
00001000
00000000
00000000
00001000
00000000
00000000
00000000
00000100
,  // measure 11
00000000
00000000
00000000
00000100
00000000
00000100
00000000
00000000
,  // measure 12
00001000
00000000
00000000
00001000
00000000
00000000
00001000
00000000
,  // measure 13
00010000
00000000
00000000
00010000
00000000
00010000
00000000
00000000
,  // measure 14
00001000
00000000
00000000
00001000
00000000
00000000
00000000
00010000
,  // measure 15
00000000
00000000
00000000
00010000
00000000
00010000
00000000
00000000
,  // measure 16
00100000
00000000
00000000
00100000
00000000
00100000
00000000
00000000
,  // measure 17
00010000
00000000
00000000
00010000
00000000
00010000
00000000
00000000
,  // measure 18
00100000
00000000
01000000
00000000
,  // measure 19
00100000
01000000
00010000
01000000
,  // measure 20
00010000
00000000
00100000
00000000
,  // measure 21
00001000
00100000
00001000
00100000
,  // measure 22
00010000
00000000
00001000
00000000
,  // measure 23
00010000
00001000
00010000
00001000
,  // measure 24
00000010
00000000
00000000
00000010
00000000
00000000
00000010
00000000
,  // measure 25
00000100
00000000
00000000
00000100
00000000
00000100
00000000
00000000
,  // measure 26
00000010
00000000
00000001
00000000
,  // measure 27
00000100
00000001
00000100
00000001
,  // measure 28
00001000
00000000
00000100
00000000
,  // measure 29
00001000
00000100
00001000
00000100
,  // measure 30
00010000
00000000
00001000
00000000
,  // measure 31
00010000
00001000
00010000
00100000
,  // measure 32
00010000
00000000
00000000
00010000
00000000
00010000
00000000
00000000
,  // measure 33
00001000
00000000
00000000
00001000
00000000
00001000
00000000
00000000
,  // measure 34
00010000
00010000
00010000
00010000
,  // measure 35
00100000
00100000
00100000
00100000
,  // measure 36
00010000
00010000
00010000
00010000
,  // measure 37
00001000
00001000
00001000
00001000
,  // measure 38
00000010
00000010
00000001
00000001
,  // measure 39
00000010
00000010
00000100
00000100
,  // measure 40
00001000
00000100
00010000
00001000
,  // measure 41
00020000
00001000
00031000
00011000
,  // measure 42
00001000
00010000
00001000
00010000
,  // measure 43
00100000
10000000
00100000
10000000
,  // measure 44
01000000
00010000
01000000
00010000
,  // measure 45
00001000
00010000
00001000
00010000
,  // measure 46
00001000
00000100
00001000
00000100
,  // measure 47
00000001
00000010
00000001
00000010
,  // measure 48
00001000
00010000
00001000
00010000
,  // measure 49
00001000
00000100
00001000
00000100
,  // measure 50
00001000
00010000
01000000
00010000
,  // measure 51
00001000
00010000
01000000
00010000
,  // measure 52
00001000
00000100
00000001
00000100
,  // measure 53
00001000
00000100
00000001
00000100
,  // measure 54
00001000
00010000
00100000
00010000
,  // measure 55
00001000
00010000
00100000
00010000
,  // measure 56
00001000
00000010
00001000
00010000
,  // measure 57
00002000
00000000
00000000
00000000
00000000
00000000
00000000
00000000
00013000
00000000
00000000
00010000
00000000
00000000
00010000
00000000
,  // measure 58
00000000
00000000
00000000
00010000
00000000
00000000
00100000
00000000
,  // measure 59
01000000
00000000
00000000
01000000
00000000
00000000
10000000
00000000
,  // measure 60
01000000
00000000
00000000
01000000
00000000
00000000
00100000
00000000
,  // measure 61
01000000
00000000
00000000
01000000
00000000
00000000
00010000
00000000
,  // measure 62
00100000
00010000
00100000
00100000
,  // measure 63
00001000
00000000
00000000
00001000
00000000
00000000
00010000
00000000
,  // measure 64
00000100
00000000
00000000
00000100
00000000
00000000
00001000
00000000
,  // measure 65
00000010
00000000
00000000
00000010
00000000
00000000
00001000
00000000
,  // measure 66
00000001
00000000
00000000
00000010
00000000
00000000
00000001
00000000
,  // measure 67
00001000
00000000
00000000
00000010
00000000
00000000
00001000
00000000
,  // measure 68
00000001
00000010
00000100
00001000
,  // measure 69
00010000
00100000
01000000
10000000
,  // measure 70
00100000
00000000
00000000
01000000
00000000
00000000
00010000
00000000
,  // measure 71
01000000
00000000
00000000
00010000
00000000
00000000
10000000
00000000
,  // measure 72
01000000
00100000
00010000
00001000
,  // measure 73
00000100
00000010
00000001
00001001
,  // measure 74
00000000
00000000
00002000
00003000
00000000
00000000
00020000
00030000
,  // measure 75
00000000
00000000
00000000
00000000
00000000
00000000
01000000
00000000
00000000
01000000
00000000
00000000
01000000
00000000
00000000
00000000
,  // measure 76
00100000
01000000
00010000
00001000
,  // measure 77
00000100
00000000
00000000
00000000
00001000
00000000
00000000
00000000
00000010
00000000
00000000
00000010
00000000
00000000
00000010
00000000
,  // measure 78
00001000
00000000
00000100
00000000
00010000
00000000
00002000
00003000
,  // measure 79
00010000
00000000
00000000
00000000
01000000
00000000
00000000
00000000
00010000
00000000
00000000
00010000
00000000
00000000
00000000
00000000
,  // measure 80
01000000
00010000
00002000
00010000
,  // measure 81
00013000
00000000
00000000
00000000
00001000
00000000
00000000
00000000
00010000
00000000
00000000
00011000
00000000
00000000
00011000
00000000
;

//---------------dance-double - leeium-DDP----------------
#NOTES:
     dance-double:
     leeium:
     Medium:
     10:
     0.404430,0.484080,0.027823,0.104337,0.121726,407,403,4,15,0,0,0.404430,0.484080,0.027823,0.104337,0.121726,407,403,4,15,0,0:
// measure 0
00000000
00000000
00000000
00000000
,  // measure 1
00000000
00000000
00000000
00000000
,  // measure 2
00000000
00000000
00000000
00000000
,  // measure 3
00000000
00000000
00000000
00000000
,  // measure 4
00000000
00000000
00000000
00000000
,  // measure 5
00000000
00000000
00000000
00000000
,  // measure 6
00000000
00000000
00000000
00000000
,  // measure 7
00000000
00000000
00000000
00000000
,  // measure 8
00000000
00000000
00000000
00000000
,  // measure 9
00000000
00000000
00000000
00000000
,  // measure 10
00020000
00000000
00000000
10000000
00000000
00000000
00000000
00000000
,  // measure 11
00230000
00302000
00000000
00203000
,  // measure 12
00310000
00000000
00000000
01000000
00000000
00000000
00010000
00000000
00000000
00100000
00000000
00000000
00001000
00000000
00010000
00000000
,  // measure 13
00001000
00000000
00000000
00010000
00000000
00000000
00000010
00000000
00000000
00001000
00000000
00000000
00000010
00000000
00001000
00000000
,  // measure 14
00000020
00000000
00000000
00000100
00000000
00000000
00000000
00000230
,  // measure 15
00000000
00000000
00000000
00000301
00000000
00000002
00000000
00000000
,  // measure 16
00002003
00000000
00000000
00000100
00000000
00000100
00000000
00000000
,  // measure 17
00003002
00000000
00000000
00000010
00000000
00000010
00000000
00000000
,  // measure 18
00001003
00000000
00001000
00000100
00001000
00000000
00001000
00000100
,  // measure 19
00001000
00010000
00001000
00000100
,  // measure 20
00010000
00000000
00010000
00001000
00010000
00000000
00010000
00001000
,  // measure 21
00010000
01000000
00100000
01000000
,  // measure 22
10000000
00000000
10000000
01000000
10000000
00000000
10000000
01000000
,  // measure 23
10000000
00100000
00010000
00100000
,  // measure 24
01000000
00000000
00000000
00010000
00000000
00000000
01000000
00000000
00000000
00100000
00000000
00000000
01000000
00000000
00010000
00000000
,  // measure 25
01000000
00000000
00000000
00001000
00000000
00000000
01000000
00000000
00000000
00010000
00000000
00000000
00100000
00000000
00001000
00000000
,  // measure 26
00100000
00000000
00100000
00010000
00100000
00000000
00100000
00010000
,  // measure 27
00100000
00000000
00001000
00010000
00001000
00010000
00000010
00000000
,  // measure 28
00001000
00000000
00000010
00001000
00000010
00001000
00000100
00000000
,  // measure 29
00001000
00000000
00000100
00001000
00000100
00001000
00000001
00000000
,  // measure 30
00000100
00000000
00000010
00001000
00000010
00000000
00000010
00001000
,  // measure 31
00000010
00000000
00001000
00000100
00001000
00000100
00010000
00000000
,  // measure 32
00001000
00000000
00100000
00001000
00100000
00001000
00010000
00000000
,  // measure 33
00001000
00000000
01000000
00010000
01000000
00010000
00100000
00000000
,  // measure 34
01000000
01000000
00100000
00100000
,  // measure 35
00010000
00010000
00001000
00001000
,  // measure 36
00000010
00000010
00000001
00000001
,  // measure 37
00000100
00000100
00000010
00000010
,  // measure 38
00001000
00000010
00001000
00000010
00001000
00000010
00001000
00000010
,  // measure 39
00001000
00000100
00001000
00000100
00001000
00000100
00001000
00000100
,  // measure 40
00010000
00001000
00010000
00001000
00100000
00010000
00100000
00010000
,  // measure 41
01000000
00100000
00020000
00000000
00001000
00000000
00030100
00000000
,  // measure 42
00010000
00000100
00001000
00000000
00010000
00000100
00001000
00000000
,  // measure 43
00010000
00000100
00001000
00000000
00010000
00000100
00001000
00000000
,  // measure 44
00000010
00001000
00000100
00000000
00000010
00001000
00000100
00000000
,  // measure 45
00000010
00001000
00000100
00000000
00000010
00001000
00000100
00000000
,  // measure 46
00001000
00010000
00100000
00000000
00001000
00010000
00100000
00000000
,  // measure 47
00001000
00010000
00100000
00000000
00001000
00010000
00100000
00000000
,  // measure 48
01000000
00100000
00010000
00000000
01000000
00100000
00010000
00000000
,  // measure 49
01000000
00100000
00010000
00000000
01000000
00100000
00010000
00000000
,  // measure 50
10000000
00010000
00100000
00000000
10000000
00010000
00100000
00000000
,  // measure 51
10000000
00010000
00100000
00000000
10000000
00010000
00100000
00000000
,  // measure 52
00001000
00100000
00010000
00000000
00001000
00100000
00010000
00000000
,  // measure 53
00001000
00100000
00010000
00000000
00001000
00100000
00010000
00000000
,  // measure 54
00001000
00000010
00000100
00000000
00001000
00000010
00000100
00000000
,  // measure 55
00001000
00000010
00000100
00000000
00001000
00000010
00000100
00000000
,  // measure 56
00000010
00000001
00001000
00000000
00000010
00000001
00001000
00000000
,  // measure 57
00000020
00000000
00000000
00000000
00000130
00000000
00000100
00000000
00000001
00000000
00000000
00001001
00000000
00000000
00001000
00000000
,  // measure 58
00000100
00000000
00000010
00000000
00000010
00000000
00000001
00000000
00000000
00000100
00000000
00000000
00000001
00000000
00001000
00000000
,  // measure 59
00000100
00000000
00000000
00010000
00000000
00000000
00000100
00000000
00000000
00010000
00000000
00000000
00001000
00000000
00010000
00000000
,  // measure 60
00001000
00000000
00000000
01000000
00000000
00000000
00001000
00000000
00000000
01000000
00000000
00000000
00010000
00000000
10000000
00000000
,  // measure 61
00010000
00000000
00000000
00100000
00000000
00000000
00010000
00000000
00000000
10000000
00000000
00000000
01000000
00000000
10000000
00000000
,  // measure 62
01000000
00000000
00100000
00000000
00010000
00000000
00100000
00000000
00000000
00010000
00000000
00000000
01000000
00000000
00010000
00000000
,  // measure 63
00100000
00000000
00000000
00001000
00000000
00000000
00100000
00000000
00000000
00001000
00000000
00000000
00010000
00000000
00001000
00000000
,  // measure 64
00010000
00000000
00000000
00000010
00000000
00000000
00001000
00000000
00000000
00000010
00000000
00000000
00001000
00000000
00000100
00000000
,  // measure 65
00001000
00000000
00000000
00000100
00000000
00000000
00000010
00000000
00000000
00000100
00000000
00000000
00001000
00000000
00000100
00000000
,  // measure 66
00001000
00000000
00000100
00000000
00000010
00000000
00000001
00000000
00000000
00000010
00000000
00000000
00000001
00000000
00001000
00000000
,  // measure 67
00000001
00000000
00000000
00001000
00000000
00000000
00000100
00000000
00000000
00001000
00000000
00000000
00000010
00000000
00001000
00000000
,  // measure 68
00000100
00010000
00001000
00000000
00000100
00010000
00001000
00000000
,  // measure 69
00010000
00001000
00100000
00000000
00010000
00001000
00100000
00000000
,  // measure 70
00010000
00000000
00100000
00000000
00010000
00000000
01000000
00000000
00000000
00010000
00000000
00000000
00100000
00000000
00010000
00000000
,  // measure 71
10000000
00000000
00000000
00010000
00000000
00000000
10000000
00000000
00000000
00100000
00000000
00000000
01000000
00000000
00010000
00000000
,  // measure 72
00100000
00010000
00100000
00010000
00100000
00010000
00100000
00010000
,  // measure 73
00100000
01000000
00100000
00001000
00010000
00000000
00011000
00000000
,  // measure 74
00010000
00001000
00020000
00030000
00100000
00000000
00020000
00030000
,  // measure 75
00001000
00000000
00000000
00000000
00000010
00000000
00000100
00000000
00000000
00000100
00000000
00000000
00000100
00000000
00000010
00000000
,  // measure 76
00000100
00000000
00001000
00000000
00000010
00000000
00000100
00000001
,  // measure 77
00000020
00000000
00000000
00000000
00000001
00000000
00000000
00000000
00000130
00000000
00000000
00000100
00000000
00000000
00000100
00000000
,  // measure 78
00001000
00000000
00010000
00000000
00100000
00000000
00010000
00100000
,  // measure 79
00010000
00000000
00000000
00000000
01000000
00000000
00000000
00000000
00100000
00000000
00000000
00100000
00000000
00000000
10000000
00000000
,  // measure 80
01000000
00000000
00000000
01000000
00000000
00000000
01000000
00000000
00200000
00000000
00000000
00000000
10000000
00000000
00000000
00000000
,  // measure 81
00310000
00000000
00000000
00100000
00000000
00000000
00001000
00000000
00010000
00000000
00000000
00011000
00000000
00000000
00011000
00000000
;

//---------------dance-double - Talkion-EDP----------------
#NOTES:
     dance-double:
     Talkion:
     Hard:
     12:
     0.435234,0.512555,0.013912,0.250409,0.198240,438,436,2,36,0,0,0.435234,0.512555,0.013912,0.250409,0.198240,438,436,2,36,0,0:
// measure 0
00000000
00000000
00000000
00000000
,  // measure 1
00000000
00000000
00000000
00000000
,  // measure 2
00000000
00000000
00000000
00000000
,  // measure 3
00000000
00000000
00000000
00000000
,  // measure 4
00000000
00000000
00000000
00000000
,  // measure 5
00000000
00000000
00000000
00000000
,  // measure 6
00000000
00000000
00000000
00000000
,  // measure 7
00000000
00000000
00000000
00000000
,  // measure 8
00000000
00000000
00000000
00000000
,  // measure 9
00000000
00000000
00000000
00000000
,  // measure 10
00002000
00000000
00000000
00000000
00000000
01000000
00000000
01000000
00000000
00000000
00000000
00000000
00000000
00000000
00013000
00000000
,  // measure 11
00000200
00000000
00000000
00001000
00000000
00000000
00000010
00000000
00000000
00001000
00000000
00000000
00010300
00000000
00001000
00000000
,  // measure 12
02000000
00000000
00000000
00010000
00000000
00000000
00100000
00000000
00000000
10000000
00000000
00000000
03100000
00000000
20000000
00000000
,  // measure 13
30020000
00000000
00000000
00100000
00000000
00000000
10000000
00000000
00000000
10000000
00000000
00000000
01030000
00000000
00001000
00000000
,  // measure 14
00020000
00000000
00000000
00000010
00000000
00000000
00030000
00000200
,  // measure 15
00000000
00000000
00000000
00000010
00000000
00000010
00000000
00000300
,  // measure 16
00020000
00000000
00000000
00000010
00000000
00000010
00000000
00030000
,  // measure 17
00000200
00000000
00000000
00000010
00000000
00000010
00000000
00000300
,  // measure 18
00001000
00000000
00000001
00000100
00000010
00000000
00000100
00001000
,  // measure 19
00010000
00000000
00001000
00100000
00010000
10000000
00010000
00000000
,  // measure 20
01000000
00000000
00100000
00010000
00001000
00010000
00100000
00000000
,  // measure 21
01000000
00000000
00001000
00010000
00000100
00010000
00001000
00000000
,  // measure 22
00000010
00000000
00000001
00000010
00000100
00000000
00010000
00001000
,  // measure 23
02000000
00000000
00000000
00010000
00000000
00000000
00100000
00000000
00000000
00010000
00000000
00000000
03001000
00000000
00010000
00000000
,  // measure 24
00000200
00000000
00000000
00001000
00000000
00000000
00000010
00000000
00000000
00000001
00000000
00000000
00000310
00000000
00000002
00000000
,  // measure 25
00002003
00000000
00000000
00000010
00000000
00000000
00000001
00000000
00000000
00000001
00000000
00000000
00003100
00000000
00010000
00000000
,  // measure 26
00001000
00000000
01000000
00010000
01000000
00000000
00100000
00010000
,  // measure 27
00001000
00000000
00010000
00000100
00001000
00000001
00001000
00000000
,  // measure 28
00000010
00000000
00000100
00001000
00010000
00001000
00000100
00000000
,  // measure 29
00000010
00000000
00010000
00001000
00100000
00001000
00010000
00000000
,  // measure 30
01000000
00000000
10000000
01000000
00100000
00000000
01000000
00010000
,  // measure 31
00001000
00000000
00010000
00000010
00001000
00000001
00001000
00000000
,  // measure 32
00000100
00000000
00010000
00001000
01000000
00001000
00010000
00000000
,  // measure 33
00000010
00000000
00000100
00000010
00001000
00000001
00000010
00000100
,  // measure 34
00010000
00010000
00001000
00001000
,  // measure 35
01000000
01000000
00100000
00100000
,  // measure 36
10000000
10000000
00010000
00010000
,  // measure 37
00100000
00100000
00001000
00001000
,  // measure 38
00010000
00000100
00001000
00000001
00001000
00000010
00000100
00000010
,  // measure 39
00010000
00001000
00100000
00010000
10000000
00010000
01000000
00001000
,  // measure 40
00010000
00000100
00000010
00000001
00000100
00000010
00010000
00001000
,  // measure 41
00200000
02300000
03020000
00031000
,  // measure 42
00010000
00001000
00000100
00000000
00010000
00001000
00000100
00000000
,  // measure 43
00010000
00001000
00000010
00000000
00010000
00001000
00000010
00000000
,  // measure 44
00001000
00010000
01000000
00000000
00001000
00010000
01000000
00000000
,  // measure 45
00001000
00010000
00100000
00000000
00001000
00010000
00100000
00000000
,  // measure 46
10000000
00100000
00010000
00000000
10000000
01000000
00010000
00000000
,  // measure 47
10000000
01000000
00010000
00000000
10000000
00100000
00010000
00000000
,  // measure 48
02000000
00001000
00001000
03000000
00000200
00001000
00001000
00000300
,  // measure 49
01000000
00010000
00001000
00000000
01000000
00010000
00001000
00000000
,  // measure 50
00100000
00010000
01000000
00010000
00100000
01000000
00010000
00000000
,  // measure 51
00001000
00000010
00000001
00001000
00000010
00010000
00001000
00000000
,  // measure 52
01000000
00010000
00100000
00010000
01000000
00100000
00010000
00000000
,  // measure 53
00001000
00000100
00000010
00000100
00000001
00000001
00001000
00000000
,  // measure 54
00000100
00001000
00000010
00001000
00000100
00000010
00001000
00000000
,  // measure 55
00010000
01000000
10000000
00010000
01000000
00001000
00010000
00000000
,  // measure 56
00000020
00000000
00000000
00000130
00001000
00010000
00001000
00010000
,  // measure 57
00100000
01000000
00100000
01000000
00100000
00000000
10000000
00000000
10000000
00000000
00000000
10000000
00000000
00000000
20000000
00000000
,  // measure 58
00000000
00000000
30010000
00100000
00001000
00000000
00020000
00000000
00000000
00000010
00000000
00000000
00031000
00000000
01000000
00000000
,  // measure 59
00200000
00000000
00000000
00010000
00000000
00000000
01000000
00000000
00000000
10300000
00000000
00000000
00010000
00000000
00100000
00001000
,  // measure 60
00020000
00000000
00000000
00000010
00000000
00000000
00001000
00000000
00000000
00030100
00000000
00000000
00000010
00000000
00001000
00000000
,  // measure 61
00020000
00000000
00000000
01000000
00000000
00000000
00001000
00000000
00000000
00030100
00000000
00000000
00001000
00000000
00000001
00000000
,  // measure 62
00000001
00000000
00000100
00000010
00010000
00000000
00002000
00000000
00000000
00100000
00000000
00000000
00013000
00000000
00000100
00000000
,  // measure 63
00000020
00000000
00000000
00001000
00000000
00000000
00000100
00000000
00000000
00000031
00000000
00000000
00001000
00000000
00000010
00010000
,  // measure 64
00002000
00000000
00000000
00100000
00000000
00000000
00010000
00000000
00000000
01003000
00000000
00000000
00100000
00000000
00010000
00000000
,  // measure 65
00002000
00000000
00000000
00000100
00000000
00000000
00010000
00000000
00000000
01003000
00000000
00000000
00010000
00000000
10000000
00000000
,  // measure 66
00010000
00000000
00000000
00100000
00000000
00000000
00001000
00000000
00010000
00001000
00000000
00001000
00010000
00000000
00000100
00000000
,  // measure 67
00000010
00000000
00000000
00000100
00000000
00000000
00010000
00000000
00001000
00010000
00000000
00010000
00001000
00000000
00000000
00000000
,  // measure 68
01000000
00100000
01000000
00000000
00001000
00010000
00001000
00000000
,  // measure 69
01000000
00100000
01000000
00000000
00001000
00010000
00001000
00000000
,  // measure 70
01000000
00000000
00000000
00100000
00000000
00000000
01000000
00000000
00010000
10000000
00000000
00010000
10000000
00000000
01000000
00000000
,  // measure 71
00010000
00000000
00000000
00001000
00000000
00000000
00000010
00000000
00000001
00001000
00000000
00000001
00001000
00000000
00000010
00000000
,  // measure 72
00010000
00001000
00010000
00001000
01000000
00010000
01000000
00010000
,  // measure 73
10000000
01000000
00100000
01000000
00010000
00001000
00000010
00000000
,  // measure 74
00000001
00000000
00001000
00000100
00002000
00000000
00003000
00000000
00000001
00000000
00000000
00000000
00000200
00000000
00000300
00000010
,  // measure 75
00000000
00000000
00000010
00000000
00010000
00000000
00000000
00000000
00001000
00100000
00000000
00000000
00200000
00000000
00000000
00000000
,  // measure 76
00310000
00000000
10000000
00000000
01000000
00000000
00100000
00001000
,  // measure 77
00000000
00010000
00000000
00000000
00010000
00000000
00000010
00001000
00000020
00000000
00000000
00000100
00000000
00000000
00001030
00000000
,  // measure 78
00000001
00000000
00000000
00000000
00000100
00000000
00000000
00000000
00000010
00000000
00000000
00000000
00020000
00000000
00030000
00001000
,  // measure 79
00000000
00000000
00001000
00000000
00100000
00000000
00000000
00000000
02000000
00000000
00000000
13000000
00000000
00000000
10000000
00000000
,  // measure 80
00010000
01000000
00002000
00023000
,  // measure 81
00030100
00000000
00000010
00000000
00000100
00000000
00001000
00000001
00001000
00000000
00000000
00001001
00000000
00000000
00001001
00000000
;

//---------------dance-double - Talkion-CDP----------------
#NOTES:
     dance-double:
     Talkion:
     Challenge:
     15:
     0.595217,0.911209,0.041735,0.466038,0.615588,599,593,6,67,0,0,0.595217,0.911209,0.041735,0.466038,0.615588,599,593,6,67,0,0:
// measure 0
00000000
00000000
00000000
00000000
,  // measure 1
00000000
00000000
00000000
00000000
,  // measure 2
00000000
00000000
00000000
00000000
,  // measure 3
00000000
00000000
00000000
00000000
,  // measure 4
00000000
00000000
00000000
00000000
,  // measure 5
00000000
00000000
00000000
00000000
,  // measure 6
00000000
00000000
00000000
00000000
,  // measure 7
00000000
00000000
00000000
00000000
,  // measure 8
00000000
00000000
00000000
00000000
,  // measure 9
00000000
00000000
00000000
00000000
,  // measure 10
00002000
00000000
00000000
00000000
00000000
00010000
00000000
00010000
00000000
00000000
00000000
00000000
00000000
00000000
00003100
00000000
,  // measure 11
00000020
00000000
00000000
00010000
00000000
00000000
00002030
00000000
00000000
00000001
00000000
00000000
00003100
00000000
00010000
00000000
,  // measure 12
00002000
00000000
00000000
00000000
00000000
00000000
00000000
00000000
00000000
00100000
00000000
00000000
00000000
00000000
00000000
00000000
00000000
00000000
02003000
00000000
00000000
00000000
00000000
00000000
00000000
00000000
00000000
00010000
00000000
00000000
00000000
00000000
00000000
00000000
00000000
00000000
03100000
00000000
00000000
00000000
00000000
00000000
10000000
00000000
00010000
00000000
10000000
00000000
,  // measure 13
00020000
00000000
00000000
01000000
00000000
00000000
00230000
00000000
00000000
00001000
00000000
00000000
00310000
00000000
01000000
00000000
,  // measure 14
00002000
00000000
00000000
00010000
00000000
00000000
00003000
00000020
,  // measure 15
00000100
00000000
00000030
00000001
00001000
00000001
00000010
00000000
,  // measure 16
00000200
00000000
00000000
00010000
00000000
00010000
00000000
00000300
,  // measure 17
02000000
00000000
00000000
00000000
00000000
00000000
03010000
00000000
10000000
00100000
01000000
00010000
10000000
00010000
00100000
00001000
,  // measure 18
00020000
00000000
00030100
00002000
00010000
00000000
00003010
00002000
,  // measure 19
00010000
00000000
00003100
00001000
00010000
00100000
01000000
00100000
,  // measure 20
00002000
00000000
01003000
00020000
00001000
00000000
00130000
00020000
,  // measure 21
00001000
00000000
01030000
00010000
00001000
00000010
00000100
00000010
,  // measure 22
00020000
00000000
00030100
00002000
00010000
00000000
00003010
00001000
,  // measure 23
00020000
00000000
00000000
01000000
00000000
00000000
10030000
00000000
00000000
00010000
00100000
01000000
10000000
00010000
10000000
00000000
,  // measure 24
00200000
00000000
00000000
00000000
00000000
00000000
00000000
00000000
00000000
01000000
00000000
00000000
00000000
00000000
00000000
00000000
00000000
00000000
00320000
00000000
00000000
00000000
00000000
00000000
00000000
00000000
00000000
00001000
00000000
00000000
00000000
00000000
00000000
00000000
00000000
00000000
00030010
00000000
00000000
00000000
00000000
00000000
00001000
00000000
00000001
00000000
00001000
00000000
,  // measure 25
00000002
00000000
00000000
00000100
00000000
00000000
00001003
00000000
00000100
00000010
00000100
00001000
00000001
00001000
00000010
00010000
,  // measure 26
00002000
00000000
00103000
00020000
00001000
00000000
01030000
00020000
,  // measure 27
00001000
00000000
00130000
00010000
00001000
00000100
00000010
00000100
,  // measure 28
00020000
00000000
00030010
00002000
00010000
00000000
00003100
00002000
,  // measure 29
00010000
00000000
00003010
00001000
00010000
01000000
00100000
01000000
,  // measure 30
00002000
00000000
00103000
00020000
00001000
00000000
01030000
00020000
,  // measure 31
00001000
00000000
00130000
00010000
00001000
00000100
00000010
00000100
,  // measure 32
00020000
00000000
00000000
00000000
00031000
00000000
00100000
00000000
00010000
00000000
10000000
00000000
00010000
01000000
00000000
01000000
,  // measure 33
00000000
01000000
00000000
01000000
00100000
00000000
10000000
00000000
00010000
00100000
00001000
00010000
00000010
00001000
00000001
00001000
,  // measure 34
00000100
00010000
00001000
01000000
,  // measure 35
00100000
10000000
00010000
00100000
,  // measure 36
00001000
00010000
00000100
00000010
,  // measure 37
00000001
00001000
00000010
00010000
,  // measure 38
00001000
01000000
00010000
00000000
00100000
00000000
00001000
00000000
00010000
00000100
00001000
00000000
00000010
00000000
00010000
00000000
,  // measure 39
00001000
01000000
00010000
00000000
10000000
00000000
01000000
00000000
00100000
00001000
00010000
00000000
00000010
00000000
00001000
00000000
,  // measure 40
00000001
00000100
00000010
00000100
00000001
00001000
00000001
00000010
00000100
00010000
00001000
00100000
01000000
10000000
00010000
01000000
,  // measure 41
00200000
00000000
00320000
00000000
00032000
00000000
00003010
00000100
,  // measure 42
00010000
00000100
00000010
00000000
00001000
00000000
00010000
00000000
00001000
01000000
00100000
00000000
00020000
00000000
00000000
00031000
,  // measure 43
00000000
00001000
01000000
00000000
00100000
00000000
10000000
00000000
01000000
00100000
01000000
00000000
00020000
00000000
00031000
00000000
,  // measure 44
00010000
00000010
00000100
00000000
00001000
00000000
00010000
00000000
00001000
00100000
01000000
00000000
00010000
00000000
01000000
00100000
,  // measure 45
00002000
00000000
00010000
00000000
01000000
00000000
00013000
00001000
,  // measure 46
00010000
01000000
00100000
00000000
00001000
00000000
00010000
00000000
00001000
00000100
00000010
00000000
00001000
00000001
00000000
00000010
,  // measure 47
00000000
00000000
00000100
00000000
00010000
00000000
00001000
00000000
00010000
00000000
00000100
00000000
00010000
00000000
00001000
00000000
00000000
00000000
01000000
00010000
01000000
00000000
00000000
00000000
00001000
00000000
00000000
00000000
00010000
00000000
00000000
00000000
,  // measure 48
00000200
00000010
00000000
00001300
00000001
00000000
00000001
00000000
00000200
00000010
00000000
00001300
00010000
00001000
00010000
00000000
,  // measure 49
00000020
00000000
00001000
00000000
00010000
00000000
00002030
00003001
,  // measure 50
00000010
00000100
00001000
00000000
00010000
00000000
00100000
00000000
01000000
00100000
00010000
00000000
00002000
00000000
00000000
00003100
,  // measure 51
00000000
00000100
00010000
00000000
00001000
00000000
01000000
00000000
00100000
01000000
00010000
00000000
00001000
00000000
00000010
00000000
,  // measure 52
00001000
00000001
00001000
00000000
00000100
00000000
00000010
00000000
00000100
00001000
00010000
00000000
00100000
00000000
01000000
00000000
,  // measure 53
10000000
00000000
10000000
00010000
01000000
00100000
01000000
00000000
00010000
10000000
01000000
00100000
01000000
00000000
00010000
00000000
,  // measure 54
00001000
00010000
00000100
00000000
00001000
00000000
00010000
00000000
00100000
01000000
00100000
00000000
00010000
00000000
00001000
00000100
,  // measure 55
00000000
00000010
00000100
00000000
00001000
00000000
00000001
00000000
00000100
00000010
00001000
00000000
00010000
00000000
01000000
00000000
,  // measure 56
00200000
00000000
10000000
00000000
10000000
00000000
10300000
00000000
00010000
00100000
00010000
00100000
00001000
00010000
00001000
00010000
,  // measure 57
00000010
00001000
00000010
00001000
00000001
00000000
00001001
00000000
00001100
00000000
00000000
00010100
00000000
00000000
00012000
00000000
,  // measure 58
00000000
00000000
01003000
00010000
10000000
00010000
00200000
00000000
00000000
10000000
00000000
00000000
01300000
00000000
00100000
00001000
,  // measure 59
00020000
00000000
00000000
00000010
00000000
00000000
00001000
00000000
00000000
00030100
00000000
00001000
00000001
00001000
00000010
00000100
,  // measure 60
00002000
00000000
00000000
00000100
00000000
00000000
00010000
00000000
00000000
01003000
00000000
00010000
01000000
00010000
10000000
01000000
,  // measure 61
00200000
00000000
00000000
10000000
00000000
00000000
01000000
00000000
00000000
00310000
00000000
00100000
00001000
00000000
00010000
00001000
,  // measure 62
00010000
00000000
00000100
00001000
00000001
00001000
00000020
00000000
00000000
00000001
00000000
00000000
00000130
00000000
00000010
00010000
,  // measure 63
00002000
00000000
00000000
00100000
00000000
00000000
00010000
00000000
00000000
01003000
00000000
00010000
10000000
00010000
00100000
01000000
,  // measure 64
00020000
00000000
00000000
01000000
00000000
00000000
00001000
00000000
00000000
00030100
00000000
00001000
00000100
00001000
00000001
00000100
,  // measure 65
00000020
00000000
00000000
00000001
00000000
00000000
00000100
00000000
00000000
00001030
00000000
00000010
00010000
00000000
00010000
00000000
,  // measure 66
00001000
00000000
00100000
00010000
01000000
00000000
00100000
00000000
00010000
00001000
00000000
00001000
00010000
00000000
00000000
00000000
,  // measure 67
00001000
00000000
01000000
00010000
00100000
00000000
01000000
00000000
00010000
00001000
00000000
00001000
00010000
00000000
00000000
00000000
,  // measure 68
00000020
00000100
00001000
00000030
00020000
00001000
00000100
00030000
,  // measure 69
00000020
00000100
00001000
00000030
00020000
00001000
00000100
00030000
,  // measure 70
00000010
00000000
00000100
00000001
00000010
00000000
00001000
00000000
00010000
00001000
00000000
00001000
00010000
00000000
00000000
00000000
,  // measure 71
00000100
00000000
00000010
00000001
00000100
00000000
00001000
00000000
00010000
00001000
00000000
00001000
00010000
00000000
00001000
01000000
,  // measure 72
00010000
10000000
01000000
10000000
00010000
01000000
00100000
01000000
00001000
00010000
00000010
00001000
00000001
00001000
00000100
00000010
,  // measure 73
00000100
00001000
00000001
00000100
00000010
00010000
00001000
01000000
00100000
10000000
00010000
00100000
00001000
00000000
00000000
00000000
,  // measure 74
00010000
00000000
00010000
00000010
00002000
00000000
00003000
00000000
00000001
00000010
00000100
00000000
00020000
00000000
00000000
00030010
,  // measure 75
00000000
00000100
00000000
00000100
00000010
00000000
00010000
00000000
00001000
00100000
00000000
01000000
00200000
00000000
00300000
00000000
,  // measure 76
00001000
01000000
00100000
00000000
00010000
00000000
00001000
00000000
00010000
00000100
00000010
00000000
00001000
00000000
00020000
00000000
,  // measure 77
00000000
00000010
00000000
00000000
00031000
00000000
00001000
01000000
00020000
00000000
00000000
10000000
00000000
00000000
00130000
00000000
,  // measure 78
00001000
00010000
01000000
00000000
00100000
00000000
00001000
00000000
00010000
00001000
00000100
00000000
00000020
00000000
00000000
00001030
,  // measure 79
00000000
00000001
00000000
00000001
00000010
00000000
00001000
00000000
00020000
00000000
00000000
00000100
00000000
00000000
00031000
00000000
,  // measure 80
00010000
00100000
01000000
00000000
00001000
00000000
00010000
00000000
00000200
00000000
00000000
00000000
00000320
00000000
00000000
00000000
,  // measure 81
00000031
00000000
00001000
00000100
00001000
00000000
00000001
00000100
00000010
00000000
00000000
00000110
00000000
00000000
00000110
00000000
;
