#VERSION:0.83;
#TITLE:Phlox;
#ARTIST:Sota Fujimori 2nd Season;
#BANNER:Phlox.png;
#BACKGROUND:Phlox-bg.png;
#JACKET:Phlox-jacket.png;
#MUSIC:Phlox.ogg;
#OFFSET:2.592;
#SAMPLESTART:64.867;
#SAMPLELENGTH:15;
#BPMS:0=92.5,20=185,52=92.5,54=370,118=185,214=92.5,216=370,401=92.5,403=185;
#STOPS:269.5=0.162,279=0.162,307.5=0.162,330.5=0.162,340=0.162,360.5=0.162,370=0.162;
#TIMESIGNATURES:0=4=4,52=2=4,54=4=4,214=2=4,216=4=4,268=3=4,271=4=4,279=3=4,282=4=4,306=3=4,309=4=4,329=3=4,332=4=4,340=3=4,343=4=4,359=3=4,362=4=4,370=3=4,373=4=4,401=2=4,403=4=4;
#BGCHANGES:3.688=Phlox.avi=1=0=0=0=StretchNoLoop====,99999=-nosongbg-=1=0=0=0 // don't automatically add -songbackground-;

//---------------dance-single - NewbStepper-bSP----------------
#NOTEDATA:;
#CHARTNAME:NewbStepper-bSP;
#STEPSTYPE:dance-single;
#DESCRIPTION:NewbStepper-bSP;
#DIFFICULTY:Beginner;
#METER:6;
#CREDIT:NewbStepper;
#NOTES:
0000
0000
0000
0000
,
1000
0000
0000
0000
,
0001
0000
0000
0000
,
1000
0000
0000
0000
,
0001
0000
0000
0000
,
0010
0000
0000
0000
,
0000
0000
0000
0000
,
0010
0000
0000
0000
,
0000
0000
0000
0000
,
0001
0000
0000
0000
,
0000
0000
0000
0000
,
0001
0000
0000
0000
,
0000
0000
0000
0000
,
0000
0000
1000
0000
,
0000
0000
1000
0000
,
0000
0000
1000
0000
,
0000
0000
0000
0000
,
0000
0000
0001
0000
,
0000
0000
0001
0000
,
0000
0000
0001
0000
,
0000
0000
0000
0000
,
0000
0000
1000
0000
,
0000
0000
0010
0000
,
0000
0000
1000
0000
,
0000
0000
0001
0000
,
0000
0000
0010
0000
,
0000
0000
0001
0000
,
0000
0000
0000
0000
,
0000
0000
0000
0000
,
0000
0000
1001
0000
,
0000
1000
0000
0001
,
0010
0100
1000
0000
,
0000
0001
0000
0000
,
0100
0000
0001
0000
,
0000
1000
0100
0000
,
0010
0001
0010
0000
,
0010
0000
0010
0000
,
0010
0000
0001
0000
,
0001
0000
1000
0000
,
1000
0000
0100
0000
,
0100
0000
0010
0000
,
0010
0000
0001
0000
,
0001
0000
0100
0000
,
0100
0000
1000
0000
,
1000
0000
0010
0000
,
0010
0000
0002
0000
,
0000
0000
0000
0000
,
0003
0000
2000
0000
,
0000
0000
0000
0000
,
3000
0000
0002
0000
,
0000
0000
0000
0000
,
0003
0000
2000
0000
,
0000
0000
0000
0000
,
3000
0000
0000
0000
,
0001
0000
0000
0000
,
0001
0000
0001
0000
,
1000
0000
0000
0000
,
1000
0000
1000
0000
,
0010
0000
0000
0000
,
0010
0000
0000
0000
,
0100
0000
0100
0000
,
0100
0000
0000
0000
,
1000
0000
0000
0000
,
1000
0000
1000
0000
,
0001
0000
0000
0000
,
0001
0000
0001
0000
,
0010
0000
0000
0000
,
0010
0000
0000
0000
,
0000
0000
0000
0100
,
0000
0000
0000
0000
,
0000
0000
0000
0000
,
0000
0000
0001
0000
,
0000
0000
0001
0000
,
0001
0000
1000
0000
,
0000
0000
1000
0000
,
1000
0000
0001
0000
,
0000
0000
1001
0000
,
0000
0000
0000
0010
,
0000
0001
0000
0001
,
0000
0000
0000
0010
,
0000
1000
0000
1000
,
0000
0000
0000
0100
,
0000
0001
0000
0000
,
1000
0000
1000
0000
,
1000
0000
0000
0000
,
0000
0000
0000
0001
,
0000
1000
0000
0010
,
0000
0000
0000
1000
,
0000
0001
0000
0010
,
0000
0000
0000
0100
,
0000
0000
0000
0000
,
0000
0000
0010
0000
,
0010
0000
0000
0000
,
0000
1000
0000
0100
,
0000
1000
0000
0000
,
0000
0001
0000
0100
,
0000
0001
0000
0000
,
0000
1000
0000
0000
,
0000
0001
0000
0001
,
0000
1000
0000
1000
,
0000
0000
0000
0010
,
0000
0010
0000
1000
,
0001
1000
0000
0010
,
0000
0010
0000
0001
,
1000
0001
0000
0100
,
0000
0100
0000
1000
,
0001
1000
0000
0100
,
0000
0100
0000
0010
,
0010
1000
0000
0010
,
0010
0001
0000
0010
,
1000
0010
0001
0010
,
1000
0010
0001
0000
;

//---------------dance-single - NewbStepper-BSP----------------
#NOTEDATA:;
#CHARTNAME:NewbStepper-BSP;
#STEPSTYPE:dance-single;
#DESCRIPTION:NewbStepper-BSP;
#DIFFICULTY:Easy;
#METER:9;
#CREDIT:NewbStepper;
#NOTES:
0000
0000
0000
0000
,
2000
0000
0000
0000
3000
0000
0000
0002
0000
0000
0000
0003
0000
0000
0000
0000
,
0220
0000
0000
0330
0000
1000
0100
0010
,
0002
0000
0000
0000
0003
0000
0000
2000
0000
0000
0000
3000
0000
0000
0000
0000
,
0020
0230
0302
2003
,
3001
0001
1000
1000
,
0010
0000
1001
0000
,
1000
1000
0001
0001
,
0010
0000
1001
0000
,
1100
0000
0000
0000
0011
0000
0001
1000
,
0000
0100
0100
0100
,
1001
0001
0100
0000
,
1001
1000
0100
0000
,
0020
0000
0000
0030
0001
0000
0000
0000
,
0100
0000
1000
0000
,
0100
0000
0001
0010
,
0001
0000
1000
0000
,
0001
0000
1000
0000
,
0100
0000
0001
0100
,
0010
0100
0000
0000
,
1001
0000
0010
0100
,
0001
0000
1000
0000
,
0100
0000
0001
0000
,
0100
0000
1000
0010
,
1000
0000
0001
0000
,
1000
0000
0001
0000
,
0100
0000
1000
0100
,
0010
0100
0000
0000
,
1001
0000
0010
0100
,
1000
0000
0002
0000
,
0103
0000
0010
0010
0000
0100
0100
0000
,
0010
0000
1000
0000
1000
0000
0001
0100
,
0001
0000
1000
0100
1000
0000
0001
0000
,
0010
0100
2000
0000
,
3001
0000
0010
0010
0000
0100
0100
0000
,
0010
0000
0001
0000
0001
0000
1000
0100
,
1000
0000
0001
0100
0001
0000
1000
0000
,
0010
0100
0001
0010
,
1000
0100
0001
0010
,
0100
0100
1000
0010
,
0001
0100
1000
0010
,
0100
0100
0001
0011
,
1000
1010
0001
0101
,
1000
1100
0010
0110
,
0001
0101
1000
0100
,
0010
1001
1020
0000
,
0000
0000
0000
0230
0000
0000
0000
0000
,
0000
0000
0302
0000
,
0000
2000
0000
0000
,
3003
0000
0021
0000
,
0000
0000
0000
0230
0000
0000
0000
0000
,
0000
0000
2300
0000
,
0000
0001
0000
0002
0000
0000
0000
3003
,
0000
0000
0020
0030
,
1000
0000
1100
0000
,
0010
0000
0011
0000
,
0001
0000
0101
0000
,
0010
0000
1010
0000
,
0001
0000
1000
0000
,
0020
0000
0030
0000
,
1000
0000
0001
0000
,
0020
0000
0030
0000
,
0001
0000
0101
0000
,
0010
0000
1010
0000
,
1000
0000
1100
0000
,
0010
0000
0011
0000
,
1000
0000
0001
0000
,
1001
0000
0000
0001
,
0000
1000
0000
1001
,
0000
0000
0000
0000
,
0000
0000
0001
0010
,
0001
0000
0100
0000
,
0010
0000
1000
0000
,
0001
0000
1000
0010
,
1000
0000
2200
3300
,
0000
0000
0001
0010
,
0001
0000
0202
0303
,
0000
0000
0000
0001
,
0000
1000
0010
1000
,
0000
0100
0000
0010
,
0000
0001
0000
1000
,
0000
0001
0010
0001
,
0000
0202
0303
0000
,
1000
0010
1000
0000
,
2200
0000
3300
0000
,
0000
0010
0000
0001
,
0000
0001
0000
0000
0001
0000
0100
0000
,
0000
0010
0000
1000
,
0100
0010
0000
0001
,
0000
0100
0000
0010
,
0000
1010
0000
0000
1000
0000
0000
0000
,
0001
0000
0000
0000
0100
0000
0000
0100
,
0000
0100
0000
0010
,
0000
0000
1000
0000
0000
1000
0000
0000
,
1000
0100
0000
0010
,
0000
0001
0100
0010
,
0000
1000
0000
0100
,
0000
0000
0010
0000
0000
0010
0000
0000
,
0010
0001
0000
1000
,
0000
0000
0100
0000
0000
0100
0000
0000
,
0100
0000
0020
0000
0000
0030
0001
0000
,
0001
1000
1000
0010
,
0000
1001
0000
1000
,
1000
0001
0001
0010
,
0000
0000
1001
0000
0000
0000
1000
0100
,
1000
0000
0010
0000
0100
0001
0100
0000
,
1000
0000
0100
0000
0001
0000
0010
0001
,
0010
0000
0100
0000
1000
0010
1000
0000
,
0100
0000
0001
0100
1000
0000
0001
0000
,
0100
0000
1000
0100
0001
0000
1000
0100
,
0001
0000
0001
0100
1000
0000
1000
0100
,
0001
0100
1000
0000
;

//---------------dance-single - NewbStepper-DSP----------------
#NOTEDATA:;
#CHARTNAME:NewbStepper-DSP;
#STEPSTYPE:dance-single;
#DESCRIPTION:NewbStepper-DSP;
#DIFFICULTY:Medium;
#METER:13;
#CREDIT:NewbStepper;
#NOTES:
0000
0000
0000
0000
,
0102
0000
0000
1000
1003
0000
0100
0020
0000
0000
0030
0000
0100
0200
0000
0000
,
2300
0000
0000
0000
0000
0000
3001
0200
0000
0000
0310
0000
1000
0000
0100
0000
,
2100
0000
0000
0000
3001
0000
0010
0020
0000
0000
0030
0000
0100
0010
0000
0000
,
0001
0000
0100
0000
1000
0000
0100
0000
0001
0100
0010
1000
0001
0000
0100
0000
,
0010
1000
0010
1000
0000
1100
0000
0101
,
0000
0001
0010
0000
0001
0100
0001
0000
,
0010
0001
0010
0001
0000
0101
0000
1100
,
0000
1000
0010
0000
1000
0100
0001
0000
,
0100
0110
0000
0000
0001
0000
1000
1100
,
0000
0001
0101
0000
0010
0001
0100
0000
,
0010
0000
1000
0100
0010
0000
0001
0100
,
0010
1000
0001
0000
0010
0000
0100
0000
,
1000
0000
0100
0010
0100
0000
1000
0000
0001
0000
0000
0000
0000
0000
0000
0000
,
0010
0001
0100
1000
,
0100
0010
0000
0100
,
0001
0000
0010
0001
,
1000
0000
0010
1000
,
0100
0001
0100
0010
,
0001
0001
0000
1000
,
0100
0000
0010
0001
,
1000
0000
0010
1000
,
0010
0100
0010
0001
,
0010
1000
0000
1000
,
0001
0000
0010
0001
,
1000
0000
0001
0100
,
0000
1100
0000
0101
,
0000
0110
0000
1000
,
0001
0000
0010
0001
,
1001
0000
0000
0000
0010
2000
0000
0000
,
3001
0001
0100
0020
0000
0100
0130
0000
,
0010
1001
0010
0001
,
0100
0010
1000
0100
0000
0001
0100
0000
,
1000
0001
1001
0000
0010
0001
0100
0000
,
0010
1000
0100
0010
0000
0010
0100
0000
,
1000
0000
0001
0000
0010
0001
0100
0010
,
1000
0000
1000
0100
0000
0100
0010
0000
,
0001
0100
1000
0000
0200
0000
0302
0000
,
0023
0230
2300
3020
,
0230
0302
2003
3200
,
0302
0203
2300
3020
,
0230
0000
0302
0000
1003
0100
1000
0000
,
0001
0100
0001
0000
1000
0010
1000
0000
,
0001
0010
0001
0000
0010
0001
0100
0000
,
0010
1000
0100
0000
0010
0001
0100
0010
,
1000
0100
0010
0000
0021
0000
0000
0000
,
0000
0000
0100
0200
0030
0000
0000
0000
,
0001
1300
1020
0000
,
0000
0000
0100
0230
0000
0000
0000
0000
,
1000
0000
0301
0000
0202
0000
0000
0303
,
0000
1010
0000
2002
0000
0000
3003
0000
,
0010
0000
0001
0000
2200
0000
0000
3300
,
0000
0011
0000
2002
0000
0000
3003
0000
,
0010
1000
2002
3003
,
0010
0001
0100
0010
,
1000
0000
0000
0001
0000
0000
0100
0000
,
0010
1000
0100
0010
,
0001
0000
0000
1000
0000
0000
0100
0000
,
0001
0100
1000
0010
,
0100
0000
0000
0110
0000
0000
1001
0000
,
0001
0100
1000
0100
,
0001
0000
0000
0010
0000
0000
0100
0000
,
1000
0100
0001
0100
,
1000
0100
0010
0000
,
0001
0100
1000
0100
,
0001
0100
0010
0000
,
1000
0100
0010
0001
,
1001
0000
0000
1001
0000
0000
0010
0000
,
1000
1100
0000
0101
,
0000
0110
0000
0000
1001
0000
0000
0000
,
0011
0000
0000
0000
0001
0000
0000
0101
,
0000
1000
0001
0010
,
1100
0000
0000
0000
1001
0000
0000
1001
,
0000
1001
0010
0001
,
0100
0000
0000
0000
0110
0000
0000
1001
,
0000
1100
0010
0001
,
0100
0000
0000
0000
0101
0000
0000
1001
,
0000
1000
0010
0101
,
0000
0000
1001
0000
0000
1001
0000
0000
,
1001
0010
1000
0100
,
0000
0000
0110
0000
0000
1001
0000
0000
,
1000
0100
0001
0101
,
0000
0000
0110
0000
0000
1001
0000
0000
,
1100
0010
0001
0000
,
0100
0010
0000
1000
0000
0000
0001
0000
,
0000
1001
0100
0010
,
0100
1000
0001
0100
,
1000
0000
0100
0000
0001
0000
0010
0001
,
0000
1000
0000
0000
0100
0000
0001
0000
,
0100
1000
0000
0110
,
0000
0101
0000
0000
0010
0000
0001
0000
,
0101
0000
0000
0000
1010
0000
0000
1001
,
0000
0000
0101
0000
0000
0000
1000
0100
,
0000
0011
0001
0100
,
1000
0100
0001
0010
,
0100
0000
1000
0100
0000
0001
0000
0000
,
0100
0000
1000
0000
0010
0000
0100
0001
,
0000
0000
0011
0000
0000
1100
0000
0000
,
1000
0000
0010
1000
0010
1000
0010
0000
,
1000
0000
0100
0001
0000
0100
0000
0000
,
0110
0000
0000
0000
0001
0000
0100
0010
0100
0000
0001
0000
1000
0000
0100
0000
,
0001
0000
0100
1000
0001
0100
0000
0100
,
0010
0000
1000
0100
1001
0000
0001
0100
,
1000
0100
0001
0000
0100
0010
0000
1000
,
0010
0000
0100
0001
1001
0000
0010
1000
,
0100
0001
0101
0000
1100
1000
0000
1010
,
0010
0000
0100
0001
1001
0000
0011
0001
,
0100
0010
1000
0000
0001
0101
0000
1000
,
1100
0000
0010
0001
1000
0000
0001
0100
,
0101
0000
0010
1000
0001
0000
1000
0100
,
0110
0000
0001
0100
0110
0000
1000
0100
,
0001
0100
0110
0000
1001
0000
0000
0000
;

//---------------dance-single - NewbStepper-ESP----------------
#NOTEDATA:;
#CHARTNAME:NewbStepper-ESP;
#STEPSTYPE:dance-single;
#DESCRIPTION:NewbStepper-ESP;
#DIFFICULTY:Hard;
#METER:16;
#CREDIT:NewbStepper;
#NOTES:
0000
0000
0000
0000
,
2010
0000
0000
0001
3001
0000
0100
0010
1010
0000
1000
0000
0001
0100
0000
0000
,
0021
0000
0000
0100
0130
0000
1000
0001
0000
0100
0010
0000
1010
0000
0101
0000
,
0021
0000
0000
0000
0031
1000
0100
0100
0000
0001
0100
0000
1000
1010
0000
0000
,
0001
0000
1000
0000
0100
0000
0001
0000
0100
0000
0010
0000
0001
1000
0001
1000
0010
0000
1000
0000
0001
0000
0010
0000
0100
0000
1000
0000
0010
0000
0000
0000
,
0101
0001
0100
1000
0000
0100
0001
0001
,
0000
1000
1001
0000
0011
0000
0110
0000
,
1100
1000
0100
0001
0000
0100
1000
1000
,
0000
0000
0001
0000
1001
0000
0000
0000
1000
0010
1000
0010
0100
0000
0000
0000
,
0101
0010
0000
0000
1010
1000
0100
0011
,
0000
0001
1000
0100
0001
0100
1000
0000
,
0010
0100
1000
0100
0001
1000
0010
0100
,
0101
0001
0011
0000
1100
1000
1010
0000
,
0001
0010
0010
1000
0010
0010
0011
0000
1001
0000
0000
0000
0100
0000
0000
0000
,
0001
0000
0010
0001
0010
0000
0100
0000
,
1000
0010
1000
0000
0100
0000
0001
0000
,
0100
1000
0010
0001
,
0110
0000
0101
0001
,
0010
0000
0100
1000
0001
0000
0101
0000
,
0010
0000
1100
0000
0000
0000
0010
0001
,
0010
0100
1000
0010
,
1010
0000
1001
0100
,
1000
0000
0010
1000
0010
0000
0100
0000
,
0001
0010
0001
0000
0100
0000
1000
0000
,
0100
0001
0010
1000
,
0110
0000
1100
1100
,
0000
1001
0000
1010
,
0100
0000
0101
0000
0000
0000
1000
0010
,
1000
0010
0100
0000
0001
0000
0010
0000
,
0110
0000
0000
0000
1100
0010
0000
0000
,
0011
0001
0100
1010
0000
1000
0001
0100
,
1000
0100
0001
0000
0010
0100
0001
0100
,
1000
0000
0010
0100
0000
0010
1000
0000
,
0010
0001
0010
0000
1000
0100
0001
0100
,
1000
0010
0100
0001
0000
0001
0010
1000
,
0010
0001
0100
0000
0010
1000
0100
0001
,
0100
0010
0001
1000
0000
0001
0100
0000
,
0010
0000
1000
0100
1000
0000
0000
0000
0001
0000
0002
0000
0103
0000
1000
0000
,
2000
3100
0001
0002
0013
0100
0200
1300
,
0010
0100
0110
0001
1000
2000
3100
0001
,
0002
0103
1000
2000
3010
0100
0200
0301
,
0010
0100
0110
0000
2000
0100
3002
0100
,
2003
0010
3002
0010
2003
0100
3002
0010
,
1003
2000
3100
0010
0002
0100
2003
0100
,
3002
0000
0010
0000
2003
0000
0010
0000
3001
0100
0001
0100
0010
1000
0010
1000
,
0100
0010
0100
0010
0001
0000
0000
0000
1020
0000
0000
0000
0000
0000
0000
0000
,
0230
0000
0000
0000
0001
0000
0001
0000
0000
0000
1000
0000
0300
0000
0001
0010
,
0001
1001
0021
0000
,
0230
0000
0000
0000
1000
0000
1000
0000
0000
0000
0001
0000
0300
0000
1000
0010
,
1000
0000
1001
0000
0011
0001
0200
0000
,
1300
0000
0100
0000
0001
0000
0100
0000
0010
0000
1000
0010
1000
0000
0001
0000
,
0001
0100
0110
0010
1010
1000
0200
0000
,
0301
0100
1000
1010
0000
0100
0101
0000
,
2000
0000
0000
0000
0000
0000
0000
0000
3002
0000
0000
0000
0000
0000
0000
0000
1003
0100
1000
0100
0010
0000
0001
0100
0001
0100
0010
0000
0110
0000
0000
0000
,
1000
0000
0001
0010
0001
0000
1000
0100
,
0010
0000
0001
0100
0010
0000
1000
0000
,
0001
0000
1000
0010
1000
0000
0001
0100
,
0010
0000
1000
0100
0010
0000
0001
0000
,
1000
0001
0100
0010
,
1010
0000
0000
0101
0000
0000
0100
0000
,
0010
1000
0010
1000
0100
0000
0000
0000
,
0010
0001
0000
0101
0000
0000
1010
0000
,
1000
0000
0100
0000
0001
0100
0001
0000
,
0100
1000
0000
0010
0000
0000
1000
0000
,
0001
0000
0100
0000
1000
0100
1000
0000
,
0100
0001
0000
0010
0000
0000
0110
0000
,
1000
0000
0100
0000
0010
0001
0000
0000
,
0101
0000
0000
1010
0000
0000
1000
0100
,
0010
0001
0010
0000
0000
0000
0001
0100
,
0000
0010
0000
0000
1001
0000
0000
0000
,
1100
0000
0010
0000
0001
0100
0010
0000
,
1000
0100
0010
0000
0001
0000
1000
0000
,
0001
0010
0001
0000
1000
0100
0000
0010
,
0000
0000
0011
0000
0001
0000
1000
0010
,
1000
0000
0000
0000
0110
0000
0000
0011
,
0000
0000
0100
0000
0010
0001
0010
0001
,
0100
0000
0000
0000
0010
1000
0000
1100
,
0000
0000
0001
0000
0010
0000
1000
0010
,
1000
0000
0010
0001
0000
0100
0000
0000
,
0001
0000
1000
0000
0010
0000
0001
0010
,
0001
0000
0010
1000
0000
0100
0000
0000
,
0110
0000
0001
0000
0100
0000
0010
1000
,
0000
0000
1100
0000
0000
0011
0000
0000
,
0001
0100
0010
1000
0010
0000
0000
0000
,
1000
0100
0000
0010
0000
0000
1001
0000
,
0000
0000
0001
0100
0001
0000
1000
0100
,
0000
1000
0100
0000
0010
0001
0010
0000
,
0001
0000
1000
0100
1000
0000
0001
0100
,
0000
0001
0100
0000
0010
1000
0010
0000
,
1000
0100
0010
0000
0000
0000
0011
0000
,
0000
0110
0000
0000
1000
0000
0100
0010
,
0100
0000
0000
0000
0011
0000
0000
1100
,
0000
1001
0000
0011
,
0100
0000
1000
0010
0000
1000
0010
0000
,
0100
0001
0100
0000
0001
0000
0010
0100
,
0010
0000
1000
0010
0000
0001
0000
0000
,
0100
0000
0010
0000
1000
0001
1000
0000
,
0000
0000
1010
0000
0000
0101
0000
0000
,
1001
0000
1000
0100
1000
0100
0010
0001
,
0010
0000
0001
0100
0000
0101
0000
0000
,
1010
0000
0000
0000
1000
0010
0010
0001
0010
0010
1010
0000
1000
0000
0100
0000
,
0010
0000
0100
0000
1000
0010
1000
0000
0001
0000
0010
0000
0100
0000
0010
0001
,
0010
1000
0010
0001
0100
0000
0001
0100
,
0010
0100
0001
1000
0010
0101
0000
0010
,
1100
0000
0010
0110
1001
0000
0001
0100
,
0010
0000
0100
0000
0001
0010
0001
0000
1000
0000
0010
0000
0100
0000
0010
1000
,
0010
0001
0010
1000
0100
0000
0001
0100
,
1000
0000
0010
0000
0100
0000
0001
1000
0001
0000
0000
0000
0100
0000
0100
0000
,
0001
0100
0001
0000
1000
0000
0100
0000
1001
0000
0000
0000
0100
0000
0100
0000
,
1000
0100
1000
0000
0001
0000
0100
0000
1001
0000
0000
0000
0001
0000
0001
0000
,
0101
0000
1000
1000
1100
0000
0011
0001
,
0101
0100
0110
1010
1001
0000
0000
0000
;

//---------------dance-single - Nitrospan-CSP----------------
#NOTEDATA:;
#CHARTNAME:Nitrospan-CSP;
#STEPSTYPE:dance-single;
#DESCRIPTION:Nitrospan-CSP;
#DIFFICULTY:Challenge;
#METER:17;
#CREDIT:Nitrospan;
#NOTES:
0000
0000
0000
0000
,
2100
0000
0000
3010
0000
0100
0000
0002
0000
0000
0000
0013
0100
2000
0000
0000
,
3020
0000
0000
1030
0000
0001
0000
0200
0000
0000
0310
0000
1000
0000
0100
0000
,
0011
0000
0000
1000
0100
0010
0001
1100
0000
0101
0000
0100
0010
1000
0000
0000
,
0110
0000
0000
0100
0000
0010
0000
1001
0000
0110
0000
1000
0001
0010
0100
1000
,
0100
0010
0100
1000
0001
0100
1000
1100
,
0000
0101
1000
0010
0100
0020
0001
0000
,
0130
0001
1000
0100
0010
0000
0001
0101
,
0000
0000
1100
0000
0010
0000
0100
0000
0001
0100
1000
0100
0001
0000
0000
0000
,
0011
0100
0000
0000
1100
0010
0100
0101
,
0000
0000
0010
0000
1000
0100
0010
0001
0100
0010
1000
0001
0100
0000
0000
0000
,
1010
0010
0100
0001
0010
0000
0110
0001
,
0000
1000
0010
0100
0101
0001
1001
0000
,
1000
0010
0100
0001
0010
0000
0010
0000
1000
0000
0100
0000
0110
0000
0000
0000
1000
0000
0000
0000
0000
0000
0000
0000
0010
0000
0000
0000
1000
0000
0000
0000
,
0001
0010
0100
1000
,
0010
1010
MMMM
0101
,
MMMM
0000
0010
1000
0001
0000
0010
0000
,
0220
0000
0330
0000
1000
0000
0010
1000
,
0001
0010
MMMM
0100
,
0001
0000
0012
0000
0000
0000
1003
0010
,
0100
0001
0010
0100
,
MMMM
0000
0000
0000
1100
0000
0010
1000
,
0001
0010
0100
1000
,
0010
1001
MMMM
0201
,
0000
0000
0310
1000
0001
0000
0010
0000
,
0100
0000
1010
1010
,
MMMM
0101
MMMM
0011
,
MMMM
1002
0000
1003
,
0001
0220
0330
1001
,
0100
0000
0000
0000
0110
1000
0001
MMMM
,
0011
0000
0010
1001
0000
1100
0001
0100
,
0010
1000
1001
0000
0011
0010
0100
1000
,
1100
0000
0010
0101
MMMM
1010
0100
0001
,
1000
0100
0010
0000
0001
0100
1000
0100
,
0101
0000
0010
1100
MMMM
0011
0100
1000
,
0010
0100
0010
0000
1010
0010
0100
0001
,
0101
0000
0010
1100
0000
0101
0010
1000
,
0100
0010
MMMM
0000
0001
0010
0011
0001
,
0100
0010
0110
0010
1000
0100
1100
1000
,
0010
0100
1001
0000
0001
0100
0110
1000
,
0100
0010
0001
1100
MMMM
0001
1001
0100
,
0010
0001
0110
0000
0010
0001
0101
0100
,
0010
1000
1100
1000
0010
0100
0101
0001
,
1000
0010
1010
0100
0001
0010
0110
0100
,
1000
0000
0001
0000
1001
0000
0100
0000
0010
1000
0000
0001
0100
0000
0001
0010
,
0000
0100
1000
0000
MMMM
0000
0000
0000
2020
0000
0000
0000
0030
0000
0000
0000
,
3001
0000
0010
0012
0000
1000
0000
1000
,
0023
0130
0201
0010
,
0310
0000
1000
2100
0000
0001
3010
0200
,
0001
1300
0022
0000
,
0033
0000
1100
0000
0000
0000
0010
0000
0100
0001
1000
0001
0100
0000
0102
0000
,
0000
1003
0120
0001
,
1030
1010
0000
1001
0000
0001
0100
0010
,
2002
0000
0000
0000
0000
0000
0000
0000
3003
0000
0000
0000
0000
0000
0000
0000
1000
0100
0010
0100
1000
0000
0001
0100
0010
0100
0001
0000
1001
0000
0000
0000
,
1100
0000
0001
0000
0010
0002
0100
0000
,
1003
0000
0010
0100
0000
0001
0010
0000
,
0100
0000
1000
0000
0001
0020
1000
0000
,
0031
0100
0000
0010
0000
1000
0100
0000
,
0010
0000
0001
0000
0010
0200
1000
0000
,
0310
0000
0001
0100
0000
0010
1000
0000
,
0001
0000
0100
0000
0001
0020
1000
0000
,
0130
1000
0000
0001
0000
0100
0010
0000
,
1001
0000
0100
0000
0010
2000
0100
0000
,
3001
0000
0010
0100
0000
1000
0001
0000
,
0010
0000
0001
0000
1000
0200
0001
0000
,
1300
0010
0000
0100
0000
0001
0010
0000
,
0100
0000
1000
0000
0001
0100
0000
0000
,
1010
0000
0000
0101
MMMM
0000
1001
0000
,
0100
0000
0010
0001
1000
0000
0010
0100
,
0000
0101
0000
0000
1100
0000
MMMM
0000
,
0001
2000
0010
0000
3001
0000
0100
0010
,
0000
1000
0001
0000
0010
0000
0100
0000
,
1000
0020
0001
0000
1030
0001
0000
0100
,
0000
0010
1000
0000
0001
0000
0010
0000
,
0200
0001
0000
0000
1300
0000
0000
0110
,
0000
0001
0100
0010
,
0100
0002
0010
0000
1003
0100
0000
0110
,
MMMM
0000
0011
0000
0100
0000
1000
0002
,
0100
0000
0013
0000
0100
1000
0000
0001
,
0100
0000
0010
0000
1000
0000
0001
0200
,
1000
0000
0310
1000
0000
0001
0000
0100
,
0010
0000
1000
0000
0010
0000
0100
0001
,
1000
0000
0101
0000
0000
1100
MMMM
0000
,
1001
0000
0010
0000
0100
0001
1000
0000
,
0100
0010
0000
1001
0000
0000
0110
0000
,
MMMM
0000
0010
2000
0100
0000
3001
0000
,
0001
0100
0000
1000
0100
0000
0001
0000
,
0010
0000
0100
2000
0001
0000
3001
0100
,
0000
1000
0000
0100
0001
0000
0100
0000
,
0010
0000
1000
0200
0001
0000
0310
0000
,
0000
1001
MMMM
0000
0001
0000
0010
0000
,
0100
1000
0001
0000
0100
0010
0000
1010
,
0000
0000
0101
0000
MMMM
0000
0010
0002
,
0100
0000
1003
0000
1000
0010
0000
0001
,
0010
0000
1000
0000
0100
0000
0010
0002
,
1000
0000
1003
0010
0000
0001
0000
0010
,
1000
0000
0010
0000
0100
0000
0001
0020
,
1000
0000
0130
0000
0000
1001
0000
0000
,
0101
0000
0010
1000
0001
0010
0100
1000
,
0001
0100
0010
1000
0000
0110
0000
0000
,
1001
0000
0000
0000
0000
0000
0000
0000
0001
0010
0100
1000
0010
0000
0010
0000
0001
0000
0100
0000
0110
0000
0000
0000
1001
0000
0000
0000
0100
0000
0000
0000
,
0010
0001
0100
0010
MMMM
0110
0000
1000
,
0010
0100
0001
0000
1000
0000
0100
0000
1001
0000
0000
0000
1010
0000
1000
0000
,
0001
0010
0110
MMMM
1100
1001
0000
0001
,
0100
0010
1010
0100
0101
0000
1001
0010
,
MMMM
0000
0110
0001
0100
1000
0000
1100
,
0100
0001
0010
0100
1100
0000
0101
0100
,
0010
1000
1010
0000
0100
0010
0001
0010
,
1000
0010
0001
0100
0110
0000
1000
0100
,
0001
0100
1000
0010
0110
0000
0101
0010
,
1001
MMMM
1100
0010
1001
MMMM
1010
0001
,
1100
MMMM
0011
0100
1001
0000
0000
0000
;

//---------------dance-double - NewbStepper-BDP----------------
#NOTEDATA:;
#CHARTNAME:NewbStepper-BDP;
#STEPSTYPE:dance-double;
#DESCRIPTION:NewbStepper-BDP;
#DIFFICULTY:Easy;
#METER:9;
#CREDIT:NewbStepper;
#NOTES:
00000000
00000000
00000000
00000000
,
00020000
00000000
00000000
00000000
00030000
00000000
00000000
00000020
00000000
00000000
00000000
00000030
00000000
00000000
00000000
00000000
,
00002000
00000000
00000000
00000000
00003000
00000001
00000100
00001000
,
00002000
00000000
00000000
00000000
00003000
00000000
00000000
00200000
00000000
00000000
00000000
00300000
00000000
00000000
00000000
00000000
,
00020000
00000000
20030000
00000000
,
30010000
00010000
10000000
10000000
,
00100000
00000000
10010000
00000000
,
00001000
00001000
00010000
00010000
,
00000100
00000000
00001001
00000000
,
00000011
00000000
00000000
00000000
00001100
00000000
00001000
00000001
,
00000000
00000100
00000100
00000100
,
00001000
00010000
01000000
00000000
,
00010000
00001000
00000100
00000000
,
00000020
00000000
00000000
00000030
00001000
00000000
00000000
00000000
,
00000001
00000000
00000100
00000000
,
00001000
00000000
00010000
00100000
,
00010000
00000000
00001000
00000000
,
01000000
00000000
00010000
00000000
,
10000000
00000000
01000000
00000000
,
00010000
00000000
00001000
00000010
,
00001000
00000000
00010000
00000000
,
00000100
00000000
00000010
00000000
,
00000001
00000000
00000100
00000010
,
00000100
00000000
00001000
00000000
,
00010000
00000000
01000000
00000000
,
10000000
00000000
00010000
00100000
,
00010000
00000000
10000000
00000000
,
01000000
00000000
00010000
00000000
,
00001000
00000000
00000100
00000000
,
00001001
00000000
00000002
00000000
,
00000103
00000000
00001000
00001000
00000000
00010000
00010000
00000000
,
00100000
00000000
10000000
00000000
10000000
00000000
00010000
01000000
,
00010000
00000000
10000000
01000000
10000000
00000000
00010000
00000000
,
00100000
01000000
20000000
00000000
,
31000000
00000000
00010000
00010000
00000000
00001000
00001000
00000000
,
00000010
00000000
00000001
00000000
00000001
00000000
00001000
00000100
,
00001000
00000000
00000001
00000100
00000001
00000000
00001000
00000000
,
00000010
00010000
00001000
00000010
,
00001000
00010000
00100000
00010000
,
00001000
00000100
00001000
00010000
,
01000000
10000000
00100000
00010000
,
00001000
00000100
00000001
00000010
,
00001000
00001010
00000010
00001000
,
00010000
00011000
00001000
00010000
,
00100000
00110000
00010000
00100000
,
10000000
10010000
00210000
00000000
,
00000000
00000000
00000000
00302000
00000000
00000000
00000000
00000000
,
00000000
00000000
00003200
00000000
,
00000000
00000002
00000000
00000000
,
00000303
00001020
00000000
00000000
,
00000000
00020030
00000000
00000000
00000000
00000000
00000000
00000000
,
00000000
00000000
02030000
00000000
,
00000000
10000000
00000000
20000000
00000000
00000000
33000000
00000000
,
00000000
00000000
00200000
00300000
,
10000000
00000000
11000000
00000000
,
00100000
00000000
00110000
00000000
,
00010000
00000000
00011000
00000000
,
00001000
00000000
00001100
00000000
,
00000010
00000000
00000001
00000000
,
00000011
00000000
00000000
00000000
,
00000010
00000000
00001000
00000000
,
00001010
00000000
00000000
00000000
,
00000001
00000000
00000101
00000000
,
00000010
00000000
00001010
00000000
,
00001000
00000000
00011000
00000000
,
00010000
00000000
01010000
00000000
,
00100000
00000000
10000000
00000000
,
10100000
00000000
00010000
00000000
,
00001000
00000000
00011000
00000000
,
00000000
00000000
00000000
00000000
,
00000000
00000000
00000001
00000010
,
00000001
00000000
00000100
00000000
,
00000010
00000000
00001000
00000000
,
00010000
00000000
10000000
00100000
,
10000000
00000000
22000000
33000000
,
00000000
00000000
00010000
00100000
,
00010000
00000000
02020000
03030000
,
00000000
00000000
00000000
10000000
,
00000000
00010000
00100000
00010000
,
00000000
01000000
00000000
00001000
,
00000000
00010000
00000000
00000100
,
00000000
00001000
00000010
00001000
,
00000000
00002200
00003300
00000000
,
00000001
00000010
00000001
00000000
,
00000202
00000303
00000000
00000000
,
00000000
00000010
00000000
00000001
,
00000000
00000001
00000000
00000000
00000001
00000000
00000100
00000000
,
00000000
00000010
00000000
00010000
,
00001000
00100000
00000000
01000000
,
00000000
10000000
00000000
00010000
,
00000000
00110000
00000000
00000000
10000000
00000000
00000000
00000000
,
00010000
00000000
00000000
00000000
01000000
00000000
00000000
01000000
,
00000000
01000000
00000000
00100000
,
00000000
00000000
00010000
00000000
00000000
00010000
00000000
00000000
,
00010000
00001000
00000000
00000010
,
00000000
00000001
00000100
00000010
,
00000000
00001000
00000000
00000100
,
00000000
00000000
00010000
00000000
00000000
00010000
00000000
00000000
,
00010000
00001000
00000000
01000000
,
00000000
00000000
00100000
00000000
00000000
00100000
00000000
00000000
,
00100000
20000000
30000000
00010000
,
00010000
10000000
10000000
00100000
,
00000000
10010000
00000000
00001000
,
00001000
00010000
00010000
00000100
,
00000000
00000000
00001001
00000000
00000000
00000000
00000001
00000100
,
00000001
00000000
00000010
00000000
00000100
00001000
00000100
00000000
,
00010000
00000000
00001000
00000000
00000010
00000000
00001000
00010000
,
00001000
00000000
00100000
00000000
01000000
10000000
01000000
00000000
,
00010000
00000000
00001000
00010000
01000000
00000000
00010000
00000000
,
00001000
00000000
00010000
00001000
00000100
00000000
00000001
00000010
,
00000001
00000000
00001000
00000010
00001000
00000000
00000001
00000100
,
00001000
00010000
00011000
00000000
;

//---------------dance-double - NewbStepper-DDP----------------
#NOTEDATA:;
#CHARTNAME:NewbStepper-DDP;
#STEPSTYPE:dance-double;
#DESCRIPTION:NewbStepper-DDP;
#DIFFICULTY:Medium;
#METER:13;
#CREDIT:NewbStepper;
#NOTES:
00000000
00000000
00000000
00000000
,
00002100
00000000
00000000
00000001
00003001
00000000
00000100
00000020
00000000
00000000
00000030
00000000
00000100
00000200
00000000
00000000
,
00002300
00000000
00000000
00000000
00000000
00000000
00013000
02000000
00000000
00000000
03100000
00000000
00010000
00000000
01000000
00000000
,
01020000
00000000
00000000
00000000
10030000
00000000
00100000
00200000
00000000
00000000
00000000
00000000
00310000
00001000
00000000
00000000
,
00001000
00000000
00000100
00000000
00000001
00000000
00000100
00000000
00000010
00001000
00000100
00010000
00001000
00000000
01000000
00000000
,
00010000
10000000
00010000
10000000
00000000
11000000
00000000
01010000
,
00000000
00010000
00001000
00000000
00000010
00000001
00001000
00000000
,
00000010
00001000
00000010
00001000
00000100
00000000
00000010
00000001
,
00000000
00000100
00001000
00000000
00010000
01000000
10000000
00000000
,
01000000
01100000
00000000
00000000
00010000
00000000
10000000
11000000
,
00000000
00010000
00001000
00000000
00000010
00000000
00000001
00000000
,
00001000
00000000
00000001
00000100
00000010
00000000
00001000
00000100
,
00000010
00001000
00010000
00000000
00100000
10000000
00010000
00000000
,
10000000
00000000
01000000
00100000
01000000
00000000
10000000
00000000
00010000
00000000
00000000
00000000
00000000
00000000
00000000
00000000
,
00100000
00010000
01000000
00100000
,
00010000
00001000
00000000
00000100
,
00000001
00000000
00000010
00000001
,
00001000
00000000
00000010
00001000
,
00000100
00000010
00001000
00010000
,
01000000
10000000
00000000
00010000
,
01000000
00000000
00001000
00010000
,
00100000
00000000
10000000
00010000
,
10000000
01000000
00010000
00001000
,
00000100
00000001
00000000
00000010
,
00000000
00000001
00000100
00000000
,
00001000
00000000
00010000
00001000
,
00010000
01000000
00000000
10000000
,
01000000
00010000
00000000
00001000
,
00000100
00000000
00000001
00001000
,
00001001
00000000
00000000
00000000
00000010
00000002
00000000
00000000
,
00001003
00000000
00000010
00010000
00000000
00010000
00001000
00000000
,
00100000
00110000
10000000
01000000
,
00010000
00000000
00001000
00100000
00001000
00010000
01000000
00000000
,
00100000
00010000
10000000
00000000
00100000
10000000
01000000
00010000
,
00000000
00001000
00000000
00000100
00000000
00000001
00001000
00000000
,
00000010
00000000
00000110
00000000
00001000
00000000
00000001
00000100
,
00001000
00000000
00010000
00001000
00000000
00001000
00100000
00000000
,
00010000
10000000
01000000
00000000
00020000
00000000
00032000
00000000
,
00003020
00000032
00000203
00000320
,
00002030
00003002
00000203
00002300
,
00023000
02030000
23000000
30200000
,
02300000
00000000
03020000
00000000
10030000
01000000
10000000
00000000
,
00010000
01000000
00010000
00000000
00100000
00001000
00100000
00000000
,
00001000
00010000
00001000
00000000
00010000
00000100
00010000
00000000
,
00000010
00001000
00000010
00000000
00000100
00000001
00000100
00000000
,
00000010
00001001
00002010
00000000
,
00000000
00000000
00010000
00020000
00003000
00000000
00000000
00000000
,
10000000
00130000
00120000
00000000
,
00000000
00000000
00001000
00002000
00030000
00000000
00000000
00000000
,
00000001
00000000
00003100
00000000
00002200
00000000
00000000
00003300
,
00000000
00011000
00000000
02020000
00000000
00000000
03030000
00000000
,
00100000
00000000
10000000
00000000
02020000
00000000
00000000
03030000
,
00000000
00011000
00000000
00002200
00000000
00000000
00003300
00000000
,
00000010
00000001
00002002
00003003
,
00000010
00000001
00000100
00000010
,
00001000
00000000
00000000
00000010
00000000
00000000
00010000
00000000
,
00001000
00100000
00010000
10000000
,
01000000
00000000
00000000
00010000
00000000
00000000
00001000
00000000
,
00000100
00001000
00010000
01000000
,
00100000
00000000
00000000
01100000
00000000
00000000
00011000
00000000
,
00010000
01000000
00010000
00001000
,
00000100
00000000
00000000
00000001
00000000
00000000
00000010
00000000
,
00000001
00000100
00001000
00010000
,
01000000
10000000
00100000
00000000
,
00100000
10000000
01000000
00010000
,
00001000
00000100
00000001
00000000
,
00001000
00000100
00000010
00000001
,
00001001
00000000
00000000
00001001
00000000
00000000
00000010
00000000
,
00010000
00011000
00000000
01001000
,
00000000
01010000
00000000
00000000
10010000
00000000
00000000
00000000
,
10100000
00000000
00000000
00000000
10000000
00000000
00000000
11000000
,
00000000
00010000
10000000
00100000
,
01010000
00000000
00000000
00000000
00101000
00000000
00000000
00011000
,
00000000
00010100
00000010
00000001
,
00000100
00000000
00000000
00000000
00000110
00000000
00000000
00001001
,
00000000
00001100
00000010
00000001
,
00000100
00000000
00000000
00000000
00001100
00000000
00000000
00011000
,
00000000
01000000
00100000
01100000
,
00000000
00000000
10010000
00000000
00000000
01001000
00000000
00000000
,
00010010
00001000
00000100
00000001
,
00000000
00000000
00000011
00000000
00000000
00001001
00000000
00000000
,
00000001
00000100
00001000
00011000
,
00000000
00000000
01100000
00000000
00000000
10010000
00000000
00000000
,
11000000
00100000
00010000
00000000
,
01000000
00100000
00000000
10000000
00000000
00000000
00010000
00000000
,
00000000
10010000
01000000
10000000
,
00100000
00010000
00001000
00000100
,
00000001
00000010
00000001
00001000
,
00000000
00001010
00000000
00000000
00001001
00000000
00000001
00000000
,
00000100
00001000
00000000
00011000
,
00000000
01010000
00000000
00000000
00100000
00000000
10000000
00000000
,
11000000
00000000
00000000
00000000
01010000
00000000
00000000
00011000
,
00000000
00001010
00000000
00001001
,
00000000
00000011
00000001
00000100
,
00001000
00000100
00000010
00010000
,
00001000
00000000
00000010
00000000
00000000
00001010
00000000
00000000
,
00001000
00010000
01000000
10000000
,
00000000
00000000
10010000
00000000
00000000
01010000
00000000
00000000
,
00010000
00100000
00001000
00010000
,
00000100
00000000
00001100
00000000
00000000
00000011
00000000
00000000
,
00001001
00000000
00000000
00000000
00000001
00000000
00000100
00000010
00000100
00000000
00000001
00000000
00001000
00000000
00000100
00000000
,
00000001
00000000
00000100
00001000
00000001
00000100
00000000
00000100
,
00001000
00000000
00010000
01000000
10000000
00000000
00010000
01000000
,
10000000
01000000
00010000
00000000
01000000
00100000
00000000
00010000
,
00001000
00000000
00000100
00000001
00001000
00000000
00000010
00001000
,
00000100
00000001
00000100
00000000
00001000
00000010
00000000
00010000
,
00001000
00000000
00000100
00001000
00010000
00000000
00100000
10000000
,
01000000
00010000
00001000
00000000
00000010
00000011
00000000
00000001
,
00001001
00000000
00000010
00000100
00001000
00000000
00100000
00010000
,
10000000
00000000
01000000
00010000
00001000
00000000
00000010
00001000
,
00011000
00000000
00100000
00010000
00011000
00000000
00001000
00000100
,
00000001
00000100
00000110
00000000
00001001
00000000
00000000
00000000
;

//---------------dance-double - NewbStepper-EDP----------------
#NOTEDATA:;
#CHARTNAME:NewbStepper-EDP;
#STEPSTYPE:dance-double;
#DESCRIPTION:NewbStepper-EDP;
#DIFFICULTY:Hard;
#METER:16;
#CREDIT:NewbStepper;
#NOTES:
00000000
00000000
00000000
00000000
,
00011000
00000000
00000000
00100000
01000000
00000000
10000000
00100000
10100000
00000000
00000000
00000000
00010000
01000000
00000000
00000000
,
00210000
00000000
00000000
00001000
00301000
00000000
00010000
00000100
00000000
00000010
00000001
00000000
00000100
00000000
00001000
00000000
,
00011000
00000000
00000000
00000000
00000100
00000001
00000010
00000010
00000000
00000000
00001000
00000000
00010000
00001000
00000000
00000000
,
00100000
00010000
10000000
01000000
00010000
00001000
00000100
00000001
00001000
00000001
00000010
00001000
00010000
00100000
10000000
00000000
,
00010000
10000000
01000000
00010000
00000000
00001100
00000000
00011000
,
00000000
00100000
01000000
00000000
00010000
00000000
00011000
00000000
,
00001000
00000100
00000001
00000010
00001000
00000000
00010000
01000000
,
00000000
00000000
10000000
00000000
00100000
00000000
00000000
00000000
01000000
00001000
01000000
00001000
00010000
00000000
00000000
00000000
,
00011000
00000010
00000000
00000000
00000101
00000001
00000010
00001100
,
00000000
00010000
00001000
00010000
00100000
10000000
01000000
00000000
,
00010000
00001000
00100000
00010000
00001000
00000100
00000010
00000001
,
00000000
00001010
00000110
00000000
00000001
00001000
00001001
00000000
,
00000010
00001000
00001000
00010000
00001000
00001000
00000100
00000000
00011000
00000000
00000000
00000000
00100000
00000000
00000000
00000000
,
10000000
00000000
01000000
00100000
01000000
00000000
10000000
00000000
,
00010000
01000000
00010000
00000000
00100000
00000000
00001000
00000000
,
00000010
00000001
00000100
00001000
,
00010000
00000000
01010000
01000000
,
10000000
00000000
00100000
01000000
00010000
00000000
00110000
00000000
,
00001000
00011000
00000000
00000010
,
00000110
00000001
00000100
00001000
,
00010000
00000000
00011000
00000010
,
00000001
00000000
00000100
00000010
00000100
00000000
00000001
00000000
,
00001000
00000100
00001000
00000000
00000010
00000000
00010000
00000000
,
00100000
10000000
01000000
00010000
,
00001000
00000000
01100000
00010000
,
00001000
00000110
00000000
00000101
,
00000010
00000000
00001100
00000000
00000000
00000000
00000001
00001000
,
00000010
00001000
00000001
00000000
00000100
00000000
00001000
00000000
,
00011000
00000000
00000000
00000000
11000000
00100000
00000000
00000000
,
00011000
00010000
01000000
01100000
00000000
00010000
00001000
00000100
,
00000001
00000100
00001000
00000000
00100000
00010000
01000000
10000000
,
01000000
00000000
00010000
00100000
00000000
00001000
00000100
00000000
,
00000010
00001000
00000001
00000000
00001000
00000100
00000010
00000001
,
00000000
00000101
00000000
00001100
00000000
00001000
00010000
00000000
,
00100000
10000000
00010000
00000000
10000000
01000000
00010000
00001000
,
00000100
00000001
00000010
00000100
00000000
00000010
00001000
00000000
,
00010000
00001000
00011000
00000000
00100000
00010000
01000000
00100000
,
00010000
00001000
01000000
00010000
00001000
00000010
00010000
00001000
,
00000100
00000001
00001000
00000000
00000010
00001000
00000100
00000010
,
00001000
00010000
00000100
00001000
00010000
00100000
00001000
00010000
,
01000000
10000000
00010000
00000000
00001000
00000100
00001000
00000001
,
00001000
00000010
00001000
00010000
01000000
00010000
10000000
00010000
,
00100000
00010000
00001000
00000000
00010000
01000000
00010000
10000000
,
00010000
00100000
00010000
00001000
00000100
00001000
00000001
00001000
,
00000010
00010000
00000010
00010000
00001000
00000000
00000000
00000000
00021000
00000000
00000000
00000000
00000000
00000000
00000000
00000000
,
00230000
00000000
00000000
00000000
10000000
00000000
10000000
00000000
00000000
00000000
00010000
00000000
00300000
00000000
10000000
01000000
,
10000000
01100000
00012000
00000000
,
00003020
00000000
00000000
00000000
00000001
00000000
00000001
00000000
00000000
00000000
00001000
00000000
00000030
00000000
00000001
00000100
,
00000001
00000000
00001001
00000000
00001010
00001000
00020000
00000000
,
10030000
00000000
01000000
00000000
00010000
00000000
00001000
00000000
00000000
00000000
00000010
00000100
00000010
00000000
00001000
00000000
,
00010000
00000000
00001000
00000000
00000100
00000010
00000100
00000010
00002000
00000000
00000000
00000000
00023000
00000000
00000000
00000000
,
10030000
11000000
00000000
01010000
00000000
00100000
00001000
00010000
,
00100000
00000000
00000000
00000000
00010000
00000000
00000000
00000000
00001000
00000000
00000000
00000000
00000000
00000000
00000000
00000000
00010000
00000100
00010000
00000100
00001000
00000000
00000010
00010000
00000010
00010000
00001000
00000000
00011000
00000000
00000000
00000000
,
00010000
00000000
00100000
10000000
00100000
00000000
10000000
00010000
,
10000000
00000000
01000000
00010000
00001000
00000000
00100000
00000000
,
00001000
00000000
00000010
00000001
00000010
00000000
00000001
00001000
,
00000001
00000000
00000100
00001000
00010000
00000000
00000010
00000000
,
00010000
00001000
00000100
00001000
,
00011000
00000000
00000000
00010010
00000000
00000000
00000100
00000000
,
00001000
00010000
01000000
00010000
,
00001000
00010000
00000000
00011000
00000000
00000000
00100000
00000000
,
00010000
00000000
01000000
00000000
10000000
01000000
10000000
00000000
,
01000000
00010000
00000000
00001000
00000000
00000000
00000010
00000000
,
00001000
00000000
00000100
00000000
00000001
00000100
00000001
00000000
,
00000100
00001000
00000000
00010000
00000000
00000000
00100000
00000000
,
01000000
00000000
00010000
00000000
00001000
00100000
00000000
00000000
,
00110000
00000000
00000000
10010000
00000000
00000000
10000000
01000000
,
00100000
00010000
00100000
00000000
00000000
00000000
00001000
00010000
,
00000000
00000010
00000000
00000000
00001001
00000000
00000000
00000000
,
00000101
00000000
00000010
00000000
00001000
00000100
00000000
00000100
,
00000010
00000000
00000001
00000000
00000100
00000000
00001000
00010000
,
00001000
00000000
00100000
00000000
00010000
10000000
00000000
00100000
,
00000000
00000000
10100000
00000000
10000000
00000000
00010000
00100000
,
00010000
00000000
00000000
00000000
00101000
00000000
00000000
00011000
,
00000000
00010010
00000010
00001000
,
00001001
00000000
00000000
00000000
00000010
00001000
00000000
00001100
,
00000000
00000000
00010000
00000000
00001000
00000000
00000010
00000100
,
00000010
00000000
00001000
00010000
00000000
00010000
00001000
00000000
,
00100000
00000000
00001000
00000000
00010000
00000000
00100000
01000000
,
00100000
00000000
00010000
00001000
00000000
00011000
00000000
00000000
,
00100000
00000000
10000000
00000000
01000000
00000000
00010000
00001000
,
00000000
00000000
00011000
00000000
00000000
00011000
00000000
00000000
,
00000010
00000001
00000101
00000000
,
00000100
00001000
00000000
00010000
00000000
00000000
00011000
00000000
,
00000000
00000000
00100000
00001000
00100000
00000000
00001000
00010000
,
00000000
00000100
00001000
00000000
00000010
00000000
00000100
00000000
,
00000001
00000000
00000010
00000100
00000010
00000000
00000001
00000100
,
00000000
00000010
00001000
00000000
00010000
00000000
01000000
00000000
,
00010000
10000000
01000000
00000000
00000000
00000000
01010000
00000000
,
00000000
00011000
00000000
00000000
00000100
00000000
00001000
00000001
,
00000100
00000000
00000000
00000000
00001100
00000000
00000000
00011000
,
00000000
01010000
00000000
10100000
,
01000000
00000000
00010000
00100000
00000000
00001000
00010000
00000000
,
01000000
00000000
00010000
00001000
00010000
00000000
00000100
00000000
,
00000010
00000000
00000001
00000100
00000000
00001000
00000000
00000000
,
00010000
00000000
00100000
00000000
10000000
00010000
10000000
00000000
,
00000000
00000000
10100000
00000000
00000000
01010000
00000000
00000000
,
10010000
00000000
10000000
01000000
10000000
01000000
00100000
00010000
,
00100000
00000000
00001000
00010000
00000000
00010100
00000000
00000000
,
00011000
00000000
00000000
00000000
00100000
00010000
00010000
00001000
00010000
00010000
01000000
00000000
10000000
00000000
01000000
00000000
,
00100000
00000000
01000000
00000000
00010000
00000000
00001000
00000000
00100000
00000000
00010000
00000000
00001000
00000000
00000010
00000100
,
00000010
00001000
00000001
00000010
00001000
00000010
00000001
00000100
,
00000010
00000000
00000100
00000000
00001000
00000000
00010000
00000000
00000010
00000000
00001000
00000000
00010000
00000000
00100000
01000000
,
00100000
00000000
01010000
01100000
10010000
00000000
00100000
10000000
,
01000000
00010000
00001000
00100000
00010000
00001000
00000100
00000001
,
00000100
00000000
00001000
00000100
00000010
00000000
00000001
00000000
00001001
00000000
00000000
00000000
00000010
00000000
00000001
00000000
,
00000100
00001000
00010000
00000010
00001000
00010000
01000000
00100000
,
01100000
00000000
10000000
11000000
00110000
00000000
10000000
01000000
,
00010000
00000000
00001000
00000000
00000100
00000000
00000001
00000000
00001001
00000000
00000000
00000000
00000010
00000000
00000001
00000100
,
00000001
00000000
00000000
00000000
00000010
00000000
00001000
00010000
00001000
00000000
00000000
00000000
00100000
00000000
00010000
01000000
,
00010000
10000000
01000000
00010000
00011000
00000000
00000000
00000000
;

//---------------dance-double - RGTM-CDP----------------
#NOTEDATA:;
#CHARTNAME:RGTM-CDP;
#STEPSTYPE:dance-double;
#DESCRIPTION:RGTM-CDP;
#DIFFICULTY:Challenge;
#METER:17;
#CREDIT:RGTM;
#NOTES:
00000000
00000000
00000000
00000000
,
20100000
00000000
00000000
30010000
00000000
00100000
00000000
02000000
00000000
00000000
00000000
03100000
00001000
00020000
00000000
00000000
,
00032000
00000000
00000000
00013000
00000000
00000100
00000000
00000020
00000000
00000000
00000031
00000000
00000100
00000000
00000010
00000000
,
00001010
00000000
00000000
00000001
00000010
00000100
00010000
00011000
00000000
01001000
00000000
01000000
00010000
00100000
00000000
00000000
,
01100000
00000000
00000000
01000000
00000000
10000000
00000000
10010000
00000000
01100000
00000000
00010000
00100000
01000000
00010000
00001000
,
00010000
00100000
01000000
00010000
10000000
01000000
00100000
00101000
,
00000000
00010010
00000010
00001000
00000100
00000010
00000001
00000000
,
00001000
00000100
00000010
00001000
00010000
00100000
01000000
01001000
,
00000000
00000000
00010100
00000000
00000100
00000000
00000010
00000000
00000001
00000010
00000100
00001000
00000001
00000000
00000000
00000000
,
00000110
00001000
00000000
00000000
01100000
00010000
00001000
00000110
,
00000000
00000000
00011000
00000000
00010000
00000000
00001000
00100000
01000000
00000000
10000000
00010000
01000000
00000000
00000000
00000000
,
01100000
00100000
10000000
01000000
00010000
00000000
00011000
00001000
,
00000100
00000100
00000001
00000000
00000010
00000110
00001001
00000000
,
00001000
00000010
00000100
00000001
00001000
00000000
00001000
00000000
00100000
00000000
01000000
00000000
01100000
00000000
00000000
00000000
10010000
00000000
00000000
00000000
00000000
00000000
00000000
00000000
00010000
00000000
00000000
00000000
01000000
00000000
00000000
00000000
,
00100000
10000000
01000000
00010000
,
00001000
00011000
MMMMMMMM
00010100
,
MMMMMMMM
00000001
00000010
00000100
,
00020000
00000000
00000000
00000000
00031000
00000000
00010000
00001000
,
00010000
01000000
MMMMMMMM
00010000
,
00100000
00000000
20010000
00000000
00000000
00000000
30010000
00100000
,
00001000
00000000
00010000
00000010
00000100
00000000
00000001
00000000
,
MMMMMMMM
00000000
00000000
00000000
00001001
00000000
00001000
00000010
,
00000100
00000001
00000010
00001000
,
00010000
00011000
MMMMMMMM
00101000
,
MMMMMMMM
10000000
00010000
00100000
,
01000000
00000000
01100000
01100000
,
MMMMMMMM
00101000
MMMMMMMM
00010010
,
MMMMMMMM
00000000
00000001
00000010
00000100
00001000
00000100
00001000
,
00000001
00000000
00000100
00000010
00000000
00000000
00010010
00000000
,
00011000
00000000
00000000
00000000
00001000
00100000
00010000
0000MMMM
,
00010000
00001000
00100000
01000000
0000MMMM
01000000
00010000
10000000
,
01000000
00100000
00001000
00010000
00000100
00000010
00000001
00000100
,
00001000
MMMM0000
00001000
00000010
MMMM0000
00000010
00000001
00000100
,
00000110
00000000
00011000
00000000
00010000
00000010
00001000
00000100
,
00000010
MMMM0000
00000010
00001000
MMMM0000
00001000
00010000
00000100
,
00000010
00000001
00000100
00002000
00013000
01000000
10000000
00100000
,
00010000
0000MMMM
00010000
01000000
0000MMMM
01000000
10000000
00010000
,
00100000
00000000
01000000
00010000
00001000
00000000
00000000
00000000
00010000
00000000
00000100
00000000
00000010
00000000
00001000
00000000
,
00000001
00000100
00010000
00001000
00001000
01000000
00100000
00010000
,
10000000
01000000
00001000
00001000
00010000
00000010
00000100
00000001
,
00000010
00001000
00010000
00011000
MMMMMMMM
00001000
00100000
10000000
,
00100000
00001000
00011000
00000000
00010000
00000010
00000100
00001000
,
00000001
00000010
00010000
00001000
00001000
00100000
01000000
00010000
,
10000000
00100000
00001000
00001000
00010000
00000100
00000010
00000001
,
00000100
00000000
00001000
00000000
00010000
00000000
00011000
00000000
00001000
00100000
00000000
00100000
00010000
00000000
10000000
00000000
,
00100000
01000000
00100000
00000000
MMMMMMMM
00000000
00000000
00000000
20010000
00000000
00000000
00000000
00010000
00000000
00010000
00000000
,
00100000
00000000
00010000
32000000
00000000
10000000
00000000
00010000
,
00200000
00000000
00000000
00000000
03300000
00000000
00000000
00000000
00102000
00000000
00000000
00000000
00020000
00000000
00000000
00030000
,
01000000
00000000
00013000
00020000
00000000
00100000
00000000
00001000
,
00001000
00030100
00002100
00000002
,
00000003
00000100
00000000
00003020
00000200
00000000
00000300
00000100
,
00001030
00000000
00001002
00000000
00000023
00000100
00000100
00000001
,
00000030
00000011
00000000
00002001
00000001
00000010
00003020
00020000
,
00030000
00000000
00000000
00000000
00010000
00000000
00000000
00000000
00001030
00000000
00000000
00000000
00000000
00000000
00000000
00000000
00001000
00000010
00000100
00000010
00001000
00000000
00001000
00100000
00010000
00100000
00001000
00000000
00011000
00000000
00000000
00000000
,
00010000
00000000
00001000
00000000
00100000
00020000
01000000
00000000
,
10030000
00000000
00010000
00100000
00000000
00010000
01000000
00000000
,
00001000
00000000
00010000
00000000
00000010
00002000
00000100
00000000
,
00003001
00001000
00000000
00000010
00000000
00001000
00000100
00000000
,
00010000
00000000
00001000
00000000
00100000
00020000
01000000
00000000
,
10030000
00000000
00010000
00100000
00000000
00100000
01000000
00000000
,
00010000
00000000
00001000
00000000
00000010
00000002
00000100
00000000
,
00001003
00000001
00000000
00000100
00000000
00000100
00000010
00000000
,
00010000
00000000
00001000
00000000
00100000
02000000
10000000
00000000
,
03010000
00000000
01000000
00100000
00000000
01000000
10000000
00000000
,
00100000
00000000
01000000
00000000
00001000
00020000
00000100
00000000
,
00031000
00010000
00000000
00000010
00000000
00001000
00000100
00000000
,
00001000
00000000
00000001
00000000
00000010
00000100
00001000
00000000
,
00001010
00000000
00000000
00011000
MMMMMMMM
00000000
00001000
00000000
,
00010000
00001000
00100000
00000000
00010000
00000000
01000000
00100000
,
00000000
10100000
00000000
00000000
10010000
00000000
MMMMMMMM
00000000
,
10000000
00100000
01000000
00000000
00100000
00000000
00100000
10000000
,
00000000
10000000
01000000
00000000
00100000
00000000
01000000
00000000
,
00100000
00001000
00100000
00000000
00001000
00010000
00000000
00010000
,
00000000
00000100
00000010
00000000
00000100
00000000
00001000
00000000
,
00000001
00001000
00000001
00000000
00000101
00000000
00000000
00001010
,
00000000
00000001
00000010
00000100
,
00010000
00000100
00010000
00000000
00001000
00010000
00000000
00011000
,
MMMMMMMM
00000000
00001000
00000000
01000000
00000000
00100000
10000000
,
00010000
00000000
00100000
00000000
00010000
10000000
00000000
10000000
,
00100000
00000000
01000000
00000000
00010000
00000000
00100000
00001000
,
00010000
00000000
00001000
00010000
00000000
00010010
00000000
00000000
,
00000010
00000000
00000100
00000000
00000001
00000000
00000010
00000100
,
00001000
00000000
00001001
00000000
00000000
00010010
MMMMMMMM
00000000
,
00011000
00001000
00200000
00010000
,
01300000
10000000
00000000
10010000
00000000
00000000
01100000
00000000
,
MMMMMMMM
10010000
10000000
01000000
,
00100000
00001000
00000000
00010000
00001000
00000000
00000100
00000000
,
00000010
00000000
00001000
00000001
00000010
00000000
00000100
00010000
,
00000000
00001000
00000000
01000000
00100000
00000000
10000000
00000000
,
00010000
00000000
00100000
00001000
00010000
00000000
00011000
00000000
,
00000000
00001010
MMMMMMMM
00000000
00001001
00000000
00000001
00000000
,
00000010
00000100
00010000
00000000
00011000
00000000
00000000
01001000
,
00000000
00000000
01100000
00000000
MMMMMMMM
00000000
10000000
00010000
,
10000000
00000000
01000000
00000000
00100000
00001000
00000000
00010000
,
00000100
00000000
00000010
00000000
00000001
00000000
00001000
00000010
,
00000100
00000000
00001000
00010000
00000000
00100000
00000000
01000000
,
00010000
00000000
10000000
00000000
01000000
00000000
00100000
00001000
,
00010000
00000000
00011000
00000000
00000000
00101000
00000000
00000000
,
00100000
00000000
00001000
00010000
00001000
00010000
00000010
00000000
,
00000100
00000000
00000001
00000010
00000000
00001100
00000000
00000000
,
00011000
00000000
00000000
00000000
00000000
00000000
00000000
00000000
00001000
00010000
00001000
00100000
01000000
00000000
01000000
00000000
00010000
00000000
10000000
00000000
01100000
00000000
00000000
00000000
10000000
00000000
00000000
00000000
01000000
00000000
00000000
00000000
,
00010000
00001000
00100000
00010000
MMMMMMMM
10010000
00000000
10000000
,
00100000
00010000
00001000
00000010
00000100
00001000
00000001
00000100
,
00001000
00010000
00000010
MMMMMMMM
00000110
00001001
00000000
00000001
,
00000010
00001000
00010000
00010000
00100000
00100000
10000000
00010000
,
MMMMMMMM
00000000
00100000
10000000
01000000
01100000
00000000
00101000
,
00001000
00010000
00000010
00000100
00001000
00000100
00000001
00000010
,
00001000
00010000
00011000
00000000
00010000
00001000
01001000
01010000
,
10010000
10000000
01000000
00100000
00010000
00000000
10100000
00110000
,
10010000
10000000
00100000
01000000
00001000
00000000
00011000
00010010
,
00000110
MMMMMMMM
00000110
00010010
00011000
MMMMMMMM
00011000
00101000
,
01100000
MMMMMMMM
01100000
00110000
10010000
00000000
00000000
00000000
;
