#TITLE:Pharaoh;
#ARTIST:劇団レコード;
#ARTISTTRANSLIT:Gekidan Record;
#BANNER:Pharaoh.png;
#BACKGROUND:Pharaoh-bg.png;
#MUSIC:Pharaoh.ogg;
#OFFSET:0.306;
#SAMPLESTART:63.694;
#SAMPLELENGTH:15;
#BPMS:0=180,56=90,72=180,108=90,124=180,154=90,157=180,217=90,219=180;

//---------------dance-single - NewbStepper-ESP----------------
#NOTES:
     dance-single:
     NewbStepper:
     Hard:
     16:
     0.830382,1.034215,0.402195,0.287282,0.895362,607,565,42,30,0,0,0.830382,1.034215,0.402195,0.287282,0.895362,607,565,42,30,0,0:
// measure 0
0000
0000
0000
0000
,  // measure 1
0000
0000
0000
0000
,  // measure 2
0000
0000
0000
0000
,  // measure 3
0000
0000
0000
0000
,  // measure 4
0000
0000
0000
0000
,  // measure 5
0000
0000
0000
0000
0001
0010
0001
0000
1000
0000
0100
0000
0010
0000
0001
0000
,  // measure 6
1000
0010
1000
0010
0200
0000
0000
0000
0000
0000
0000
0000
0301
0000
0010
0000
,  // measure 7
0100
0100
1000
0010
0100
0100
0001
0010
,  // measure 8
0001
0010
0001
1000
0001
0010
0100
1000
0001
0100
0010
1000
0001
0010
0100
1000
,  // measure 9
0200
0000
0300
0000
,  // measure 10
1001
0000
0010
1000
0001
0000
0010
0000
0100
1000
0100
1000
0100
0000
0010
0000
,  // measure 11
0001
0000
0010
0000
1000
0000
0010
0000
0001
0100
0010
1000
0001
0000
1000
0000
,  // measure 12
0001
0000
0010
0001
1000
0000
0010
0000
0100
0001
0100
0001
0100
0000
0010
0000
,  // measure 13
1000
0000
1010
0000
0101
0000
0000
0000
0011
0000
0000
0011
0000
0000
1000
0000
,  // measure 14
0002
0000
0000
0000
0000
0000
1000
0000
0103
0000
0000
0010
0000
0000
1000
0000
0200
0000
0000
0320
0000
0030
0001
0100
0001
0000
0000
0000
0010
0000
0100
0000
,  // measure 15
2001
0000
0000
0000
0000
0000
0001
0000
3100
0000
0000
0010
0000
0000
0001
0000
0100
0000
0000
0010
0000
0000
1000
0100
1000
0000
0000
0000
0010
0000
0100
0000
,  // measure 16
1001
0000
0000
1000
0000
0000
0001
0010
0100
0000
0000
1000
0000
0000
0010
0100
0010
0000
0000
1000
0000
0000
0001
0100
0001
0000
0000
0000
0010
0000
0100
0000
,  // measure 17
1000
0000
0100
0000
0001
0000
1000
0000
0010
0000
0001
0000
0100
0000
0010
0000
0200
0000
0000
0000
0300
0000
0001
1000
0001
0000
0000
0000
0000
0000
0000
0000
,  // measure 18
0001
0000
0000
0001
0010
0000
0000
0010
1000
0000
0000
1000
0010
0000
0000
0010
,  // measure 19
0100
0000
0000
0100
1000
0000
0001
0010
0001
0000
1000
0010
1000
0000
0001
0000
,  // measure 20
1000
0000
0000
1000
0100
0000
0000
0100
0001
0000
0000
0001
0100
0000
0000
0100
,  // measure 21
0010
0000
0000
0001
0000
0000
0100
0010
0100
0000
0001
0000
0010
0000
0100
0000
,  // measure 22
1000
0000
0000
1000
0010
0000
0000
0010
0001
0000
0000
0001
0010
0000
0000
0010
,  // measure 23
0100
0000
0000
0100
0001
0000
1000
0010
1000
0000
0001
0010
0001
0000
1000
0000
,  // measure 24
0001
0000
0000
0001
0100
0000
0000
0100
1000
0000
0000
1000
0100
0000
0000
0100
,  // measure 25
0010
0000
0000
1000
0000
0000
0100
0010
0100
0000
1000
0000
0010
0000
0100
0000
,  // measure 26
0001
0000
0000
0000
0010
0001
0000
0000
0001
0100
0000
0000
0100
0010
0000
0000
,  // measure 27
2010
0000
0000
0000
3000
0000
0001
0100
0002
0000
0000
0000
0013
0000
0000
0000
0011
0000
0200
0000
0000
0000
0000
0000
1300
0000
0000
0000
0010
0000
0000
0000
,  // measure 28
0001
0000
0000
0010
0000
0000
0100
0001
2000
0000
0000
0000
3010
0000
0000
0000
1010
0000
0200
0000
0000
0000
0000
0000
0301
0000
0000
0000
0010
0000
0000
0000
,  // measure 29
0012
0000
0000
0000
0003
0000
1000
0100
2000
0000
0000
0000
3010
0000
0000
0000
1010
0000
0200
0000
0000
0000
0000
0000
0301
0000
0000
0000
0010
0000
0000
0000
,  // measure 30
0011
0000
0220
0000
0330
0000
1100
0000
0010
0010
1001
0000
0101
0000
1010
0000
,  // measure 31
0100
0000
0001
0100
0010
0000
0100
0001
1000
0001
1000
0100
0010
0000
0001
0100
,  // measure 32
0010
0000
1000
0001
1000
0000
0010
0000
0001
0000
0010
0000
1000
0000
0100
0000
,  // measure 33
1100
0000
1100
0000
0011
0000
0000
0000
0001
0100
0001
0100
0001
0000
1000
0100
,  // measure 34
0010
0000
0100
0010
0001
0000
1000
0000
0001
0100
0010
0100
0010
1000
0100
0010
,  // measure 35
0001
0000
0010
0000
1000
0000
0010
0001
0100
0000
0010
1000
0100
0010
0001
0100
,  // measure 36
0010
0000
0110
0000
1001
0000
0000
0000
1100
0000
0000
0110
0000
0000
0011
0000
,  // measure 37
2002
3003
0000
0220
0330
0000
2020
0000
,  // measure 38
0000
3030
0210
0302
,  // measure 39
2003
0000
0000
0000
3001
0000
0010
0001
0010
0000
0100
0000
1000
0010
0100
0010
,  // measure 40
1000
0000
0100
0000
0110
0000
0000
0011
0000
0000
1001
0000
1010
0000
0000
0000
,  // measure 41
0110
0000
1000
0001
1000
0000
0010
1000
0010
0000
0100
0000
0001
1000
0010
1000
,  // measure 42
0001
0000
0100
0000
1000
0000
0100
0001
0100
0000
0010
1000
0001
1000
0010
1000
,  // measure 43
0001
0010
0100
1000
0001
0000
0100
0000
0110
0000
0000
0000
1000
0000
0100
0000
,  // measure 44
0010
0000
0001
0000
0100
0000
0010
1000
0010
0000
0100
0001
0100
0000
0010
0000
,  // measure 45
1000
0100
0010
0001
0100
0000
1000
0000
0100
0000
0001
0000
1000
0010
0100
0001
,  // measure 46
1000
0000
0100
0000
0010
0001
0010
0001
1000
0010
1000
0010
0100
0001
0100
0001
,  // measure 47
0010
0100
0010
0100
1000
0000
0010
1000
0010
0000
0100
0000
0001
0010
0100
0010
,  // measure 48
0001
0000
0100
0000
0110
0000
0000
1010
0000
0000
1001
0000
0011
0000
0000
0000
,  // measure 49
0110
0000
0001
1000
0001
0000
0010
0001
0010
0000
0100
0000
1000
0001
0010
0001
,  // measure 50
1000
0000
0100
0000
0001
0000
0100
1000
0100
0000
0010
0001
1000
0001
0010
0001
,  // measure 51
1000
0010
0100
0001
1000
0000
0100
0000
0110
0000
0000
0000
0001
0000
0100
0000
,  // measure 52
0010
0000
1000
0000
0100
0000
0010
0001
0010
0000
0100
1000
0100
0000
0010
0000
,  // measure 53
0001
0100
0010
1000
0001
0010
0100
1000
0001
1000
0010
1000
0001
0100
0010
1000
,  // measure 54
0100
0010
0001
1000
0002
0000
0000
0000
0003
0000
0000
0000
1000
0000
0010
1000
,  // measure 55
0010
0000
0100
0000
0001
0010
0001
0010
0001
0000
1000
0000
0010
1000
0001
1000
,  // measure 56
0010
0100
0001
1000
0001
0000
0010
0000
0100
0000
1000
0000
0001
0000
0010
0000
,  // measure 57
1000
0000
0001
0000
0100
0000
1000
0000
0010
0000
0100
0000
0001
0100
0000
0001
,  // measure 58
1000
0000
1000
0100
0000
1000
0001
0000
0010
0100
0010
0000
0001
0000
0010
0001
,  // measure 59
0010
0000
0100
0000
1000
0010
1000
0010
1000
0000
0001
0000
0010
0001
1000
0001
,  // measure 60
0010
0100
1000
0001
1000
0000
0010
0000
0100
0000
0001
0000
1000
0000
0010
0000
,  // measure 61
0001
1000
0100
0001
0010
0100
2000
0001
,  // measure 62
0001
0000
3001
0000
0010
0001
0100
0010
1000
0100
0010
0001
0200
0000
0000
0000
,  // measure 63
0000
0000
0000
0000
1300
0000
0000
0000
0000
0000
0100
0001
0020
0000
0000
0000
,  // measure 64
0000
0000
0000
0000
,  // measure 65
0000
0000
0000
0000
,  // measure 66
0000
0000
0000
0000
,  // measure 67
0000
0000
0030
0000
;

//---------------dance-single - NewbStepper-DSP----------------
#NOTES:
     dance-single:
     NewbStepper:
     Medium:
     11:
     0.485643,0.646385,0.181945,0.248978,0.172369,355,336,19,26,0,0,0.485643,0.646385,0.181945,0.248978,0.172369,355,336,19,26,0,0:
0000
0000
0000
0000
,
0000
0000
0000
0000
,
0000
0000
0000
0000
,
0000
0000
0000
0000
,
0000
0000
0000
0000
,
0000
0000
1001
0000
0010
0001
0100
0000
,
0010
1000
0200
0000
0000
0000
0310
0000
,
0001
0100
1000
0010
,
0001
1000
0100
0010
0001
0100
0010
1000
,
0200
0000
0000
0300
,
1000
0000
0010
0000
1000
0100
1000
0000
,
0001
0100
0010
0100
0001
0100
0010
0100
,
1000
0000
0100
0000
0001
0010
0001
0000
,
1000
0000
0010
0000
0100
0000
0000
0000
0001
0000
0000
0001
0000
0000
0000
0000
,
2000
0000
3000
0001
0100
0000
0010
0000
1010
0000
0000
0000
0100
0000
0001
1000
,
0002
0000
0003
1000
0100
0000
0010
0000
0011
0000
0000
0000
0100
0000
1000
0001
,
2000
0000
0000
0000
3000
0000
0100
0000
1000
0000
0000
0000
0010
0000
0000
0000
0100
0000
0000
0100
0000
0000
0100
0000
0001
0000
0000
0000
0001
0000
1000
0000
,
0002
0000
0003
0100
0001
0000
0010
0000
0200
0000
0000
0000
0300
0000
0000
0000
,
1000
0000
0000
1000
0000
0000
0010
0000
0100
0000
0000
0100
0000
0000
0001
0000
,
0010
1000
0010
0001
0100
0000
1001
0000
,
0001
0000
0000
0001
0000
0000
0010
0000
0100
0000
0000
0100
0000
0000
1000
0000
,
0010
0000
0000
0100
0000
0000
0001
1000
0001
0000
0000
0000
0100
0000
0000
0000
,
0010
0000
0000
0010
0000
0000
1000
0000
0100
0000
0000
0100
0000
0000
0010
0000
,
0001
0000
0000
0100
0000
0000
0010
0000
2000
0000
0000
0000
3000
0000
0001
0100
,
0001
0000
0000
0001
0000
0000
0100
0000
1000
0000
0000
1000
0000
0000
0100
0000
,
0001
1000
0100
0010
0001
0100
0010
0000
,
1001
1000
0100
0010
,
0002
0100
0010
0013
0110
0000
1001
0000
,
2000
0100
0010
3010
0110
0000
1001
0000
,
0010
0001
0100
1000
0100
0000
0110
0000
,
0010
1000
0100
0001
0100
0000
0110
0000
,
0001
0100
0010
0000
1000
0100
0010
0000
,
0001
0100
0010
0100
0001
0100
0010
0000
,
1000
0100
0010
0000
0001
0100
0010
0000
,
1000
0100
0010
0100
1000
0100
0010
0000
,
0001
0100
1000
0000
1000
0100
0001
0000
,
1001
0000
0000
0000
0000
0000
0000
0000
0010
0000
0000
1000
0000
0000
0001
0000
,
0011
0000
0000
1100
0000
0000
2002
0000
,
0000
3003
0002
0203
,
0320
0000
0000
0000
1030
0000
0000
0100
0000
0000
0010
0000
0001
0000
0100
0000
,
1000
0000
0100
0000
0001
0000
0000
0010
0000
0000
0001
0000
2000
0000
0000
0000
,
3000
0000
0001
0000
0100
0000
0000
0010
0000
0000
1000
0000
0100
0000
0000
0010
,
0000
0001
0200
0000
0000
0010
0310
0000
,
1001
0000
0010
0000
0101
0000
0010
1000
,
0100
0000
0010
0000
0001
0000
0000
0100
0000
0000
0010
0000
1000
0000
0010
0000
,
0000
0100
0001
0000
0010
0000
1000
0000
,
0100
0002
0000
2003
,
0000
0000
0000
0000
3001
0000
0000
0100
0000
0000
0010
0000
1000
0000
0100
0000
,
0001
0000
0100
0000
1000
0000
0000
0010
0000
0000
1000
0000
0002
0000
0000
0000
,
0003
0000
1000
0000
0100
0000
0000
0010
0000
0000
0001
0000
0100
0000
0000
0010
,
0000
1000
0200
0000
0000
0010
0310
0000
,
1001
0000
0010
0000
1100
0000
0010
0001
,
0100
0000
0010
0000
1000
0000
0000
0100
0000
0000
0010
0000
0001
0000
0010
0000
,
0000
0100
1000
0001
0100
0010
1000
0001
,
0010
0100
2000
0000
3000
0000
0001
0000
,
0010
0001
0100
0010
1000
0100
0010
0001
,
0200
0000
0000
0300
0010
1000
0100
0100
,
0010
0000
0001
0000
1000
0000
0001
0000
0100
0000
0010
0000
1000
0000
0000
0100
,
0000
0000
0010
0000
0000
0001
0000
0000
0010
0000
0100
0000
1000
0000
0000
0000
,
0010
1000
0100
0010
0001
0100
0010
1000
,
0200
0000
0000
0300
0010
0001
0100
0100
,
0010
1000
0001
1000
0100
0010
0001
0001
,
0100
0100
0010
0010
1000
1000
0002
0000
,
0000
0000
0000
0000
1003
0000
0000
0000
0000
0000
0100
0010
0200
0000
0000
0000
,
0000
0000
0000
0000
,
0000
0000
0000
0000
,
0000
0000
0000
0000
,
0000
0000
0300
0000
;

//---------------dance-single - NewbStepper-BSP----------------
#NOTES:
     dance-single:
     NewbStepper:
     Easy:
     7:
     0.287282,0.387831,0.229826,0.172369,0,210,186,24,18,0,0,0.287282,0.387831,0.229826,0.172369,0,210,186,24,18,0,0:
0000
0000
0000
0000
,
0000
0000
0000
0000
,
0000
0000
0000
0000
,
0000
0000
0000
0000
,
0000
0000
0000
0000
,
0000
1000
0100
1000
,
0001
0200
0000
0300
,
0001
0100
0001
1000
,
0100
0100
0010
0010
,
0110
0000
0000
0000
,
2000
0001
3200
0010
,
0001
1300
0001
0020
,
1000
0130
1000
0010
,
0001
0020
0000
0030
,
1000
0000
0000
0001
0001
0000
0000
0010
,
0100
0000
0000
1000
1000
0000
0000
0010
,
0100
0000
0000
0001
0001
0000
0000
0010
,
0100
0000
0000
2000
0000
0000
3000
0000
,
0001
0010
0011
0000
,
1000
0010
1010
0000
,
0001
0100
0101
0000
,
1000
0100
1100
0000
,
0010
0001
0010
0010
,
1000
0010
0010
0001
,
0100
1000
0100
0100
,
0001
0100
0100
0010
,
1000
0001
0001
0001
,
0020
0000
0031
0000
,
0200
0000
1300
0000
,
0020
0000
0031
0000
,
0200
0000
1300
0000
,
0010
0010
0010
0000
,
0001
0001
0001
0000
,
0100
0100
0100
0000
,
1000
1000
1000
0000
,
0010
0010
0100
0100
,
0110
0000
1001
0000
,
0010
0000
0000
0010
0000
0000
0110
0000
,
0000
0000
2000
3200
,
0320
0031
0100
1000
,
0100
0001
0010
0011
,
0000
1000
0100
0001
,
0100
1000
0010
1010
,
0000
0101
0000
0110
,
0000
1010
0101
1001
,
0000
0001
0100
1000
,
0100
0001
0000
0110
,
0000
1000
0100
0001
,
0100
1000
0010
1010
,
0000
0001
0100
1000
,
0100
0001
0010
0011
,
0000
1100
0000
0110
,
0000
0011
1100
1001
,
0000
1000
0100
0001
,
0100
2000
3000
0001
,
0100
0001
0010
0100
,
1000
0010
1000
0100
,
0010
0001
0100
0020
,
0000
0030
0000
1000
,
0100
1000
0010
0100
,
0001
0010
0001
0100
,
0010
1000
0100
0001
,
0100
1000
0010
0200
,
0000
0300
0000
2002
,
0000
0000
0000
0000
,
0000
0000
0000
0000
,
0000
0000
0000
0000
,
0000
0000
3003
0000
;

//---------------dance-single - NewbStepper-bSP----------------
#NOTES:
     dance-single:
     NewbStepper:
     Beginner:
     4:
     0.175105,0.258554,0.057456,0.057456,0,128,122,6,6,0,0,0.175105,0.258554,0.057456,0.057456,0,128,122,6,6,0,0:
0000
0000
0000
0000
,
0000
0000
0000
0000
,
0000
0000
0000
0000
,
0000
0000
0000
0000
,
0000
0000
0000
0000
,
0000
0001
0000
1000
,
0000
0001
0001
0000
,
1000
0000
0001
0000
,
0000
0100
0100
0100
,
0100
0000
0000
0000
,
0001
0000
1000
0000
,
0010
0000
0100
0000
,
0002
0000
0003
0000
,
1000
0000
1000
0000
,
0001
0000
0100
0000
,
0010
0000
1000
0000
,
0001
0000
0010
0000
,
0100
0000
1000
0000
,
0001
0001
0001
0000
,
1000
1000
1000
0000
,
0010
0010
0010
0000
,
0100
0100
0100
0000
,
0000
0001
0001
0000
,
0000
1000
1000
0000
,
0000
0010
0010
0000
,
0000
0100
0100
0100
,
0100
0000
0000
0000
,
1001
0000
0010
0000
,
1001
0000
0100
0000
,
1001
0000
0010
0000
,
1001
0000
0100
0000
,
1000
1000
1000
0000
,
0001
0001
0001
0000
,
0100
0100
0100
0000
,
0010
0010
0010
0000
,
1000
0000
0100
0000
,
0010
0000
0001
0000
,
2002
0000
0000
3003
,
0000
0000
0000
0000
,
0000
0001
0000
1000
,
0000
0010
0010
0010
,
0000
1000
0000
0001
,
0000
0010
0010
0010
,
0000
0001
0000
0001
,
0000
1000
1000
1000
,
0000
0100
0000
0100
,
0000
0010
0000
0100
,
0000
1000
0000
0001
,
0000
0010
0010
0010
,
0000
0001
0000
1000
,
0000
0010
0010
0010
,
0000
1000
0000
1000
,
0000
0001
0001
0001
,
0000
0100
0000
0100
,
0000
0010
0000
1000
,
0000
0001
0000
1000
,
0000
0000
0000
0010
,
0000
0100
0000
0010
,
0000
0000
0000
0001
,
0000
1000
0000
0001
,
0000
0000
0000
0100
,
0000
0010
0000
0200
,
0000
0000
0000
0300
,
0000
0000
0000
2002
,
0000
0000
0000
0000
,
0000
0000
0000
0000
,
0000
0000
0000
0000
,
0000
0000
3003
0000
;

//---------------dance-double - NewbStepper-EDP----------------
#NOTES:
     dance-double:
     NewbStepper:
     Hard:
     16:
     0.804390,0.969577,0.392619,0.258554,0.813966,588,547,41,27,0,0,0.804390,0.969577,0.392619,0.258554,0.813966,588,547,41,27,0,0:
00000000
00000000
00000000
00000000
,
00000000
00000000
00000000
00000000
,
00000000
00000000
00000000
00000000
,
00000000
00000000
00000000
00000000
,
00000000
00000000
00000000
00000000
,
00000000
00000000
00000000
00000000
00010000
00001000
00010000
00000000
00000100
00000000
00000010
00000000
00001000
00000000
00010000
00000000
,
00001000
00100000
00001000
00100000
00020000
00000000
00000000
00000000
00000000
00000000
00000000
00000000
10030000
00000000
00100000
00000000
,
00010000
00010000
00001000
00100000
00010000
00010000
01000000
00001000
,
00010000
00000010
00010000
00001000
00010000
00000010
00001000
00000010
00000100
00000001
00001000
00000100
00000010
00000001
00001000
00000010
,
00020000
00000000
00000000
00030000
,
00011000
00000000
00001000
00100000
00010000
00000000
10000000
00000000
00100000
10000000
00100000
10000000
00100000
00000000
01000000
00000000
,
00010000
00000000
00100000
00000000
01000000
00000000
00100000
00000000
00001000
00010000
00001000
00000000
00000010
00000000
00001000
00000000
,
00010000
00001000
00000100
00000001
00000010
00000100
00000001
00000100
,
00001000
00000000
00001010
00000000
00010010
00000000
00000000
00000000
00011000
00000000
00000000
00011000
00000000
00000000
00100000
00000000
,
00102000
00000000
00000000
00000000
00000000
00000000
00013000
00000000
00100000
00000000
00000000
10000000
00000000
00000000
00010000
00000000
00100000
00000000
00000000
01000000
00000000
00000000
00010000
00001000
00010000
00000000
00000000
00000000
00000010
00000000
00000010
00000000
,
00020010
00000000
00000000
00000000
00000000
00000000
00031000
00000000
00000010
00000000
00000000
00000001
00000000
00000000
00001000
00000000
00000010
00000000
00000000
00000100
00000000
00000000
00001000
00010000
00001000
00000000
00000000
00000000
01000000
00000000
01000000
00000000
,
01001000
00000000
00000000
00001000
00000000
00000000
00010000
00001000
00000010
00000000
00000000
00000001
00000000
00000000
00001000
00000010
00001000
00000000
00000000
00000100
00000000
00000000
00000010
00000001
00000010
00000000
00000000
00000000
00001000
00000000
00010000
00000000
,
00100000
00000000
00000000
01000000
00000000
00000000
00010000
00000000
00100000
00000000
00000000
01000000
00000000
00000000
10000000
00000000
00200000
00000000
00000000
00000000
00300000
00000000
10000000
00010000
10000000
00000000
00000000
00000000
00000000
00000000
00000000
00000000
,
10000000
00000000
00000000
10000000
00100000
00000000
00000000
00100000
00010000
00000000
00000000
00010000
00001000
00000000
00000000
00001000
,
01000000
00000000
00000000
01000000
00010000
00000000
00100000
00001000
00100000
00000000
00001000
00010000
00001000
00000000
00000010
00000000
,
00000001
00000000
00000000
00000001
00000010
00000000
00000000
00000010
00001000
00000000
00000000
00001000
00010000
00000000
00000000
00010000
,
00000100
00000000
00000000
00000100
00001000
00000000
00000010
00010000
00000010
00000000
00010000
00001000
00010000
00000000
00100000
00000000
,
10000000
00000000
00000000
10000000
00100000
00000000
00000000
00100000
00010000
00000000
00000000
00010000
00001000
00000000
00000000
00001000
,
00100000
00000000
00000000
00100000
00010000
00000000
01000000
00001000
01000000
00000000
00001000
00010000
00001000
00000000
00000100
00000000
,
00000001
00000000
00000000
00000001
00000010
00000000
00000000
00000010
00001000
00000000
00000000
00001000
00010000
00000000
00000000
00010000
,
00000100
00000000
00000000
00000010
00000000
00000000
00000001
00000100
00000001
00000000
00000100
00000000
00001000
00000000
00010000
00000000
,
00100000
10100000
01010000
10010000
,
21000000
00000000
00000000
00000000
30000000
00000000
00010000
00100000
00020000
00000000
00000000
00000000
01030000
00000000
00000000
00000000
01010000
00000000
00002000
00000000
00000000
00000000
00000000
00000000
00003010
00000000
00000000
00000000
00000001
00000000
00000000
00000000
,
00001000
00000000
00000000
00000001
00000000
00000000
00001000
00000010
00002000
00000000
00000000
00000000
00003100
00000000
00000000
00000000
00001100
00000000
00020000
00000000
00000000
00000000
00000000
00000000
00130000
00000000
00000000
00000000
10000000
00000000
00000000
00000000
,
00010000
00000000
00000000
10000000
00000000
00000000
00010000
01000000
00020000
00000000
00000000
00000000
00130000
00000000
00000000
00000000
00110000
00000000
00002000
00000000
00000000
00000000
00000000
00000000
00003010
00000000
00000000
00000000
00000001
00000000
00000000
00000000
,
00000101
00000000
00000220
00000000
00000330
00000000
00001010
00000000
00001000
00000100
00010000
00000000
00010100
00000000
01001000
00000000
,
00010000
00000000
00000100
00001000
00000100
00000000
00010000
00001000
00100000
00001000
00100000
00010000
10000000
00000000
01000000
00100000
,
00010000
00000000
10000000
00010000
10000000
00000000
00100000
00000000
00010000
00000000
00001000
00000000
00000010
00000000
00000001
00000000
,
00000101
00000000
00000101
00000000
00001010
00000000
00000000
00000000
00001000
00000100
00001000
00000100
00001000
00000000
00000001
00000100
,
00000010
00000000
00001000
00000010
00010000
00000000
00000010
00000000
00010000
00001000
00010000
00001000
00100000
00010000
01000000
00100000
,
10000000
00000000
00010000
00000000
00100000
00000000
00010000
10000000
01000000
00000000
00100000
00001000
00100000
00010000
00100000
00001000
,
00010000
00000000
00011000
00000000
00011000
00000000
00000000
00000000
00001000
00000000
00000000
00000010
00000000
00000000
00000001
00000000
,
00000202
00000303
00000000
00002020
00003030
00000000
00002002
00000000
,
00000000
00003003
00001200
00020300
,
00032000
00000000
00000000
00000000
00103000
00000000
00010000
01000000
00010000
00000000
10000000
00000000
01000000
00100000
00010000
00100000
,
01000000
00000000
00010000
00000000
00011000
00000000
00000000
00001010
00000000
00000000
00000011
00000000
00001001
00000000
00000000
00000000
,
00000110
00000000
00000001
00000100
00000001
00000000
00001000
00000100
00001000
00000000
00000001
00000000
00000100
00000010
00001000
00000010
,
00000100
00000000
00001000
00000000
00010000
00000000
01000000
10000000
01000000
00000000
00100000
00010000
00100000
00001000
00100000
00001000
,
00010000
00001000
00010000
00000010
00001000
00000000
00000100
00000000
00000110
00000000
00000000
00000000
00001000
00000000
00000100
00000000
,
00000010
00000000
00000001
00000000
00000100
00000000
00001000
00010000
00001000
00000000
00100000
01000000
00100000
00000000
00001000
00000000
,
00010000
00000000
00100000
10000000
00100000
00000000
01000000
00000000
00010000
00000000
00100000
00000000
00001000
00010000
00001000
01000000
,
00010000
00000000
10000000
00000000
00100000
00000000
01000000
00000000
00010000
00000000
10000000
00000000
00010000
01000000
00010000
01000000
,
00001000
00100000
00001000
00010000
00000010
00000000
00001000
00000100
00001000
00000000
00000001
00000000
00000100
00000010
00001000
00000010
,
00000100
00000000
00001000
00000000
00011000
00000000
00000000
00110000
00000000
00000000
10100000
00000000
10010000
00000000
00000000
00000000
,
01100000
00000000
10000000
01000000
10000000
00000000
00010000
01000000
00010000
00000000
10000000
00000000
01000000
00100000
00010000
00100000
,
01000000
00000000
00010000
00000000
00001000
00000000
00000100
00000001
00000100
00000000
00000010
00001000
00000010
00010000
00000010
00010000
,
00001000
00010000
00001000
00100000
00010000
00000000
01000000
00000000
01100000
00000000
00000000
00000000
00010000
00000000
01000000
00000000
,
00100000
00000000
10000000
00000000
01000000
00000000
00010000
00001000
00010000
00000000
00000010
00000100
00000010
00000000
00010000
00000000
,
00001000
00000000
00000010
00000001
00000010
00000000
00000100
00001000
00000100
00010000
00000100
00001000
00000100
00010000
00001000
00100000
,
00010000
01000000
00100000
10000000
00020000
00000000
00000000
00000000
00030000
00000000
00000000
00000000
10000000
00000000
00100000
10000000
,
00100000
00000000
01000000
00000000
00001000
00010000
00001000
00010000
00001000
00000000
00100000
00000000
00010000
00100000
00001000
00100000
,
00001000
00010000
00100000
10000000
01000000
00100000
00001000
00010000
,
00100000
00000000
00010000
00000000
00001000
00000000
00000010
00000000
00000001
00000000
00000100
00000000
00001000
00010000
00000000
00000100
,
00010000
00000000
00001000
00100000
00000000
00001000
00010000
00000000
00000010
00000000
00001000
00000000
00000001
00000000
00000010
00000001
,
00000010
00000000
00000100
00000000
00010000
00001000
00010000
00001000
00010000
00000000
00000010
00000000
00001000
00000010
00010000
00000010
,
00010000
00001000
00000010
00000001
00000100
00000010
00010000
00001000
,
00000010
00001000
00010000
00100000
10000000
01000000
00020000
00001000
,
00001000
00000000
00031000
00000000
00100000
00010000
01000000
00100000
10000000
01000000
00100000
00010000
02000000
00000000
00000000
00000000
,
00000000
00000000
00000000
00000000
03001000
00000000
00000000
00000000
00000000
00000000
00010000
00000100
00002000
00000000
00000000
00000000
,
00000000
00000000
00000000
00000000
,
00000000
00000000
00000000
00000000
,
00000000
00000000
00000000
00000000
,
00000000
00000000
00003000
00000000
;

//---------------dance-double - NewbStepper-DDP----------------
#NOTES:
     dance-double:
     NewbStepper:
     Medium:
     12:
     0.491115,0.646385,0.143641,0.258554,0.167581,359,344,15,27,0,0,0.491115,0.646385,0.143641,0.258554,0.167581,359,344,15,27,0,0:
00000000
00000000
00000000
00000000
,
00000000
00000000
00000000
00000000
,
00000000
00000000
00000000
00000000
,
00000000
00000000
00000000
00000000
,
00000000
00000000
00000000
00000000
,
00000000
00000000
10010000
00000000
00100000
10000000
01000000
00000000
,
00100000
00010000
02000000
00000000
00000000
00000000
03100000
00000000
,
00010000
00001000
00000100
00000001
,
00000010
00000100
00001000
00000010
00010000
00001000
00100000
00010000
,
02000000
00000000
00000000
03000000
,
00010000
00000000
00100000
00000000
01000000
10000000
01000000
00000000
,
00100000
00001000
00010000
00001000
00100000
00001000
00010000
00001000
,
00000010
00000000
00000001
00000000
00000100
00000010
00000100
00000000
,
00000001
00000000
00001000
00000000
00000100
00000000
00000000
00000000
00010000
00000000
00000000
00010000
00000000
00000000
00000000
00000000
,
00002000
00000000
00003000
00010000
01000000
00000000
10000000
00000000
10100000
00000000
00000000
00000000
00100000
00000000
10000000
01000000
,
00020000
00000000
00030000
00001000
00000100
00000000
00000001
00000000
00000011
00000000
00000000
00000000
00000010
00000000
00000001
00000100
,
00002000
00000000
00000000
00000000
00003000
00000000
00010000
00000000
00001000
00000000
00000000
00000000
00000100
00000000
00000000
00000000
00000010
00000000
00000000
00000010
00000000
00000000
00001000
00000000
00000100
00000000
00000000
00000000
00010000
00000000
00000010
00000000
,
00020000
00000000
00030000
00001000
00010000
00000000
01000000
00000000
00200000
00000000
00000000
00000000
00300000
00000000
00000000
00000000
,
00010000
00000000
00000000
00010000
00000000
00000000
10000000
00000000
01000000
00000000
00000000
01000000
00000000
00000000
00010000
00000000
,
00001000
00000010
00000001
00000100
00001000
00000000
00010000
00000100
,
00001000
00000000
00000000
00001000
00000000
00000000
00000001
00000000
00000100
00000000
00000000
00000100
00000000
00000000
00001000
00000000
,
00010000
00100000
10000000
01000000
00010000
00000000
00001000
00100000
,
01000000
00000000
00000000
01000000
00000000
00000000
10000000
00000000
00100000
00000000
00000000
00100000
00000000
00000000
00010000
00000000
,
00001000
00000000
00000000
00000100
00000000
00000000
00000010
00000000
00002000
00000000
00000000
00000000
00003000
00000000
00000001
00000100
,
00000001
00000000
00000000
00000001
00000000
00000000
00000100
00000000
00001000
00000000
00000000
00001000
00000000
00000000
00010000
00000000
,
00100000
00000000
00000000
00100000
00000000
00000000
10000000
00010000
10000000
00000000
00000000
00000000
00100000
00000000
00000000
00000000
,
10010000
10000000
01000000
00010000
,
00002000
00100000
00010000
00013000
00011000
00000000
00001000
00000010
,
00000200
00001000
00000010
00000310
00000110
00000000
00001000
00000100
,
00020000
00000010
00001000
00031000
00011000
00000000
00010000
00100000
,
10000000
00000000
10010000
00000000
00000000
00000000
00010000
00000000
10000000
01000000
10000000
00000000
10010000
00000000
00000000
00000000
,
00100000
10000000
01000000
00000000
00100000
00010000
01000000
00000000
,
00100000
00010000
00001000
00010000
00000010
00010000
00001000
00000000
,
00000010
00000001
00000100
00000000
00000010
00001000
00000100
00000000
,
00000010
00001000
00010000
00001000
00100000
00001000
00010000
00000000
,
01000000
10000000
00010000
00000000
10000000
01000000
00010000
00000000
,
00011000
00000000
00000000
00000000
00000000
00000000
00000000
00000000
00001000
00000000
00000000
00000100
00000000
00000000
00000001
00000000
,
00001001
00000000
00000000
00000110
00000000
00000000
00002002
00000000
,
00000000
00003003
00000002
00002003
,
00003200
00000000
00000000
00000000
00010300
00000000
00000000
00001000
00000000
00000000
00100000
00000000
00010000
00000000
01000000
00000000
,
10000000
00000000
01000000
00000000
00010000
00000000
00000000
00100000
00000000
00000000
00001000
00000000
00020000
00000000
00000000
00000000
,
00030000
00000000
00000100
00000000
00001000
00000000
00000000
00000010
00000000
00000000
00001000
00000000
00000100
00000000
00000000
00000010
,
00000000
00000001
00000200
00000000
00000000
00001000
00001300
00000000
,
00011000
00000000
00010000
01000000
10000000
00000000
00100000
10000000
,
01000000
00000000
00100000
00000000
00010000
00000000
00000000
01000000
00000000
00000000
00001000
00000000
00010000
00000000
00001000
00000000
,
00000000
00010000
01000000
00000000
10000000
00000000
00100000
00000000
,
00010000
00002000
00000000
00023000
,
00000000
00000000
00000000
00000000
00031000
00000000
00000000
00010000
00000000
00000000
00000010
00000000
00001000
00000000
00000100
00000000
,
00000001
00000000
00000100
00000000
00001000
00000000
00000000
00000010
00000000
00000000
00010000
00000000
00002000
00000000
00000000
00000000
,
00003000
00000000
01000000
00000000
00010000
00000000
00000000
00100000
00000000
00000000
00010000
00000000
01000000
00000000
00100000
00000000
,
10000000
01000000
00020000
00000000
00000000
00001000
00031000
00000000
,
00011000
00000000
00010000
00001000
00000100
00000000
00000010
00001000
,
00000100
00000010
00000001
00001000
00000100
00010000
00001000
01000000
,
00010000
10000000
00100000
01000000
00010000
00100000
01000000
00010000
,
00001000
00000100
00000020
00000000
00000000
00000000
00001030
00000000
,
00000001
00000100
00000010
00000000
00001000
00000001
00000100
00001000
,
00020000
00000000
00000000
00030000
00100000
10000000
00010000
00100000
,
01000000
00000000
10000000
00000000
00010000
00000000
01000000
00000000
00001000
00000000
00100000
00000000
00010000
00000000
00000000
01000000
,
00000000
00000000
00100000
00000000
00000000
10000000
00000000
00000000
01000000
00000000
00100000
00000000
00010000
00000000
00000000
00000000
,
10000000
01000000
00100000
00000000
00010000
10000000
01000000
00010000
,
00002000
00000000
00000000
00003000
00000010
00000001
00001000
00000010
,
00000100
00000001
00001000
00000100
00010000
00001000
00100000
00100000
,
00010000
00010000
01000000
01000000
00100000
00100000
20000000
00000000
,
00000000
00000000
00000000
00000000
30010000
00000000
00000000
00000000
00000000
00000000
01000000
00100000
02000000
00000000
00000000
00000000
,
00000000
00000000
00000000
00000000
,
00000000
00000000
00000000
00000000
,
00000000
00000000
00000000
00000000
,
00000000
00000000
03000000
00000000
;

//---------------dance-double - NewbStepper-BDP----------------
#NOTES:
     dance-double:
     NewbStepper:
     Easy:
     7:
     0.274970,0.323192,0.181945,0.172369,0,201,182,19,18,0,0,0.274970,0.323192,0.181945,0.172369,0,201,182,19,18,0,0:
00000000
00000000
00000000
00000000
,
00000000
00000000
00000000
00000000
,
00000000
00000000
00000000
00000000
,
00000000
00000000
00000000
00000000
,
00000000
00000000
00000000
00000000
,
00000000
10000000
01000000
10000000
,
00010000
02000000
00000000
03000000
,
00001000
00010000
00000010
00001000
,
00000100
00000100
00000010
00000010
,
00000110
00000000
00000000
00000000
,
00000002
00001000
00000203
00000010
,
00000001
00001300
00010000
00200000
,
10000000
01300000
00100000
00010000
,
00001000
00000020
00000000
00000030
,
00000001
00000000
00000000
00000100
00000100
00000000
00000000
00000010
,
00001000
00000000
00000000
00000100
00000100
00000000
00000000
00010000
,
00001000
00000000
00000000
01000000
01000000
00000000
00000000
00010000
,
10000000
00000000
00000000
00200000
00000000
00000000
00300000
00000000
,
10000000
00100000
00010000
00000000
,
00001000
00000010
00000001
00000000
,
00000001
00000100
00001000
00000000
,
00010000
01000000
10000000
00000000
,
00100000
10000000
10100000
00000000
,
00010000
00100000
00110000
00000000
,
00001000
00000010
00001010
00000000
,
00000001
00000010
00000011
00000000
,
00001000
00000100
00010000
00001000
,
00200000
00000000
00310000
00000000
,
02000000
00000000
13000000
00000000
,
00200000
00000000
00301000
00000000
,
00000020
00000000
00010030
00000000
,
00001000
00001000
00001000
00000000
,
00000100
00000100
00000100
00000000
,
00000001
00000001
00000001
00000000
,
00000010
00000010
00000010
00000000
,
00001000
00001000
00010000
00010000
,
00011000
00000000
01001000
00000000
,
01000000
00000000
00000000
01000000
00000000
00000000
01100000
00000000
,
00000000
00000000
20000000
32000000
,
03200000
00310000
01000000
00100000
,
00010000
00001000
00000100
00000110
,
00000000
00000010
00000100
00001000
,
00010000
00100000
01000000
01100000
,
00000000
10010000
00000000
01010000
,
00000000
10000000
00100000
00010000
,
00000000
00001000
00000010
00000001
,
00000100
00001000
00000000
00011000
,
00000000
00010000
01000000
10000000
,
01000000
00010000
00001000
00011000
,
00000000
00001000
00000100
00000001
,
00000100
00001000
00010000
00011000
,
00000000
01001000
00000000
00010100
,
00000000
00000010
00000100
00000110
,
00000000
00000001
00000100
00001000
,
00010000
02000000
03000000
10000000
,
01000000
10000000
00100000
01000000
,
00010000
00100000
00001000
00010000
,
00000100
00001000
00000010
00000200
,
00000000
00000300
00000000
00000001
,
00000100
00000001
00000010
00000100
,
00001000
00000010
00010000
00001000
,
01000000
00010000
00100000
01000000
,
10000000
00100000
00010000
00002000
,
00000000
00003000
00000000
00022000
,
00000000
00000000
00000000
00000000
,
00000000
00000000
00000000
00000000
,
00000000
00000000
00000000
00000000
,
00000000
00000000
00033000
00000000
;
