#VERSION:0.83;
#TITLE:Passion;
#ARTIST:KAN TAKAHIKO;
#BANNER:Passion.png;
#BACKGROUND:Passion-bg.png;
#JACKET:Passion-jacket.png;
#MUSIC:Passion.ogg;
#OFFSET:-1.458;
#SAMPLESTART:44.298;
#SAMPLELENGTH:15;
#BPMS:0=105,61=106,62=107,63=108,64=109,65=110,66=111,67=112,68=113,69=114,70=115,71=116,72=117,73=118,74=120;
#STOPS:74=0.504,189=0.5;
#TIMESIGNATURES:0=4=4,72=3=4,75=4=4,187=3=4,190=4=4;

//---------------dance-single - NewbStepper-ESP----------------
#NOTEDATA:;
#CHARTNAME:NewbStepper-ESP;
#STEPSTYPE:dance-single;
#DESCRIPTION:NewbStepper-ESP;
#DIFFICULTY:Hard;
#METER:13;
#RADARVALUES:0.589982,0.671798,0.348780,0.079268,0.923474,521,477,44,10,0,0,0,0,0,0.589982,0.671798,0.348780,0.079268,0.923474,521,477,44,10,0,0,0,0,0;
#CREDIT:NewbStepper;
#NOTES:
// measure 0
0000
0000
0000
0000
,  // measure 1
0001
0000
0000
0001
0100
0000
0010
0000
1000
0000
0000
1000
0100
0000
0010
0000
,  // measure 2
0001
0000
0000
0001
1000
0000
0010
0100
0000
0100
0000
0100
0010
0000
0110
0000
,  // measure 3
1000
0000
0000
1000
0001
0000
0100
0000
1000
0000
0100
0000
0001
0000
0010
0000
,  // measure 4
0001
0100
0001
0100
0010
1000
0010
1000
0100
0010
0100
0010
0001
0100
0010
1000
,  // measure 5
0200
0000
0000
1000
0000
0000
0000
0000
0320
0000
0000
0001
0000
0000
0000
0000
,  // measure 6
2030
0000
0000
0010
0000
0000
0000
0000
3002
0000
0000
0100
0000
0000
0000
0000
,  // measure 7
1003
0000
0000
1010
0000
0000
0000
0000
0001
0000
0000
0011
0000
0000
0000
0000
,  // measure 8
1000
0000
0000
1001
0000
0000
0000
0000
0010
0001
0010
0001
0010
0100
1000
0000
,  // measure 9
0001
0000
0100
0000
0100
0010
1000
0000
1000
0100
0000
0010
0000
0001
0100
0000
,  // measure 10
0000
0000
0010
1000
0010
0100
0010
1000
0010
0100
0000
0001
0000
0100
0010
0000
,  // measure 11
1000
0000
0100
0000
0100
0010
0001
0000
0001
0100
0000
0010
0000
1000
0100
0000
,  // measure 12
0000
0000
0010
0001
0010
0100
0010
0000
0001
0000
1000
0010
0000
0010
0100
0000
,  // measure 13
0101
0010
1100
0010
,  // measure 14
1001
0010
1001
0100
,  // measure 15
1010
0000
1000
0100
0010
0001
0010
0100
1000
0000
0001
0100
0010
1000
0010
0100
,  // measure 16
0001
0000
1000
0010
0100
0001
0100
0010
1000
0000
0001
0010
0100
1000
0100
0010
,  // measure 17
0001
0001
0100
0100
0010
0010
1000
1000
,  // measure 18
0001
0100
0001
0100
0001
0100
0001
0100
0000
0000
0000
0000
0001
0000
1000
0100
,  // measure 19
0000
1000
0010
1000
0000
0100
0000
0001
0000
0100
0010
0001
0000
0000
0000
1001
,  // measure 20
0000
0100
0010
0001
0000
0100
0000
0100
0000
0010
0100
0010
1000
0000
0001
0010
,  // measure 21
0000
0001
1000
0001
0000
1000
0010
1000
0000
0100
0010
0100
0000
0000
0000
1001
,  // measure 22
0000
0100
0010
0100
0000
1000
0001
1000
0000
0100
0010
0001
1000
0000
0001
0100
,  // measure 23
0000
0001
0010
0001
0000
0100
0000
1000
0000
0100
0010
1000
0000
0000
0000
1001
,  // measure 24
0000
0100
0010
1000
0000
0100
0000
0100
0000
0010
0100
0010
0001
0000
1000
0010
,  // measure 25
0000
1000
0001
1000
0000
0100
0000
0010
0000
0001
0100
1000
0000
0000
0000
0110
,  // measure 26
0000
0001
1000
0010
0000
1000
0100
1000
0001
0100
0001
1000
0010
0000
1000
0100
,  // measure 27
0000
0011
0000
0000
0101
0000
0000
1010
0000
0000
1001
0000
0000
0000
0001
0010
,  // measure 28
0000
1100
0000
0000
0001
0100
0001
0100
0010
1000
0010
1000
0000
0000
0001
0010
,  // measure 29
0000
1100
0000
0000
1010
0000
0000
0101
0000
0000
1001
0000
0000
0000
1000
0100
,  // measure 30
0000
0011
0000
0000
0001
0100
0010
1000
0001
0000
0100
0000
0110
0000
0001
0100
,  // measure 31
0000
1010
0000
0000
0101
0000
0000
0011
0000
0000
1001
0000
0000
0000
1000
0010
,  // measure 32
0000
0101
0000
0000
1000
0100
1000
0100
0010
0001
0010
0001
0000
0000
1000
0010
,  // measure 33
0000
0101
0000
0000
1010
0000
0000
0110
0000
0000
1001
0000
1000
0000
0100
0000
,  // measure 34
0010
0000
0000
0000
0001
0000
1000
0000
0001
0010
0100
1000
0002
0000
0000
0000
,  // measure 35
0000
0000
0000
0000
0000
0000
0000
0000
0000
0000
0000
0000
0203
0000
0000
0001
,  // measure 36
0000
0000
0000
0000
0320
0000
0000
1000
0000
0000
0000
0000
0032
0000
0000
0010
,  // measure 37
0000
0000
0000
0000
2003
0000
0000
0100
0000
0000
0000
0000
3001
0000
0000
0011
,  // measure 38
0000
0000
0000
0000
1000
0000
0000
1010
0000
0000
0000
0000
0001
0000
0000
1001
,  // measure 39
0000
0000
0000
0000
0010
1000
0010
1000
0010
0100
0001
0000
1000
0000
0100
0000
,  // measure 40
0100
0010
0001
0000
0001
0100
0000
0010
0000
1000
0100
0000
0000
0000
0010
0001
,  // measure 41
0010
0100
0010
0001
0010
0100
0000
1000
0000
0100
0010
0000
0001
0000
0100
0000
,  // measure 42
0100
0010
1000
0000
1000
0100
0000
0010
0000
0001
0100
0000
0000
0000
0010
1000
,  // measure 43
0010
0100
0010
0000
1000
0000
0001
0010
0000
0010
0100
0000
1100
0000
0000
0000
,  // measure 44
0010
0101
0010
1001
,  // measure 45
0010
0000
1001
0000
0100
0000
1000
1000
,  // measure 46
0100
0000
0100
0000
0010
0000
0010
0000
0001
0000
0001
0000
1000
0100
1000
0100
,  // measure 47
1000
0100
1000
0100
0000
0000
0000
0000
1000
0000
0001
0100
0000
0001
0010
0001
,  // measure 48
0000
0100
0000
1000
0000
0100
0010
1000
0000
0000
0000
1001
0000
0100
0010
1000
,  // measure 49
0000
0100
0000
0100
0000
0010
0100
0010
0001
0000
1000
0010
0000
1000
0001
1000
,  // measure 50
0000
0001
0010
0001
0000
0100
0010
0100
0000
0000
0000
1001
0000
0100
0010
0100
,  // measure 51
0000
0001
1000
0001
0000
0100
0010
1000
0001
0000
1000
0100
0000
1000
0010
1000
,  // measure 52
0000
0100
0000
0001
0000
0100
0010
0001
0000
0000
0000
1001
0000
0100
0010
0001
,  // measure 53
0000
0100
0000
0100
0000
0010
0100
0010
1000
0000
0001
0010
0000
0001
1000
0001
,  // measure 54
0000
0100
0000
0010
0000
1000
0100
0001
0000
0000
0000
0110
0000
1000
0001
0010
,  // measure 55
0000
0001
0100
0001
1000
0100
1000
0001
0020
0000
0000
0000
0000
0000
0000
0000
,  // measure 56
0000
0000
0030
0000
;

//---------------dance-single - NewbStepper-DSP----------------
#NOTEDATA:;
#CHARTNAME:NewbStepper-DSP;
#STEPSTYPE:dance-single;
#DESCRIPTION:NewbStepper-DSP;
#DIFFICULTY:Medium;
#METER:8;
#RADARVALUES:0.338588,0.380686,0.095122,0.150610,0,299,287,12,19,0,0,0,0,0,0.338588,0.380686,0.095122,0.150610,0,299,287,12,19,0,0,0,0,0;
#CREDIT:NewbStepper;
#NOTES:
0000
0000
0000
0000
,
0010
0010
0010
0010
,
1000
0000
0001
0100
0010
0010
0010
0000
,
1000
0000
0001
0100
0010
0000
1000
0100
,
0010
0000
0001
0100
1000
0100
0001
0000
,
2000
0000
3200
0000
,
0302
0000
0023
0000
,
2030
0000
3200
0000
,
0302
0000
0023
0000
,
1030
0001
0000
0100
0010
1000
0100
0010
,
0000
0001
0001
0001
0100
0010
0010
0100
,
0001
1000
0000
0100
0010
0001
0100
0010
,
0000
1000
0001
1000
1000
0010
0100
0000
,
0010
0010
0010
0010
,
0100
0100
0100
0100
,
1000
1000
0100
0100
,
0010
0010
0001
0001
,
1000
0001
1000
0001
0100
0010
0100
0010
,
1000
0100
0010
0001
0000
0000
0110
0000
,
1000
0010
0001
0010
1000
0000
0110
0000
,
0001
0010
1000
0010
0001
0000
0110
0000
,
1000
0100
0001
0100
1000
0000
0110
0000
,
0001
0100
1000
0100
0001
0000
0110
0000
,
1000
0001
0100
1000
0100
0001
1000
0000
,
0001
1000
0100
0001
0100
1000
0001
0000
,
0010
0001
0100
0010
1000
0100
0010
0001
,
0100
0010
1000
0001
1000
0010
0110
0000
,
1000
0001
0100
1000
,
0010
0000
0001
0100
0010
1000
0001
0000
,
0100
0010
1000
0100
,
0001
0000
0100
1000
0010
0100
0001
0000
,
1000
0100
0001
0010
,
1000
0000
0010
0100
0010
1000
0001
0000
,
0100
0010
1000
0100
,
0010
0000
0001
0000
0100
0010
0200
0000
,
0000
0000
0000
0302
,
0000
0203
0000
2300
,
0000
3020
0000
0032
,
0000
0203
0000
2300
,
0000
0000
3020
0000
0000
0000
0031
1000
,
0000
0100
0010
0001
0100
0010
0000
1000
,
1000
1000
0100
0010
0010
0100
1000
0001
,
0000
0100
0010
1000
0100
0010
0000
0001
,
1000
0001
0001
0010
0100
0000
0001
0000
,
0001
0100
0100
0010
,
0010
0000
1000
0000
1000
0000
0001
1000
,
0001
1000
0100
0010
0100
0010
0001
0100
,
0010
1000
0000
0000
0110
0000
0001
0010
,
1000
0010
0001
0000
0110
0000
1000
0010
,
0001
0010
1000
0000
0110
0000
0001
0100
,
1000
0100
0001
0000
0110
0000
1000
0100
,
0001
0100
1000
0000
0110
0000
0001
1000
,
0100
0001
0100
1000
0001
0000
1000
0001
,
0100
1000
0100
0001
1000
0000
0010
1000
,
0100
0010
0001
0100
0010
1000
0100
0010
,
0001
1000
0001
0010
0220
0000
0000
0000
,
0000
0000
0330
0000
;

//---------------dance-single - NewbStepper-BSP----------------
#NOTEDATA:;
#CHARTNAME:NewbStepper-BSP;
#STEPSTYPE:dance-single;
#DESCRIPTION:NewbStepper-BSP;
#DIFFICULTY:Easy;
#METER:4;
#RADARVALUES:0.177787,0.200648,0.031707,0.055488,0,157,153,4,7,0,0,0,0,0,0.177787,0.200648,0.031707,0.055488,0,157,153,4,7,0,0,0,0,0;
#CREDIT:NewbStepper;
#NOTES:
0000
0000
0000
0000
,
0001
0000
0000
0000
,
1000
0000
0000
0000
,
0010
1000
0100
0010
,
0002
0003
2000
3000
,
0010
0000
0010
0000
,
0100
0000
0100
0000
,
0001
0000
0001
0000
,
1000
0000
1000
0000
,
0010
1000
0010
0000
,
0100
0001
0100
0000
,
0010
0001
0010
0000
,
0100
1000
0100
0000
,
0001
0100
1000
0100
,
0001
0100
1000
0100
,
0001
0010
0100
1000
,
1000
0100
0010
0001
,
2000
0000
3000
0000
,
1001
0000
0000
0000
,
0001
0100
1000
0000
,
1000
0100
0001
0000
,
1000
0100
0001
0000
,
0001
0100
1000
0000
,
0010
1000
0100
0000
,
0010
0001
0100
0000
,
0010
1000
0100
0000
,
0010
0001
0100
0010
,
0010
1000
0100
0010
,
0000
0001
0001
0010
,
0010
0001
0100
0010
,
0000
1000
1000
0001
,
0100
1000
0100
0001
,
0000
0010
0001
1000
,
0100
0001
0100
1000
,
0000
0110
0000
2002
,
0000
0000
3003
0010
,
0000
0010
0000
0100
,
0000
0100
0000
1000
,
0000
1000
0000
0001
,
0000
0001
0000
0010
,
0001
0010
0000
0100
,
1000
0100
0000
0010
,
1000
0010
0000
0100
,
0001
0100
1000
0010
,
0100
0001
0001
0100
,
0010
1000
0002
0000
,
0003
0000
1001
0000
,
0000
1000
0100
0001
,
0000
0001
0100
1000
,
0000
0001
0100
1000
,
0000
1000
0100
0001
,
0000
0010
0001
0100
,
0000
0010
1000
0100
,
0000
0000
0010
0001
,
0100
0000
0010
1000
,
0100
0020
0000
0000
,
0000
0030
0000
0000
;

//---------------dance-single - NewbStepper-bSP----------------
#NOTEDATA:;
#CHARTNAME:NewbStepper-bSP;
#STEPSTYPE:dance-single;
#DESCRIPTION:NewbStepper-bSP;
#DIFFICULTY:Beginner;
#METER:2;
#RADARVALUES:0.110975,0.175975,0,0.031707,0,98,98,0,4,0,0,0,0,0,0.110975,0.175975,0,0.031707,0,98,98,0,4,0,0,0,0,0;
#CREDIT:NewbStepper;
#NOTES:
0000
0000
0000
0000
,
1000
0000
0000
0000
,
1000
0000
0000
0000
,
0001
0000
0000
0000
,
0001
0000
0000
0000
,
0100
0000
0000
0000
,
0000
0000
0000
0000
,
0100
0000
0000
0000
,
0000
0000
0000
0000
,
0001
0000
0001
0000
,
0001
0000
0000
0000
,
1000
0000
1000
0000
,
1000
0000
0000
0000
,
0010
0000
0010
0000
,
0010
0000
0010
0000
,
0100
0000
0100
0000
,
0100
0000
0100
0000
,
0002
0000
0003
0000
,
2000
0000
3000
0000
,
0000
0001
0000
0001
,
0000
1000
1000
1000
,
0000
1000
0000
1000
,
0000
0001
0001
0001
,
0000
0100
0000
1000
,
0000
0100
0000
0001
,
0010
0010
0000
0100
,
0100
0100
0100
0100
,
0000
1000
0000
0001
,
0000
0100
0100
0100
,
0000
0001
0000
1000
,
0000
0100
0100
0010
,
0000
0001
0000
1000
,
0000
0010
0010
0010
,
0000
1000
0000
0001
,
0000
0010
0010
0100
,
0000
0000
0000
0100
,
0000
0000
0000
0000
,
0000
0000
0000
0100
,
0000
0000
0000
0000
,
0000
0000
0000
1000
,
0000
1000
0000
1000
,
0000
0000
0000
0001
,
0000
0001
0000
0001
,
0000
0000
0000
0100
,
0000
0100
0000
0100
,
0000
0100
0000
2000
,
0000
3000
0000
0002
,
0000
0003
0000
0000
,
1000
0000
1000
0000
,
0001
0001
0001
0000
,
0001
0000
0001
0000
,
1000
1000
1000
0000
,
0100
0000
0001
0000
,
0100
0000
1000
0010
,
0010
0000
0100
0100
,
0100
0100
0100
0000
;

//---------------dance-double - NewbStepper-EDP----------------
#NOTEDATA:;
#CHARTNAME:NewbStepper-EDP;
#STEPSTYPE:dance-double;
#DESCRIPTION:NewbStepper-EDP;
#DIFFICULTY:Hard;
#METER:13;
#RADARVALUES:0.562804,0.582225,0.364634,0.079268,0.871950,497,451,46,10,0,0,0,0,0,0.562804,0.582225,0.364634,0.079268,0.871950,497,451,46,10,0,0,0,0,0;
#CREDIT:NewbStepper;
#NOTES:
00000000
00000000
00000000
00000000
,
00000001
00000000
00000000
00000001
00000100
00000000
00000010
00000000
00001000
00000000
00000000
00001000
00000100
00000000
00000010
00000000
,
00001000
00000000
00000000
00001000
00010000
00000000
00100000
01000000
00000000
01000000
00000000
01000000
00100000
00000000
01100000
00000000
,
10000000
00000000
01000000
00010000
00001000
00000100
00000001
00000010
,
00000100
00001000
00000100
00001000
00000100
00010000
00000100
00010000
00001000
00100000
00001000
00100000
00010000
10000000
00010000
10000000
,
00200000
00000000
00000000
01000000
00000000
00000000
00000000
00000000
00320000
00000000
00000000
00000010
00000000
00000000
00000000
00000000
,
00032000
00000000
00000000
01000000
00000000
00000000
00000000
00000000
00003020
00000000
00000000
00000100
00000000
00000000
00000000
00000000
,
00000031
00000000
00000000
00000011
00000000
00000000
00000000
00000000
00001000
00000000
00000000
00011000
00000000
00000000
00000000
00000000
,
00100000
00000000
00000000
01100000
00000000
00000000
00000000
00000000
10000000
01000000
10000000
01000000
00000000
00100000
00010000
00000000
,
10000000
00000000
01000000
00000000
00010000
00000000
00001000
00000000
00100000
00010000
00000000
00001000
00000000
00010000
00100000
00000000
,
00000000
00000000
00001000
00010000
00000100
00010000
00001000
00000000
00000100
00000001
00000000
00000010
00000000
00000100
00001000
00000000
,
00000001
00000000
00000100
00000000
00001000
00000000
00010000
00000000
00000010
00001000
00000000
00010000
00000000
00001000
00000010
00000000
,
00000000
00000000
00010000
00001000
00100000
00000000
00010000
00000000
10000000
00000000
01000000
00010000
00000000
00010000
00001000
00000000
,
00011000
00000010
00000101
00000010
,
00011000
00100000
11000000
00100000
,
10010000
00000000
00010000
00100000
01000000
00000000
10000000
01000000
00010000
00000000
00001000
00100000
00010000
00000000
00001000
00000100
,
00000010
00000000
00000001
00000100
00001000
00000000
00010000
00000010
00001000
00000000
00010000
01000000
00100000
00000000
10000000
00010000
,
10000000
01000000
00100000
00010000
00001000
00000100
00000010
00000001
,
00001000
00000100
00001000
00000100
00001000
00000100
00001000
00000100
00000000
00000000
00000000
00000000
00001000
00000000
00000001
00000100
,
00000000
00000010
00010000
00000010
00000000
00001000
00000000
00010000
00000000
01000000
00100000
10000000
00000000
00000000
00000000
10010000
,
00000000
10000000
01000000
00010000
00000000
00001000
00000000
00100000
00000000
00001000
00010000
00000100
00000010
00000000
00000001
00000100
,
00000000
00001000
00010000
00001000
00000000
00100000
00000000
00010000
00000000
10000000
01000000
00010000
00000000
00000000
00000000
00011000
,
00000000
00001000
00000100
00000010
00000000
00000100
00000000
00001000
00000000
00010000
01000000
10000000
00010000
00000000
10000000
01000000
,
00000000
00100000
00001000
00100000
00000000
00010000
00000000
00001000
00000000
00000100
00000010
00000001
00000000
00000000
00000000
00001001
,
00000000
00000001
00000100
00001000
00000000
00010000
00000000
00000010
00000000
00010000
00001000
01000000
00100000
00000000
10000000
01000000
,
00000000
00010000
00001000
00010000
00000000
00000010
00000000
00001000
00000000
00000001
00000100
00001000
00000000
00000000
00000000
00011000
,
00000000
00010000
01000000
00100000
00000000
00001000
00000000
00010000
00000000
00100000
00000000
10000000
01000000
00000000
00100000
00010000
,
00000000
01010000
00000000
00000000
00101000
00000000
00000000
00010100
00000000
00000000
00001010
00000000
00000000
00000000
00001000
00000100
,
00000000
00000011
00000000
00000000
00000001
00001000
00000100
00001000
00000001
00001000
00000000
00000000
00001010
00000000
00000010
00001000
,
00000000
00001100
00000000
00000000
00010010
00000000
00000000
01001000
00000000
00000000
00110000
00000000
00000000
00000000
10000000
01000000
,
00000000
00110000
00000000
00000000
00001000
01000000
00010000
01000000
00001000
00000000
00010000
00000000
00011000
00000000
01000000
00010000
,
00000000
00110000
00000000
00000000
01001000
00000000
00000000
00010100
00000000
00000000
00001010
00000000
00000000
00000000
00000001
00000100
,
00000000
00001010
00000000
00000000
00000001
00000100
00000001
00000100
00000010
00001000
00000000
00000000
00011000
00000000
00000100
00001000
,
00000000
00001010
00000000
00000000
00010100
00000000
00000000
01001000
00000000
00000000
00110000
00000000
00010000
00000000
01000000
00000000
,
10000000
00000000
00000000
01000000
00000000
00010000
00100000
00000000
00001000
00010000
00000100
00010000
00002000
00000000
00000000
00000000
,
00000000
00000000
00000000
00000000
00000000
00000000
00000000
00000000
00000000
00000000
00000000
00000000
00003020
00000000
00000000
00000100
,
00000000
00000000
00000000
00000000
00002030
00000000
00000000
00100000
00000000
00000000
00000000
00000000
00023000
00000000
00000000
00000100
,
00000000
00000000
00000000
00000000
00230000
00000000
00000000
01000000
00000000
00000000
00000000
00000000
10300000
00000000
00000000
10100000
,
00000000
00000000
00000000
00000000
00010000
00000000
00000000
00011000
00000000
00000000
00000000
00000000
00000010
00000000
00000000
00000110
,
00000000
00000000
00000000
00000000
00000001
00000100
00000001
00000100
00000000
00000010
00001000
00000000
00000001
00000000
00000100
00000000
,
00001000
00000000
00010000
00000000
00000010
00001000
00000000
00010000
00000000
00001000
00000010
00000000
00000000
00000000
00010000
00001000
,
01000000
00001000
00010000
00000000
01000000
10000000
00000000
00100000
00000000
01000000
00010000
00000000
10000000
00000000
01000000
00000000
,
00010000
00000000
00001000
00000000
00100000
00010000
00000000
00001000
00000000
00010000
00100000
00000000
00000000
00000000
00001000
00010000
,
00000010
00000000
00001000
00000000
00000001
00000000
00000100
00001000
00000000
00001000
00010000
00000000
00011000
00000000
00000000
00000000
,
00100000
11000000
00100000
00011000
,
00000010
00000000
00000101
00000000
00000010
00000000
00000001
00000100
,
00000010
00000000
00001000
00000000
00010000
00000000
01000000
00000000
00100000
00000000
10000000
00000000
00010000
01000000
00010000
01000000
,
00010000
01000000
00010000
01000000
00000000
00000000
00000000
00000000
00010000
00000000
10000000
01000000
00000000
00100000
00001000
00100000
,
00000000
00010000
00000000
00001000
00000000
00000100
00000010
00000001
00000000
00000000
00000000
00001001
00000000
00000001
00000100
00001000
,
00000000
00010000
00000000
00000010
00000000
00010000
00001000
01000000
00100000
00000000
10000000
01000000
00000000
00010000
00001000
00010000
,
00000000
00000010
00000000
00001000
00000000
00000001
00000100
00001000
00000000
00000000
00000000
00011000
00000000
00010000
01000000
00100000
,
00000000
01000000
00000000
00010000
00000000
00001000
00000100
00000001
00001000
00000000
00000001
00000100
00000000
00000010
00010000
00000010
,
00000000
00001000
00000000
00010000
00000000
01000000
00100000
10000000
00000000
00000000
00000000
10010000
00000000
10000000
01000000
00010000
,
00000000
00001000
00000000
00100000
00000000
00001000
00010000
00000100
00000010
00000000
00000001
00000100
00000000
00001000
00010000
00001000
,
00000000
00100000
00000000
00010000
00000000
10000000
01000000
00010000
00000000
00000000
00000000
00011000
00000000
00001000
00000100
00000010
,
00000000
00010000
00000000
00001000
00000000
00000010
00000000
00000001
00000200
00000000
00000000
00000000
00000000
00000000
00000000
00000000
,
00000000
00000000
00000300
00000000
;

//---------------dance-double - NewbStepper-DDP----------------
#NOTEDATA:;
#CHARTNAME:NewbStepper-DDP;
#STEPSTYPE:dance-double;
#DESCRIPTION:NewbStepper-DDP;
#DIFFICULTY:Medium;
#METER:9;
#RADARVALUES:0.339721,0.380686,0.087195,0.142683,0,300,289,11,18,0,0,0,0,0,0.339721,0.380686,0.087195,0.142683,0,300,289,11,18,0,0,0,0,0;
#CREDIT:NewbStepper;
#NOTES:
00000000
00000000
00000000
00000000
,
00100000
00100000
00100000
00100000
,
10000000
00000000
00010000
01000000
00100000
00100000
00100000
00000000
,
00010000
00000000
00001000
00000100
00000001
00000000
00001000
00000100
,
00000010
00000000
00000001
00000100
00001000
00010000
01000000
00000000
,
20000000
00000000
32000000
00000000
,
03020000
00000000
00032000
00000000
,
00003020
00000000
00000032
00000000
,
00000203
00000000
00002300
00000000
,
00013000
01000000
00000000
10000000
00100000
01000000
00010000
00100000
,
00000000
01000000
00010000
00001000
00000010
00000001
00000100
00000100
,
00001000
00000100
00000000
00000001
00000010
00000100
00001000
00000010
,
00000000
00000100
00001000
00010000
00100000
10000000
01000000
00000000
,
00100000
00100000
00100000
00100000
,
00010000
00010000
00010000
00010000
,
00001000
00001000
00000100
00000100
,
00000010
00000010
00000001
00000001
,
00001000
00000010
00001000
00000010
00010000
00001000
00010000
00001000
,
01000000
00100000
00010000
00001000
00000000
00000000
00011000
00000000
,
00010000
00100000
10000000
00100000
00010000
00000000
00011000
00000000
,
00001000
00000010
00000001
00000010
00001000
00000000
00011000
00000000
,
00010000
01000000
10000000
01000000
00010000
00000000
00011000
00000000
,
00001000
00000100
00000001
00000100
00001000
00000000
00011000
00000000
,
00010000
01000000
10000000
00100000
01000000
00010000
00100000
00000000
,
00001000
00000100
00000001
00000010
00000100
00001000
00000010
00000000
,
00001000
00000100
00010000
00001000
00100000
00010000
01000000
00100000
,
10000000
01000000
00010000
00001000
00000100
00000010
00000110
00000000
,
00001000
00000001
00000100
00001000
,
00010000
00000000
00100000
10000000
01000000
00100000
00010000
00000000
,
10000000
01000000
00010000
00001000
,
00000010
00000000
00000001
00000100
00000010
00001000
00000001
00000000
,
00000100
00001000
00000100
00000010
,
00010000
00000000
00001000
00100000
00010000
01000000
00100000
00000000
,
10000000
00000000
01000000
00000000
00010000
00000000
00001000
00000010
,
00000001
00000000
00001000
00000100
00000010
00000001
00002000
00000000
,
00000000
00000000
00000000
00003002
,
00000000
00000203
00000000
00002300
,
00000000
00023000
00000000
00230000
,
00000000
20300000
00000000
32000000
,
00000000
00000000
03020000
00000000
00000000
00000000
00031000
00000100
,
00000000
00000001
00000010
00000100
00001000
00000010
00000000
00000100
,
00001000
00010000
00100000
10000000
01000000
01000000
00010000
01000000
,
00000000
10000000
00100000
01000000
00010000
00100000
00000000
01000000
,
00010000
00001000
00000010
00000001
00000100
00000000
00010000
00000000
,
00010000
01000000
01000000
00100000
,
00100000
00000000
10000000
00000000
10000000
00000000
00010000
00100000
,
00010000
00100000
00001000
00010000
00001000
00010000
00000100
00000010
,
00001000
00010000
00000000
00000000
00011000
00000000
00001000
00000010
,
00000001
00000010
00001000
00000000
00011000
00000000
00010000
00100000
,
10000000
00100000
00010000
00000000
00011000
00000000
00001000
00000100
,
00000001
00000100
00001000
00000000
00011000
00000000
00010000
01000000
,
10000000
01000000
00010000
00000000
00011000
00000000
00001000
00000100
,
00000001
00000010
00000100
00001000
00000010
00000000
00010000
01000000
,
10000000
00100000
01000000
00010000
00100000
00000000
00010000
01000000
,
00001000
00010000
00000010
00001000
00000001
00000100
00000010
00001000
,
00000001
00000100
00001000
00010000
02000000
00000000
00000000
00000000
,
00000000
00000000
03000000
00000000
;

//---------------dance-double - NewbStepper-BDP----------------
#NOTEDATA:;
#CHARTNAME:NewbStepper-BDP;
#STEPSTYPE:dance-double;
#DESCRIPTION:NewbStepper-BDP;
#DIFFICULTY:Easy;
#METER:4;
#RADARVALUES:0.177787,0.201539,0.031707,0.055488,0,157,153,4,7,0,0,0,0,0,0.177787,0.201539,0.031707,0.055488,0,157,153,4,7,0,0,0,0,0;
#CREDIT:NewbStepper;
#NOTES:
00000000
00000000
00000000
00000000
,
00000001
00000000
00000000
00000000
,
00001000
00000000
00000000
00000000
,
00000010
00001000
00000100
00000010
,
00002000
00003000
00020000
00030000
,
00100000
00000000
00100000
00000000
,
01000000
00000000
01000000
00000000
,
00010000
00000000
00010000
00000000
,
10000000
00000000
10000000
00000000
,
00100000
10000000
00100000
00000000
,
01000000
00010000
01000000
00000000
,
00001000
00010000
00001000
00000000
,
00000100
00000001
00000100
00000000
,
00000001
00000100
00001000
00000100
,
00000001
00000100
00001000
00010000
,
01000000
10000000
00100000
01000000
,
00010000
00100000
00001000
00010000
,
00000200
00000000
00000300
00000000
,
00001001
00000000
00000000
00000000
,
00000001
00000100
00001000
00000000
,
00010000
01000000
10000000
00000000
,
10000000
01000000
00010000
00000000
,
00001000
00000100
00000001
00000000
,
00000010
00000001
00000100
00000000
,
00000010
00001000
00000100
00000000
,
00010000
00001000
00100000
00000000
,
00010000
10000000
01000000
00100000
,
00100000
00010000
01000000
00100000
,
00000000
00010000
00010000
00001000
,
00001000
00000010
00000001
00000100
,
00000000
00000001
00000001
00000100
,
00001000
00010000
01000000
10000000
,
00000000
00100000
10000000
00010000
,
00100000
00001000
00010000
00000100
,
00000000
00000110
00000000
00002002
,
00000000
00000000
00003003
00000010
,
00000000
00000010
00000000
00000100
,
00000000
00000100
00000000
00001000
,
00000000
00001000
00000000
00000001
,
00000000
00000001
00000000
00000010
,
00000001
00000010
00000000
00000100
,
00001000
00000100
00000000
00010000
,
00001000
00010000
00000000
01000000
,
10000000
01000000
00000000
01000000
,
10000000
00100000
01000000
00010000
,
00100000
00001000
00010000
00000200
,
00000000
00000300
00000000
00001001
,
00000000
00000000
00000000
00000001
,
00000100
00001000
00000000
00010000
,
01000000
10000000
00000000
10000000
,
01000000
00010000
00000000
00001000
,
00000100
00000001
00000000
00000010
,
00000001
00000100
00000000
00000010
,
00001000
00000100
00000000
00010000
,
00001000
00100000
00000000
00010000
,
10000000
01000000
00200000
00000000
,
00000000
00000000
00300000
00000000
;
