#VERSION:0.83;
#TITLE:Pacify;
#ARTIST:SYUNN;
#BANNER:Pacify.png;
#BACKGROUND:Pacify-bg.png;
#JACKET:Pacify-jacket.png;
#MUSIC:Pacify.ogg;
#OFFSET:-1.015;
#SAMPLESTART:24.33;
#SAMPLELENGTH:15;
#BPMS:0=175;
#STOPS:64=1.029;
#TIMESIGNATURES:0=4=4,64=1=4,65=4=4;

//---------------dance-single - Marten-ESP----------------
#NOTEDATA:;
#CHARTNAME:Marten-ESP;
#STEPSTYPE:dance-single;
#DESCRIPTION:Marten-ESP;
#DIFFICULTY:Hard;
#METER:13;
#RADARVALUES:0.604248,0.662183,0.213863,0.388122,0.106932,534,507,27,49,0,0,0,0,0,0.604248,0.662183,0.213863,0.388122,0.106932,534,507,27,49,0,0,0,0,0;
#CREDIT:Marten;
#NOTES:
// measure 0
0000
0000
0000
0000
,  // measure 1
0000
0000
0000
0000
,  // measure 2
0000
0000
0000
0000
,  // measure 3
0000
0000
0000
0000
,  // measure 4
0000
0000
0000
0000
,  // measure 5
0001
0000
0001
0000
0000
1000
0100
1000
,  // measure 6
0000
1000
0000
0010
0000
0010
0000
0100
,  // measure 7
0010
0000
0010
0000
0000
0100
0000
0100
,  // measure 8
0001
0000
0001
0000
2000
3200
0320
0032
,  // measure 9
1003
0010
0000
0010
1000
0100
1000
0001
,  // measure 10
0000
0000
0100
0001
0100
0000
0010
0000
1000
0000
0001
0000
0010
0000
0001
0000
,  // measure 11
0000
0001
0100
0010
1000
0000
1000
0000
,  // measure 12
0001
0000
0010
0100
0010
0000
0001
0000
1000
0000
0100
0000
0010
0000
0100
0000
,  // measure 13
1000
1000
0001
0001
,  // measure 14
0100
0100
0010
0010
,  // measure 15
1000
0001
0100
0010
0100
0001
1000
0100
,  // measure 16
0010
0000
0000
0000
0011
0000
0000
0000
0001
0000
1000
0010
1000
0000
0001
0000
,  // measure 17
0010
0000
0001
0000
0000
0000
0011
0000
0000
0000
1000
0100
1000
0000
0001
0000
,  // measure 18
0100
0001
1000
0000
0020
0000
1030
0100
,  // measure 19
0000
0000
1100
0000
0000
0000
1000
0010
1000
0000
0001
0000
1000
0000
0010
0000
,  // measure 20
0100
0001
1000
0000
0100
0010
0001
0010
,  // measure 21
0100
0000
1000
0000
0000
0000
1100
0000
0000
0000
1000
0001
1000
0000
0001
0000
,  // measure 22
0100
0010
0100
0000
0002
0000
0013
0001
,  // measure 23
1000
0010
0000
0100
0010
0100
0010
1000
,  // measure 24
0001
0000
0010
0000
0200
0000
0000
0000
1300
0000
0001
0100
0001
0000
1000
0000
,  // measure 25
0010
0110
0000
0110
0000
1000
0010
0010
,  // measure 26
0100
0020
1030
0000
0002
0000
0013
0001
,  // measure 27
1000
0000
0100
0000
0000
0000
1000
0000
0100
0000
0010
0000
0001
0010
0001
0000
,  // measure 28
0010
0001
0010
0000
0000
0000
0000
0000
0100
0000
1000
0000
0100
0000
1000
0000
,  // measure 29
0010
0000
0100
0000
0000
0000
0101
0000
0000
0000
0001
0100
0002
0000
0000
0000
,  // measure 30
1003
0100
0000
0000
0020
0000
0031
1000
,  // measure 31
0010
0000
0100
0000
0000
0000
0001
0100
0001
0000
1000
0000
0001
0000
0010
0000
,  // measure 32
0100
1000
0001
0100
0000
0100
0001
0100
,  // measure 33
0010
0000
1000
0000
0000
0000
0001
1000
0001
0000
1000
0000
0100
0000
0010
0000
,  // measure 34
0100
1000
0000
0001
0100
0010
0100
0000
,  // measure 35
0100
0000
0010
1000
0001
1000
0100
0010
,  // measure 36
0001
0010
0100
1000
0000
0001
0100
0001
,  // measure 37
0010
0000
0100
0000
0000
0000
1000
0010
1000
0000
0100
0000
1000
0000
0010
0000
,  // measure 38
0100
0001
0000
1000
0100
0010
0100
1000
,  // measure 39
0001
0000
0100
0000
0000
0000
0010
0100
0010
0000
1000
0000
0010
0000
0100
0000
,  // measure 40
0020
1030
1200
0010
,  // measure 41
2300
0000
3001
0100
0010
0200
0000
0001
,  // measure 42
0000
0301
1000
0000
1002
0000
0000
0013
,  // measure 43
0001
0100
0000
0020
0000
1030
0020
0000
,  // measure 44
0130
0001
0010
0000
0120
0000
0000
0001
,  // measure 45
0000
0130
0000
2000
0000
3100
1000
0010
,  // measure 46
0100
0001
1000
0000
2010
0000
0000
3010
,  // measure 47
1000
0001
0000
0010
0001
0010
0100
0010
,  // measure 48
0001
1000
0000
0000
0020
0000
0000
0000
,  // measure 49
1030
0002
0000
0000
0000
0023
0000
0230
,  // measure 50
0000
1300
0000
0000
2000
0000
0000
0000
,  // measure 51
3002
0000
1003
0010
2000
0000
0000
0000
,  // measure 52
3001
0000
0000
0000
0010
0100
0010
0100
,  // measure 53
0010
0001
0000
1000
0000
0010
2000
0000
,  // measure 54
3001
0100
0000
0000
0020
0000
0000
0000
,  // measure 55
0230
0000
0301
0100
0010
1000
0001
0010
,  // measure 56
0100
0000
1000
0000
0001
0000
0000
0000
0100
0000
0001
0100
0001
0000
1000
0000
,  // measure 57
0100
0000
0010
0000
0000
0000
0110
0000
0000
0000
0010
0100
0010
0000
0001
0000
,  // measure 58
1000
0001
1000
0000
0020
0000
1030
0002
,  // measure 59
0000
0000
0103
0000
0000
0000
0010
1000
0010
0000
1000
0000
0001
0000
0010
0000
,  // measure 60
0100
0000
1000
0000
0001
0000
0000
0000
1000
0000
0100
1000
0100
0000
0010
0000
,  // measure 61
0100
0000
1000
0000
0000
0000
1100
0000
0000
0000
1000
0010
1000
0000
0001
0000
,  // measure 62
0100
0010
0000
0000
0200
0000
0301
0010
,  // measure 63
0001
0000
1000
0000
0000
0000
0100
1000
0100
0000
0010
0000
0001
0000
0100
0000
,  // measure 64
0010
0000
1000
0000
0002
0000
0000
0000
0013
0000
0001
0100
0001
0000
1000
0000
,  // measure 65
0010
0110
0000
0110
0000
1000
0010
0010
,  // measure 66
0100
0002
0013
0000
0200
0000
1300
0100
,  // measure 67
0010
0000
0001
0000
0000
0000
0100
0000
0001
0000
0100
0000
0010
1000
0010
0000
,  // measure 68
1000
0010
1000
0000
0000
0000
0000
0000
0010
0000
1000
0000
0100
0000
0010
0000
,  // measure 69
0001
0000
0010
0000
0000
0000
0011
0000
0000
0000
0001
1000
0002
0000
0000
0000
,  // measure 70
0103
0001
0000
0000
0200
0000
0310
1000
,  // measure 71
0010
0000
0100
0000
0000
0000
0001
0000
1000
0100
1000
0000
0001
0000
0010
0000
,  // measure 72
0100
1000
0001
0000
0012
0000
0013
0100
,  // measure 73
1000
0002
0000
0100
0000
1000
0000
0013
,  // measure 74
0001
1000
0001
0000
0100
0000
0000
0000
2010
0000
0000
0000
0001
0000
0000
0000
,  // measure 75
0100
3010
1000
2001
,  // measure 76
3001
0000
0100
0001
0102
0000
0010
0000
,  // measure 77
0103
0001
0000
1000
0000
1010
0000
0000
,  // measure 78
1000
0001
0000
0021
0000
0130
0000
1000
,  // measure 79
2100
0001
3010
0002
,  // measure 80
2003
0000
3010
1000
0001
0010
0001
0100
,  // measure 81
0010
0100
0000
0001
1000
0100
0010
0100
,  // measure 82
1000
0001
0000
1000
0010
0100
0010
0000
,  // measure 83
0110
0000
0010
1000
0001
0010
0100
1000
,  // measure 84
0001
0100
0001
0000
0021
0000
0130
1000
,  // measure 85
0001
0000
0100
0000
0000
0000
0010
1000
0010
0000
0100
0000
0001
0000
1000
0000
,  // measure 86
0100
1000
0000
0001
0010
0100
0010
0001
,  // measure 87
1000
0000
0010
1000
0001
0000
0110
0000
,  // measure 88
1001
0000
0000
0000
;

//---------------dance-double - NewbStepper-EDP----------------
#NOTEDATA:;
#CHARTNAME:NewbStepper-EDP;
#STEPSTYPE:dance-double;
#DESCRIPTION:NewbStepper-EDP;
#DIFFICULTY:Hard;
#METER:14;
#RADARVALUES:0.628011,0.663124,0.079209,0.229705,0.205942,555,545,10,29,0,0,0,0,0,0.628011,0.663124,0.079209,0.229705,0.205942,555,545,10,29,0,0,0,0,0;
#CREDIT:NewbStepper;
#NOTES:
00000000
00000000
00000000
00000000
,
00000000
00000000
00000000
00000000
,
00000000
00000000
00000000
00000000
,
00000000
00000000
00000000
00000000
,
00000000
00000000
00000000
00000000
,
00010000
00000000
01000000
00000000
00100000
10000000
01000000
00010000
,
00000000
00001000
00000000
00001000
00000000
00000010
00000001
00000000
,
00000100
00000000
00000001
00001000
00000100
00000010
00001000
00010000
,
00100000
00000000
00100000
10000000
00000000
10000000
00010000
00000000
,
10000000
01000000
00000000
00010000
00001000
00010000
00001000
00000010
,
00000000
00000000
00000100
00001000
00000100
00000000
00000010
00000000
00000001
00000000
00001000
00000000
00000010
00000000
00001000
00000000
,
00000000
00000100
00000010
00001000
00010000
00000000
00100000
00000000
,
10000000
00000000
00010000
00100000
00010000
00000000
10000000
00000000
01000000
00000000
00010000
00000000
00001000
00000000
00000010
00000000
,
00000001
00000001
00000100
00000100
,
00001000
00001000
00010000
00010000
,
00100000
10000000
00010000
00100000
00001000
00010000
00000100
00001000
,
00000001
00000000
00000000
00000000
00001010
00000000
00000000
00000000
00001000
00000000
00000001
00000010
00000001
00000000
00000100
00000000
,
00001000
00000000
00010000
00000000
00000000
00000000
00100000
10000000
00000000
00000000
01000000
00000000
00010000
00000000
01000000
00000000
,
00100000
00010000
00000000
00000000
00002000
00000000
00003010
00000100
,
00000001
00001000
00000001
00000000
00000000
00000000
00000100
00001000
00000100
00000000
00001000
00000000
00010000
00000000
00100000
00000000
,
10000000
00000000
01000000
00000000
00000000
00000000
00000000
00000000
00010000
00000000
00001000
00010000
00001000
00000000
00000010
00000000
,
00000001
00000000
00000100
00000000
00000000
00000000
00001000
00010000
00000000
00000000
00100000
10000000
00100000
00000000
10000000
00000000
,
01000000
00010000
00000000
00000000
00002000
00000000
00013000
00000100
,
00000010
00000001
00000010
00000000
00000000
00000000
00000001
00000000
00000100
00000000
00001000
00000000
00010000
00000000
01000000
00000000
,
10000000
00000000
00010000
00000000
00000000
00000000
00000000
00000000
01000000
00000000
00100000
10000000
00100000
00000000
00010000
00000000
,
00001000
00000100
00000000
00000001
00000000
00000010
00001000
00010000
,
00010000
00001000
00000000
00000000
02000000
00000000
03100000
10000000
,
00010000
01000000
00010000
00000000
00000000
00000000
10000000
01000000
10000000
00000000
01000000
00000000
00010000
00001000
00010000
00000000
,
00000010
00001000
00000010
00000000
00000000
00000000
00000000
00000000
00000100
00000000
00000001
00000100
00000001
00000000
00000100
00000000
,
00001000
00000000
00010000
00000000
00000000
00000000
00100000
00000000
00000000
00000000
10000000
00010000
20000000
00000000
00000000
00000000
,
31000000
00010000
00000000
00000000
00002000
00000000
00003010
00000001
,
00000100
00000010
00000100
00000000
00000000
00000000
00001000
00000000
00010000
00000000
00100000
00000000
10000000
01000000
10000000
00000000
,
00010000
01000000
00100000
00010000
00000000
00001000
00000010
00000001
,
00000100
00000000
00000001
00000000
00000000
00000000
00001000
00000010
00001000
00000000
00000001
00000000
00000100
00000000
00001000
00000000
,
00010000
00100000
00000000
10000000
01000000
00010000
00011000
00000000
,
00000110
00000000
00000000
00000000
00000001
00000000
00000100
00000010
00000100
00000000
00000001
00000000
00000100
00000000
00001000
00000000
,
00010000
00001000
00000010
00001000
00000000
00010000
00100000
10000000
,
10000000
00000000
01000000
00000000
00000000
00000000
00010000
00001000
00010000
00000000
00100000
00000000
01000000
00000000
00100000
10000000
,
00100000
00010000
00000000
00001000
00000010
00000001
00000100
00001000
,
00000100
00000000
00000001
00000000
00000000
00000000
00001000
00000100
00001000
00000000
00000010
00000000
00010000
00000000
00001000
00000000
,
00011000
00000000
00100000
10000000
00020000
00000000
00000000
00000000
,
20030000
00000000
31000000
00010000
00001000
00000200
00000000
00000302
,
00000000
00001003
00000000
00000000
00002001
00000000
00000000
00003010
,
00000100
00001000
00000000
00020000
00000000
00130000
20000000
00000000
,
30100000
01000000
00000000
00000000
10020000
00000000
00000000
01000000
,
00000000
10030000
00000000
02000000
00000000
03010000
00001000
00000010
,
00000001
00000100
00000000
00000000
00000020
00000000
00000030
00001000
,
00000001
00000000
00000100
00000000
00000000
00000000
00001000
00010000
00001000
00010000
00001000
00000000
00100000
00000000
00010000
00000000
,
10000000
01000000
00000000
00000000
00200000
00000000
00000000
00000000
,
00310000
20000000
00000000
00000000
00000000
32000000
00000000
03020000
,
00000000
00031000
00000000
00000000
00000020
00000000
00000000
00000000
,
00000031
00000000
00000100
00000010
00000200
00000000
00000000
00000000
,
00001300
00000000
00000000
00000000
00010000
00100000
10000000
00010000
,
10000000
01000000
00000000
00010000
00000000
00001000
00000020
00000000
,
00000031
00000100
00000000
00000000
00000020
00000000
00000000
00000000
,
00002030
00000000
00003001
00000100
00000010
00001000
00010000
01000000
,
00100000
00000000
10000000
00000000
10010000
00000000
00000000
00000000
00010000
00000000
10000000
00100000
10000000
00000000
01000000
00000000
,
00010000
00000000
00001000
00000000
00000000
00000000
00000010
00000001
00000000
00000000
00000100
00000000
00001000
00000000
00000100
00000000
,
00000010
00001000
00000000
00000000
00020000
00000000
00130000
01000000
,
10000000
00010000
10000000
00000000
00000000
00000000
01000000
00010000
01000000
00000000
00010000
00000000
00001000
00000000
00000010
00000000
,
00000001
00000000
00000100
00000000
00000000
00000000
00000000
00000000
00001000
00000000
00010000
00001000
00010000
00000000
00100000
00000000
,
10000000
00000000
01000000
00000000
00000000
00000000
00010000
00001000
00000000
00000000
00000010
00000001
00000010
00000000
00000001
00000000
,
00000100
00001000
00000000
00000000
00020000
00000000
00031000
01000000
,
00100000
10000000
00100000
00000000
00000000
00000000
10000000
00000000
01000000
00000000
00010000
00000000
00001000
00000000
00000100
00000000
,
00000001
00000000
00001000
00000000
00000000
00000000
00000000
00000000
00000100
00000000
00000010
00000001
00000010
00000000
00001000
00000000
,
00010000
01000000
00000000
10000000
00000000
00100000
00010000
00001000
,
00001000
00010000
00000000
00000000
00000200
00000000
00000310
00000001
,
00001000
00000100
00001000
00000000
00000000
00000000
00000001
00000100
00000001
00000000
00000100
00000000
00001000
00010000
00001000
00000000
,
00100000
00010000
00100000
00000000
00000000
00000000
00000000
00000000
01000000
00000000
10000000
01000000
10000000
00000000
01000000
00000000
,
00010000
00000000
00001000
00000000
00000000
00000000
00000010
00000000
00000000
00000000
00000001
00001000
00000002
00000000
00000000
00000000
,
00000103
00001000
00000000
00000000
00020000
00000000
00130000
10000000
,
01000000
00100000
01000000
00000000
00000000
00000000
00010000
00000000
00001000
00000000
00000010
00000000
00000001
00000100
00000001
00000000
,
00001001
00000000
00000001
00000100
00000000
00001000
00010000
00001000
,
00010000
00000000
00100000
00000000
00000000
00000000
01000000
00010000
01000000
00000000
00100000
00000000
10000000
00000000
00010000
00000000
,
00100000
00010000
00000000
01000000
00100000
00010000
00001000
00000000
,
00000010
00000000
00000000
00000000
00000001
00000000
00001000
00000010
00001000
00000000
00000001
00000000
00000100
00000000
00001000
00000000
,
00010000
00100000
10000000
01000000
00000000
00010000
00001000
00010000
,
00001000
00000000
00000010
00000000
00000000
00000000
00000100
00001000
00000100
00000000
00000010
00000000
00000001
00000000
00001000
00000000
,
00000010
00001000
00000000
00000100
00000010
00001000
00010000
00100000
,
10000000
00000000
00010000
00000000
00000000
00000000
10000000
00100000
10000000
00000000
01000000
00000000
00010000
00000000
00001000
00000000
,
00000100
00000001
00000010
00001000
00000000
00010000
00100000
10000000
,
01000000
00000000
10000000
00000000
00000000
00000000
00010000
00100000
00010000
00000000
10000000
00000000
01000000
00000000
00010000
00000000
,
00001000
00000010
00000000
00000001
00000100
00001000
00011000
00000000
,
01100000
00000000
00000000
00000000
10000000
00000000
01000000
00100000
01000000
00000000
10000000
00000000
01000000
00000000
00010000
00000000
,
00001000
00010000
00100000
00010000
00000000
00001000
00000010
00000001
,
00000001
00000000
00000100
00000000
00000000
00000000
00001000
00010000
00001000
00000000
00000010
00000000
00000100
00000000
00000010
00000001
,
00000010
00001000
00000000
00010000
00100000
10000000
01000000
00010000
,
01000000
00000000
10000000
00000000
00000000
00000000
00010000
01000000
00010000
00000000
00100000
00000000
00001000
00000000
00010000
00000000
,
00001000
00000010
00000000
00000000
00000000
00000000
00000000
00000000
;

//---------------dance-single - NewbStepper-DSP----------------
#NOTEDATA:;
#CHARTNAME:NewbStepper-DSP;
#STEPSTYPE:dance-single;
#DESCRIPTION:NewbStepper-DSP;
#DIFFICULTY:Medium;
#METER:11;
#RADARVALUES:0.454883,0.522776,0.087129,0.102971,0,402,391,11,13,0,0,0,0,0,0.454883,0.522776,0.087129,0.102971,0,402,391,11,13,0,0,0,0,0;
#CREDIT:NewbStepper;
#NOTES:
// measure 0
0000
0000
0000
0000
,  // measure 1
0000
0000
0000
0000
,  // measure 2
0000
0000
0000
0000
,  // measure 3
0000
0000
0000
0000
,  // measure 4
0000
0000
0000
0000
,  // measure 5
1000
0000
0000
0000
0001
0000
0000
0100
,  // measure 6
0000
0100
0000
0010
0000
0000
1000
0000
,  // measure 7
0000
0000
0001
0010
0001
0000
1000
0000
,  // measure 8
0100
0000
0100
0020
0000
0000
0030
0000
,  // measure 9
0001
0000
0100
0000
0010
1000
0010
1000
,  // measure 10
0000
0100
0010
0000
0100
0000
1001
0000
,  // measure 11
0000
1000
0100
0000
0010
0000
0010
0000
,  // measure 12
0001
0100
1000
0100
0001
0100
0010
0000
,  // measure 13
1000
1000
0100
0100
,  // measure 14
0010
0010
0001
0001
,  // measure 15
1000
0100
0001
0000
0001
0100
1000
0000
,  // measure 16
0010
0000
1001
0000
0100
0000
0010
0100
,  // measure 17
0001
0010
0000
0100
0000
1000
0001
0100
,  // measure 18
0001
0100
0000
0000
0010
0000
1000
0100
,  // measure 19
1000
0100
0000
0010
0001
1000
0010
1000
,  // measure 20
0001
0010
0000
0000
0001
0000
0010
0100
,  // measure 21
1000
0010
0000
0100
0000
0001
0010
0001
,  // measure 22
0010
0100
0000
0000
2000
0000
3001
0100
,  // measure 23
0010
0100
0000
0001
1000
0001
0100
0001
,  // measure 24
1000
0100
0000
0000
0010
0000
0001
0000
,  // measure 25
0100
0010
0000
1000
0000
0001
0100
0001
,  // measure 26
0100
0010
0000
0000
0010
0000
1000
0001
,  // measure 27
1000
0100
0000
0000
0010
0000
0001
0100
,  // measure 28
0001
0100
0000
0000
0010
0000
1000
0001
,  // measure 29
1000
0100
0000
0010
0000
0100
1000
0000
,  // measure 30
0001
0100
0000
0000
0010
0000
1000
0100
,  // measure 31
0010
0001
0000
0000
0100
0010
0100
1000
,  // measure 32
0100
0001
0010
0010
0000
0001
0100
0010
,  // measure 33
0100
0010
0000
1000
0001
1000
0100
0000
,  // measure 34
0010
0001
0000
0100
0010
0000
1000
0000
,  // measure 35
1001
0000
0010
0001
0100
0010
1000
0001
,  // measure 36
0100
0000
0010
0010
0000
1000
0001
0100
,  // measure 37
0100
0010
0000
1000
0001
0000
0100
0000
,  // measure 38
0010
0000
0000
1000
0100
1000
0100
0010
,  // measure 39
0001
0010
0000
0001
0100
0010
1000
0000
,  // measure 40
1001
0100
0020
0000
,  // measure 41
2030
3002
0203
2300
,  // measure 42
3020
0032
0203
0000
,  // measure 43
0010
0310
1000
0001
,  // measure 44
0100
0000
0000
0000
0020
0000
0000
1000
,  // measure 45
0000
0100
0000
1030
0000
0001
0100
0000
,  // measure 46
0010
0000
0000
0000
2000
0000
3000
0001
,  // measure 47
0100
0001
0000
1000
0100
0010
0001
0100
,  // measure 48
0010
1000
0000
0000
0000
0000
0000
0000
,  // measure 49
0000
0000
0000
0000
,  // measure 50
0000
0000
0000
0000
,  // measure 51
0000
0000
0000
0000
,  // measure 52
0000
0000
0000
0000
,  // measure 53
0000
0000
0000
0000
,  // measure 54
0000
0000
0000
0000
,  // measure 55
0000
0000
0000
0000
,  // measure 56
0010
0000
1001
0000
0100
0000
0010
0100
,  // measure 57
1000
0010
0000
0100
0000
0001
1000
0100
,  // measure 58
1000
0100
0000
0000
0010
0000
0001
0100
,  // measure 59
0001
0100
0000
0010
1000
0001
0010
0001
,  // measure 60
1000
0010
0000
0000
1000
0000
0010
0100
,  // measure 61
0001
0010
0000
0100
0000
1000
0010
1000
,  // measure 62
0010
0100
0000
0000
0002
0000
1003
0100
,  // measure 63
0010
0100
0000
1000
0001
1000
0100
1000
,  // measure 64
0001
0100
0000
0000
0010
0000
1000
0000
,  // measure 65
0100
0010
0000
0001
0000
1000
0100
1000
,  // measure 66
0100
0010
0000
0000
0010
0000
0001
1000
,  // measure 67
0001
0100
0000
0000
0010
0000
1000
0100
,  // measure 68
1000
0100
0000
0000
0010
0000
0001
1000
,  // measure 69
0001
0100
0000
0010
0000
0100
0001
0000
,  // measure 70
1000
0100
0000
0000
0010
0000
0001
0100
,  // measure 71
0010
1000
0000
0000
0100
0010
0100
0000
,  // measure 72
1001
0000
1000
0000
0100
0000
0010
0001
,  // measure 73
0010
0001
0000
0100
0010
0000
0100
0000
,  // measure 74
1001
0000
0000
0001
0100
0000
0010
0000
,  // measure 75
0010
0000
1000
0100
0001
0100
1000
0100
,  // measure 76
0010
0000
0001
0000
0100
0000
0010
1000
,  // measure 77
0010
1000
0000
0100
0010
0000
0100
0000
,  // measure 78
1001
0000
0000
1000
0100
0000
0010
0000
,  // measure 79
0010
0000
0001
0100
1000
0100
0001
0000
,  // measure 80
1001
0000
0010
0010
0000
1000
0100
0010
,  // measure 81
0100
0010
0000
0001
1000
0001
0100
0000
,  // measure 82
0010
1000
0000
0100
0010
0000
0001
0000
,  // measure 83
1001
0000
0010
1000
0100
0010
0001
1000
,  // measure 84
0100
0000
0010
0010
0000
0001
1000
0100
,  // measure 85
0100
0010
0000
0001
1000
0000
0100
0000
,  // measure 86
0010
0000
0000
0001
0100
0001
0100
0010
,  // measure 87
1000
0010
0000
1000
0100
0010
0001
0000
,  // measure 88
1001
0000
0000
0000
;

//---------------dance-single - NewbStepper-BSP----------------
#NOTEDATA:;
#CHARTNAME:NewbStepper-BSP;
#STEPSTYPE:dance-single;
#DESCRIPTION:NewbStepper-BSP;
#DIFFICULTY:Easy;
#METER:5;
#RADARVALUES:0.217258,0.313666,0.071288,0.221784,0,192,183,9,28,0,0,0,0,0,0.217258,0.313666,0.071288,0.221784,0,192,183,9,28,0,0,0,0,0;
#CREDIT:NewbStepper;
#NOTES:
// measure 0
0000
0000
0000
0000
,  // measure 1
0000
0000
0000
0000
,  // measure 2
0000
0000
0000
0000
,  // measure 3
0000
0000
0000
0000
,  // measure 4
0000
0000
0000
0000
,  // measure 5
0020
0000
0000
0000
,  // measure 6
0000
0000
0000
0030
,  // measure 7
0200
0000
0000
0000
,  // measure 8
0000
0000
0000
0300
,  // measure 9
0001
0100
0001
0100
,  // measure 10
0000
0010
1000
0010
,  // measure 11
0000
1000
0000
0001
,  // measure 12
0000
0100
0000
0100
,  // measure 13
0010
0010
0010
0010
,  // measure 14
1000
1000
1000
1000
,  // measure 15
0001
0001
0001
0001
,  // measure 16
0100
0010
1000
0010
,  // measure 17
0100
0000
0001
1000
,  // measure 18
0000
0010
0000
0100
,  // measure 19
0000
0001
1000
0001
,  // measure 20
0000
0100
0000
0000
,  // measure 21
0010
0010
0000
0000
,  // measure 22
1000
0001
0000
0100
,  // measure 23
0000
0020
0000
0200
,  // measure 24
0000
0330
0000
1001
,  // measure 25
0000
0010
0100
0100
,  // measure 26
0000
0002
0003
2000
,  // measure 27
3000
0020
0030
0200
,  // measure 28
0300
1001
0000
0000
,  // measure 29
1000
0100
0100
0010
,  // measure 30
0001
0200
0000
0320
,  // measure 31
0000
2030
0000
3001
,  // measure 32
0000
1000
0100
1000
,  // measure 33
0001
0000
0100
0010
,  // measure 34
0100
0000
0001
1000
,  // measure 35
0100
0010
0001
1000
,  // measure 36
0000
0001
0100
0001
,  // measure 37
1000
0000
0100
0010
,  // measure 38
0100
0000
1000
0001
,  // measure 39
0100
0010
1000
0001
,  // measure 40
1001
0000
0020
0000
,  // measure 41
0000
0000
0000
0000
,  // measure 42
0030
0000
2000
0000
,  // measure 43
0000
0000
0000
0000
,  // measure 44
3000
0000
0002
0000
,  // measure 45
0000
0000
0000
0000
,  // measure 46
0003
0000
0020
0000
,  // measure 47
0000
0000
0000
0000
,  // measure 48
0030
0000
0000
0000
,  // measure 49
0000
0000
0000
0000
,  // measure 50
0000
0000
0000
0000
,  // measure 51
0000
0000
0000
0000
,  // measure 52
0000
0000
0000
0000
,  // measure 53
0000
0000
0000
0000
,  // measure 54
0000
0000
0000
0000
,  // measure 55
0000
0000
0000
0000
,  // measure 56
0000
1001
0200
0000
,  // measure 57
0300
0010
0100
0100
,  // measure 58
0000
2000
3000
0002
,  // measure 59
0003
0020
0030
0200
,  // measure 60
0300
1001
0000
0000
,  // measure 61
0001
0100
0100
0010
,  // measure 62
1000
0200
0000
0320
,  // measure 63
0000
0032
0000
1003
,  // measure 64
0000
0000
1001
0000
,  // measure 65
0000
0010
0100
0100
,  // measure 66
0000
0002
0003
2000
,  // measure 67
3000
0020
0030
0200
,  // measure 68
0300
1001
0000
0000
,  // measure 69
1000
0001
1000
0001
,  // measure 70
0100
0020
0000
0000
,  // measure 71
0000
0000
0030
0000
,  // measure 72
1001
0001
0100
0001
,  // measure 73
1000
0000
0100
0010
,  // measure 74
0100
0000
1000
0001
,  // measure 75
0100
0010
1000
0001
,  // measure 76
0000
1000
0100
1000
,  // measure 77
0001
0000
0100
0010
,  // measure 78
0100
0000
0001
1000
,  // measure 79
0100
0010
0001
1000
,  // measure 80
0001
1000
0010
1000
,  // measure 81
0001
0000
0010
0100
,  // measure 82
0010
0000
0001
1000
,  // measure 83
0010
0100
0001
1000
,  // measure 84
0000
0001
0010
0001
,  // measure 85
1000
0000
0010
0100
,  // measure 86
0010
0000
1000
0001
,  // measure 87
0010
0100
1000
0001
,  // measure 88
1001
0000
0000
0000
;

//---------------dance-single - NewbStepper-bSP----------------
#NOTEDATA:;
#CHARTNAME:NewbStepper-bSP;
#STEPSTYPE:dance-single;
#DESCRIPTION:NewbStepper-bSP;
#DIFFICULTY:Beginner;
#METER:2;
#RADARVALUES:0.093919,0.173764,0.015842,0,0,83,81,2,0,0,0,0,0,0,0.093919,0.173764,0.015842,0,0,83,81,2,0,0,0,0,0,0;
#CREDIT:NewbStepper;
#NOTES:
// measure 0
0000
0000
0000
0000
,  // measure 1
0000
0000
0000
0000
,  // measure 2
0000
0000
0000
0000
,  // measure 3
0000
0000
0000
0000
,  // measure 4
0000
0000
0000
0000
,  // measure 5
1000
0000
0000
0000
,  // measure 6
0000
0000
0000
0000
,  // measure 7
0000
0000
0000
0000
,  // measure 8
0000
0000
0000
0000
,  // measure 9
0001
0000
0000
0000
,  // measure 10
0000
0000
0000
0000
,  // measure 11
1000
0000
0000
0000
,  // measure 12
0000
0000
0000
0000
,  // measure 13
0001
0000
0000
0000
,  // measure 14
0001
0000
0000
0000
,  // measure 15
1000
0000
0000
0000
,  // measure 16
1000
0000
0000
0100
,  // measure 17
0000
0000
0000
0010
,  // measure 18
0000
0000
0000
0100
,  // measure 19
0000
0000
0000
1000
,  // measure 20
0000
0000
0000
0001
,  // measure 21
0000
0000
0000
1000
,  // measure 22
0000
0000
0000
0010
,  // measure 23
0000
0000
0000
0000
,  // measure 24
0000
0000
1001
0000
,  // measure 25
0000
0100
0000
0000
,  // measure 26
0000
0100
0000
0000
,  // measure 27
0000
0100
0000
0000
,  // measure 28
0000
0001
0000
0000
,  // measure 29
0000
1000
0000
0000
,  // measure 30
0000
0100
0000
0100
,  // measure 31
0000
0100
0000
0100
,  // measure 32
0000
1000
0000
0000
,  // measure 33
0000
1000
0000
0000
,  // measure 34
0000
0001
0000
0000
,  // measure 35
0000
0001
0000
0000
,  // measure 36
0000
1000
0000
0000
,  // measure 37
0000
1000
0000
0000
,  // measure 38
0000
0001
0000
0000
,  // measure 39
0000
0001
0000
0000
,  // measure 40
1001
0000
0100
0000
,  // measure 41
0000
0000
0100
0000
,  // measure 42
0000
0000
0100
0000
,  // measure 43
0000
0000
0100
0000
,  // measure 44
0000
0000
0010
0000
,  // measure 45
0010
0000
0010
0000
,  // measure 46
0010
0000
1000
0000
,  // measure 47
0001
0000
1000
0000
,  // measure 48
0001
0000
0000
0000
,  // measure 49
0000
0000
0000
0000
,  // measure 50
0000
0000
0000
0000
,  // measure 51
0000
0000
0000
0000
,  // measure 52
0000
0000
0000
0000
,  // measure 53
0000
0000
0000
0000
,  // measure 54
0000
0000
0000
0000
,  // measure 55
0000
0000
0000
0000
,  // measure 56
0000
0000
0100
0000
,  // measure 57
0000
0000
0010
0000
,  // measure 58
0000
0000
0100
0000
,  // measure 59
0000
0000
0001
0000
,  // measure 60
0000
0000
1000
0000
,  // measure 61
0000
0000
0001
0000
,  // measure 62
0000
0000
0010
0000
,  // measure 63
0000
0000
0000
0000
,  // measure 64
0000
0000
0100
0000
,  // measure 65
0000
0000
0010
0000
,  // measure 66
0000
0000
0100
0000
,  // measure 67
0000
0000
1000
0000
,  // measure 68
0000
0000
0001
0000
,  // measure 69
0000
0000
1000
0000
,  // measure 70
0000
0000
0010
0000
,  // measure 71
0000
0000
1000
0000
,  // measure 72
0000
0001
0000
0000
,  // measure 73
0000
0001
0000
0000
,  // measure 74
0000
1000
0000
0000
,  // measure 75
0000
1000
0000
0000
,  // measure 76
0000
0001
0000
0000
,  // measure 77
0000
0001
0000
0000
,  // measure 78
0000
1000
0000
0000
,  // measure 79
0000
1000
0000
0000
,  // measure 80
0000
0010
0000
0100
,  // measure 81
0000
0010
0000
0000
,  // measure 82
0000
0001
0000
1000
,  // measure 83
0000
0001
0000
0000
,  // measure 84
0000
0100
0000
0010
,  // measure 85
0000
0100
0000
0000
,  // measure 86
0000
1000
0000
0001
,  // measure 87
0000
1000
0000
0001
;

//---------------dance-double - NewbStepper-DDP----------------
#NOTEDATA:;
#CHARTNAME:NewbStepper-DDP;
#STEPSTYPE:dance-double;
#DESCRIPTION:NewbStepper-DDP;
#DIFFICULTY:Medium;
#METER:11;
#RADARVALUES:0.446963,0.522776,0.039604,0.102971,0,395,390,5,13,0,0,0,0,0,0.446963,0.522776,0.039604,0.102971,0,395,390,5,13,0,0,0,0,0;
#CREDIT:NewbStepper;
#NOTES:
00000000
00000000
00000000
00000000
,
00000000
00000000
00000000
00000000
,
00000000
00000000
00000000
00000000
,
00000000
00000000
00000000
00000000
,
00000000
00000000
00000000
00000000
,
00010000
00000000
00000000
00000000
00001000
00000000
00000000
01000000
,
00000000
01000000
00000000
00100000
00000000
00000000
10000000
00000000
,
00000000
00000000
01000000
00010000
01000000
00000000
00010000
00000000
,
00001000
00000000
00001000
00000200
00000000
00000000
00000300
00000000
,
00000001
00000000
00000100
00000000
00000010
00000000
00001000
00000100
,
00000000
00000010
00001000
00000000
00010000
00000000
00100000
00000000
,
00000000
10000000
01000000
00000000
00010000
00000000
00001000
00000000
,
00000010
00000000
00000001
00000000
00000100
00000001
00001000
00000000
,
00000001
00000001
00000100
00000100
,
00001000
00001000
00010000
00010000
,
00100000
10000000
01000000
00000000
00010000
00001000
00000100
00000000
,
00001000
00000000
00011000
00000000
00000010
00000000
00000001
00000100
,
00000010
00001000
00000000
00000100
00000000
00000010
00001000
00010000
,
00001000
00010000
00000000
00000000
00100000
00000000
10000000
00010000
,
10000000
00010000
00000000
01000000
00100000
00000000
00010000
00001000
,
00010000
00001000
00000000
00000000
00000100
00000000
00000001
00000010
,
00000100
00001000
00000000
00000010
00000000
00000100
00001000
00010000
,
00001000
00010000
00000000
00000000
01000000
00000000
10000000
00010000
,
10000000
00010000
00000000
00100000
01000000
00000000
00010000
00001000
,
00010000
00001000
00000000
00000000
00000020
00000000
00000031
00000100
,
00000010
00000100
00000000
00001000
00000000
00010000
01000000
10000000
,
00010000
01000000
00000000
00000000
00100000
00000000
10000000
00010000
,
10000000
01000000
00000000
00010000
00001000
00010000
00000010
00001000
,
00000001
00001000
00000000
00000000
00000001
00000000
00001000
00000100
,
00000010
00000100
00000000
00010000
00000000
00001000
00100000
00000000
,
00010000
01000000
00000000
00000000
00100000
00000000
10000000
01000000
,
00010000
00001000
00000000
00000010
00000001
00001000
00000001
00000100
,
00001000
00000100
00000010
00000010
00000000
00010000
00001000
01000000
,
00001000
01000000
00000000
00100000
10000000
00010000
00100000
00000000
,
01000000
10000000
00000000
10000000
00100000
00010000
00001000
00000000
,
00001000
00000000
00000010
00000000
00000001
00000100
00000001
00001000
,
00000100
00000010
00000100
00000100
00000000
00010000
00001000
00100000
,
00001000
00100000
00000000
01000000
10000000
00010000
01000000
00000000
,
00100000
00000000
00000000
10000000
01000000
10000000
00010000
00100000
,
00001000
00010000
00000000
00000100
00001000
00000000
00000001
00000000
,
00001001
00000100
00000020
00000000
,
00002030
00023000
02030000
23000000
,
30200000
00320000
00032000
00000000
,
00100000
00103000
00010000
10000000
,
01000000
00000000
00000000
00000000
00200000
00000000
00000000
00001000
,
00000000
00010000
00000000
00301000
00000000
00000000
00000010
00000000
,
00000001
00000000
00001000
00000000
00000002
00000000
00000003
00001000
,
00000100
00001000
00000000
00000001
00000100
00000010
00010000
00001000
,
00100000
00010000
00000000
00000000
00000000
00000000
00000000
00000000
,
00000000
00000000
00000000
00000000
,
00000000
00000000
00000000
00000000
,
00000000
00000000
00000000
00000000
,
00000000
00000000
00000000
00000000
,
00000000
00000000
00000000
00000000
,
00000000
00000000
00000000
00000000
,
00000000
00000000
00000000
00000000
,
01000000
00000000
10010000
00000000
00100000
00000000
10000000
01000000
,
00100000
00010000
00000000
01000000
00000000
00100000
00010000
00001000
,
00010000
00001000
00000000
00000000
00000010
00000000
00000001
00001000
,
00000001
00001000
00000000
00000100
00000010
00000000
00001000
00010000
,
00001000
00010000
00000000
00000000
01000000
00000000
10000000
00100000
,
01000000
00010000
00000000
00100000
00000000
01000000
00010000
00001000
,
00010000
00001000
00000000
00000000
00000100
00000000
00000001
00001000
,
00000001
00001000
00000000
00000010
00000100
00000000
00001000
00010000
,
00001000
00010000
00000000
00000000
00200000
00000000
10300000
01000000
,
00100000
01000000
00000000
00010000
00000000
00001000
00000100
00000001
,
00001000
00000100
00000000
00000000
00000010
00000000
00000001
00001000
,
00000001
00000100
00000000
00001000
00010000
00001000
00100000
00010000
,
10000000
00010000
00000000
00000000
10000000
00000000
00010000
01000000
,
00100000
01000000
00000000
00001000
00000000
00010000
00000010
00000000
,
00001000
00000100
00000000
00000000
00000010
00000000
00000001
00000100
,
00001000
00010000
00000000
00100000
10000000
00010000
10000000
01000000
,
01100000
10000000
01000000
00100000
,
00010000
01000000
00000000
00100000
00010000
00000000
00001000
00000000
,
00000010
00000000
00000000
00000001
00000100
00000000
00001000
00000000
,
00010000
00000000
00100000
00000000
10000000
00000000
01000000
10000000
,
00010000
10000000
00100000
01000000
,
00010000
00100000
00000000
01000000
00010000
00000000
00001000
00000000
,
00000100
00000000
00000000
00000001
00000010
00000000
00001000
00000000
,
00010000
00000000
01000000
00000000
10000000
00000000
00100000
10000000
,
00010000
00000000
00100000
00100000
00000000
00001000
00010000
00000100
,
00010000
00000100
00000000
00000010
00000001
00001000
00000010
00000000
,
00000100
00000001
00000000
00000001
00000010
00001000
00010000
00000000
,
00010000
00000000
00100000
00000000
10000000
01000000
10000000
00010000
,
01000000
00100000
01000000
01000000
00000000
00001000
00010000
00000010
,
00010000
00000010
00000000
00000100
00000001
00001000
00000100
00000000
,
00000010
00000000
00000000
00000001
00000100
00000001
00001000
00000010
,
00010000
00001000
00000000
01000000
00010000
00000000
10000000
00000000
,
10010000
00000000
00000000
00000000
;

//---------------dance-double - NewbStepper-BDP----------------
#NOTEDATA:;
#CHARTNAME:NewbStepper-BDP;
#STEPSTYPE:dance-double;
#DESCRIPTION:NewbStepper-BDP;
#DIFFICULTY:Easy;
#METER:6;
#RADARVALUES:0.216126,0.313666,0.055446,0.190101,0,191,184,7,24,0,0,0,0,0,0.216126,0.313666,0.055446,0.190101,0,191,184,7,24,0,0,0,0,0;
#CREDIT:NewbStepper;
#NOTES:
00000000
00000000
00000000
00000000
,
00000000
00000000
00000000
00000000
,
00000000
00000000
00000000
00000000
,
00000000
00000000
00000000
00000000
,
00000000
00000000
00000000
00000000
,
00000020
00000000
00000000
00000000
,
00000000
00000000
00000000
00000030
,
00002000
00000000
00000000
00000000
,
00000000
00000000
00000000
00003000
,
00000001
00000100
00000001
00000100
,
00000000
00000010
00001000
00000010
,
00000000
00010000
00000000
00001000
,
00000000
01000000
00000000
01000000
,
00100000
00100000
00100000
00100000
,
10000000
10000000
10000000
10000000
,
00010000
00010000
00010000
00010000
,
01000000
00100000
10000000
00010000
,
00100000
00000000
00001000
00010000
,
00000000
00000010
00000000
00000100
,
00000000
00000001
00001000
00000001
,
00000000
00000100
00000000
00000000
,
00000010
00000010
00000000
00000000
,
00010000
00001000
00000000
01000000
,
00000000
00200000
00000000
02000000
,
00000000
03300000
00000000
10010000
,
00000000
00100000
01000000
01000000
,
00000000
00002000
00003000
00020000
,
00030000
00000020
00000030
00000200
,
00000300
00001001
00000000
00000000
,
00000001
00000100
00000100
00000010
,
00010000
00002000
00000000
00203000
,
00000000
00320000
00000000
10030000
,
00000000
00010000
01000000
00010000
,
10000000
00000000
01000000
00100000
,
01000000
00000000
10000000
01000000
,
00010000
00001000
00000100
00000001
,
00000000
00001000
00000100
00001000
,
00000001
00000000
00000100
00000010
,
00000100
00000000
00000001
00000100
,
00001000
00010000
01000000
10000000
,
10010000
00000000
00200000
00000000
,
00000000
00000000
00000000
00000000
,
00300000
00000000
20000000
00000000
,
00000000
00000000
00000000
00000000
,
30000000
00000000
00020000
00000000
,
00000000
00000000
00000000
00000000
,
00030000
00000000
00002000
00000000
,
00000000
00000000
00000000
00000000
,
00003000
00000000
00000000
00000000
,
00000000
00000000
00000000
00000000
,
00000000
00000000
00000000
00000000
,
00000000
00000000
00000000
00000000
,
00000000
00000000
00000000
00000000
,
00000000
00000000
00000000
00000000
,
00000000
00000000
00000000
00000000
,
00000000
00000000
00000000
00000000
,
00000000
00001001
00000001
00001000
,
00000010
00000000
00010000
00001000
,
00000000
00100000
00000000
01000000
,
00000000
10000000
00010000
10000000
,
00000000
01000000
00000000
00000000
,
00100000
00100000
00000000
00000000
,
00001000
00010000
00000000
00000100
,
00000000
00000020
00000000
00000200
,
00000000
00000330
00000000
00001001
,
00000000
00000010
00000100
00000100
,
00000000
00020000
00030000
00002000
,
00003000
00200000
00300000
02000000
,
03000000
10010000
00000000
00000000
,
10000000
01000000
01000000
00100000
,
00001000
00020000
00000000
00030020
,
00000000
00002030
00000000
00003001
,
00000000
00001000
00000100
00001000
,
00000001
00000000
00000100
00000010
,
00000100
00000000
00000001
00000100
,
00001000
00010000
01000000
10000000
,
00000000
00010000
01000000
00010000
,
10000000
00000000
01000000
00100000
,
01000000
00000000
10000000
01000000
,
00010000
00001000
00000100
00000001
,
00000000
00001000
00000010
00001000
,
00000001
00000000
00000010
00000100
,
00000010
00000000
00000001
00000010
,
00001000
00010000
00100000
10000000
,
00000000
00010000
00100000
00010000
,
10000000
00000000
00100000
01000000
,
00100000
00000000
10000000
00100000
,
00010000
00001000
00000010
00000001
,
00001001
00000000
00000000
00000000
;
