#VERSION:0.83;
#TITLE:PSYCHE PLANET-SYNTH1;
#ARTIST:funkyzukin;
#BANNER:PSYCHE PLANET-SYNTH1.png;
#BACKGROUND:PSYCHE PLANET-SYNTH1-bg.png;
#JACKET:PSYCHE PLANET-SYNTH1-jacket.png;
#MUSIC:PSYCHE PLANET-SYNTH1.ogg;
#SAMPLESTART:75.296;
#SAMPLELENGTH:15;
#DISPLAYBPM:77:153;
#BPMS:0=153,184=76.5,187=306,191=153;
#TIMESIGNATURES:0=4=4,184=3=4,187=4=4;

//---------------dance-single - NewbStepper-ESP----------------
#NOTEDATA:;
#CHARTNAME:NewbStepper-ESP;
#STEPSTYPE:dance-single;
#DESCRIPTION:NewbStepper-ESP;
#DIFFICULTY:Hard;
#METER:15;
#RADARVALUES:0.735594,0.942125,0.249600,0.147911,0.707201,557,530,27,16,0,0,0,0,0,0.735594,0.942125,0.249600,0.147911,0.707201,557,530,27,16,0,0,0,0,0;
#CREDIT:NewbStepper;
#NOTES:
// measure 0
0000
0000
0000
0000
,  // measure 1
0000
0000
0000
0000
,  // measure 2
0000
0000
0000
0000
,  // measure 3
0000
0000
0000
0000
,  // measure 4
0000
0000
0000
0000
,  // measure 5
0011
0001
0100
1000
0100
0001
1001
0000
,  // measure 6
1010
1000
0100
0001
0100
1000
1001
0000
,  // measure 7
0101
0001
0010
0100
1100
1000
0010
0100
,  // measure 8
0001
0010
0001
1000
0010
0100
0001
1000
0100
0010
0001
0100
0010
1000
0001
0010
,  // measure 9
0200
0000
0000
0300
,  // measure 10
1000
1000
0100
0100
,  // measure 11
0010
0010
0001
0001
,  // measure 12
1000
0100
1000
0001
0100
0001
1000
0010
,  // measure 13
0200
0000
0000
0000
0001
0000
0000
0000
0310
0000
0100
0000
0100
0000
0100
0001
,  // measure 14
1000
0000
0010
0000
0100
0000
0001
0010
0100
0000
1000
0000
0001
0000
1000
0010
,  // measure 15
0100
0000
0001
0000
0010
0000
0001
0100
0000
0000
0001
1000
0000
0001
0010
0000
,  // measure 16
0001
0000
1000
0000
0010
0000
0100
0001
0010
0000
0001
0000
1000
0000
0100
1000
,  // measure 17
0010
0000
1000
0000
0001
0000
0100
0010
0000
0000
0100
0010
0000
0010
0100
0001
,  // measure 18
1000
0000
0001
0000
0100
0010
0000
1000
0010
0000
0100
0001
0000
0100
0010
1000
,  // measure 19
0001
0000
1000
0000
0100
0010
0000
0001
0010
0000
0100
1000
0000
0100
0010
0001
,  // measure 20
1000
0010
1000
0000
0001
0010
0000
0100
0010
0000
0001
0010
0000
0001
0100
0000
,  // measure 21
0001
0010
0001
0000
1000
0010
0000
0100
0010
0000
1000
0010
0000
1000
0100
0000
,  // measure 22
0010
0001
1000
0000
0010
0100
0000
0100
0001
0000
0001
1000
0000
1000
0100
0000
,  // measure 23
0100
0010
0000
0100
1000
0000
0100
0001
0000
0100
1000
0000
2002
0000
3003
0000
,  // measure 24
0010
1000
0001
0000
0010
0100
0000
0100
1000
0000
1000
0001
0000
0001
0100
0000
,  // measure 25
0100
0010
0000
0100
0001
0000
0100
1000
0000
0100
0001
1000
0100
1000
0100
1000
,  // measure 26
0001
0100
0010
0000
1000
0010
0000
0100
0001
0000
1000
0100
0000
0010
0001
0000
,  // measure 27
1000
0010
0000
0010
0100
0000
0100
0001
0000
0001
1000
0000
2002
0000
3003
0000
,  // measure 28
1000
0100
0010
0000
0001
0010
0000
0100
1000
0000
0001
0100
0000
0010
1000
0000
,  // measure 29
0001
0100
0000
0010
1000
0000
0001
0100
0001
0100
0001
0100
0010
1000
0100
0010
,  // measure 30
0002
0000
2003
0000
0010
0010
3010
0000
,  // measure 31
1000
0100
0010
0001
0100
0100
0110
0000
,  // measure 32
2000
0000
3002
0000
0010
0010
0013
0000
,  // measure 33
0001
0100
0010
1000
0100
0100
0110
0000
,  // measure 34
0001
0200
1000
0000
0010
0010
0310
0000
,  // measure 35
1000
0020
0001
0000
0100
0100
0130
0000
,  // measure 36
0001
0020
1000
0000
0100
0100
0130
0000
,  // measure 37
1000
0000
0000
0000
0001
0000
0000
0000
0100
0000
0000
0000
0010
1000
0010
1000
,  // measure 38
0001
0000
0100
0001
0010
0000
0010
0001
0100
0000
0010
0000
1000
0100
0010
0001
,  // measure 39
1000
0000
0100
1000
0010
0000
0010
1000
0100
0000
0010
0000
0001
0100
0010
1000
,  // measure 40
0001
0000
0100
0010
1000
0000
1000
0100
0010
0000
0001
0000
1000
0010
1000
0010
,  // measure 41
0100
0000
0001
0010
0100
0000
1000
0010
0100
0000
0001
0000
1001
0000
0000
0000
,  // measure 42
1000
0000
0100
1000
0010
0000
0010
1000
0100
0000
0010
0000
0001
0100
0010
1000
,  // measure 43
0001
0000
0100
0001
0010
0000
0010
0001
0100
0000
0010
0000
1000
0100
0010
0001
,  // measure 44
1000
0000
0100
0010
0001
0000
0001
0100
0010
0000
1000
0000
0001
0010
0001
0010
,  // measure 45
0100
0000
1000
0100
1000
0000
0001
0100
0001
0000
1000
0100
1000
0100
0010
0001
,  // measure 46
0020
0000
0000
0000
,  // measure 47
0000
0000
0000
0000
0000
0000
0000
0000
0030
0000
0000
0000
0001
0100
0010
0000
,  // measure 48
1000
0000
0100
0000
1000
0001
0100
0000
0010
0000
1010
0000
0000
0000
1100
0000
,  // measure 49
1001
0000
0001
0010
0100
0000
1000
0010
0100
0000
0000
0000
0001
0000
0001
0000
,  // measure 50
0100
0000
1000
0000
0100
0010
0100
0000
0000
0000
0101
0000
0000
0000
1100
0000
,  // measure 51
0000
0000
1000
0010
0100
0000
0001
0100
0001
0100
0010
0000
1000
0100
0010
0000
,  // measure 52
0001
0000
0100
0000
0001
1000
0100
0000
0010
0000
0011
0000
0000
0000
0101
0000
,  // measure 53
1001
0000
1000
0010
0100
0000
0001
0010
0100
0000
0000
0000
1000
0000
1000
0000
,  // measure 54
0100
0000
0001
0000
0100
0010
0100
0000
0000
0000
1100
0000
0000
0000
0101
0000
,  // measure 55
0000
0000
0011
0000
1001
0000
1010
0000
1001
0000
0000
0000
1000
0010
0100
0000
,  // measure 56
0001
0000
0010
0100
1000
0000
0001
0000
0010
0100
0010
0000
0000
0000
0001
0010
,  // measure 57
0001
0000
1000
0010
1000
0000
1100
0000
0101
0000
0000
0000
0001
0010
0100
0000
,  // measure 58
1000
0000
0010
0100
0001
0000
1000
0000
0010
0100
0010
0000
0000
0000
1000
0010
,  // measure 59
1000
0000
0001
0010
0001
0000
0100
0000
0100
0000
0010
0000
1000
0000
0100
0000
,  // measure 60
0001
0100
0010
1000
0001
0100
1000
0010
,  // measure 61
0001
0000
1000
0000
0100
0000
0001
0000
0010
0000
0001
0000
0100
0001
1000
0001
,  // measure 62
0100
0010
1000
0010
0100
0001
1000
0100
1000
0001
0100
0001
1000
0100
0010
0001
,  // measure 63
0100
0010
1000
0002
0003
0000
0010
0001
0010
0001
0010
0100
2000
0000
0000
0000
,  // measure 64
0000
0000
0000
0000
,  // measure 65
0000
0000
0000
3000
;

//---------------dance-single - NewbStepper-DSP----------------
#NOTEDATA:;
#CHARTNAME:NewbStepper-DSP;
#STEPSTYPE:dance-single;
#DESCRIPTION:NewbStepper-DSP;
#DIFFICULTY:Medium;
#METER:11;
#RADARVALUES:0.515048,0.547040,0.277334,0.203378,0.027733,390,360,30,22,0,0,0,0,0,0.515048,0.547040,0.277334,0.203378,0.027733,390,360,30,22,0,0,0,0,0;
#CREDIT:NewbStepper;
#NOTES:
// measure 0
0000
0000
0000
0000
,  // measure 1
0000
0000
0000
0000
,  // measure 2
0000
0000
0000
0000
,  // measure 3
0000
0000
0000
0000
,  // measure 4
0000
0000
0000
0000
,  // measure 5
0001
0000
1000
0010
1010
0000
0100
0000
,  // measure 6
0001
0000
1000
0000
0001
0010
0011
0000
,  // measure 7
1001
1000
0100
0000
1001
0001
0100
0000
,  // measure 8
1001
0110
1001
0110
,  // measure 9
2002
0000
0000
3003
,  // measure 10
0001
0001
0100
0100
,  // measure 11
0010
0010
1000
1000
,  // measure 12
0001
0100
0001
0000
1000
0100
1000
0000
,  // measure 13
0020
0000
0000
0000
0000
0100
0100
0130
,  // measure 14
0001
0010
0100
1000
0100
0001
0100
1000
,  // measure 15
0010
0100
0001
1000
0100
0010
1001
0000
,  // measure 16
1000
0010
0100
0001
0100
1000
0100
0001
,  // measure 17
0010
0100
1000
0001
0100
0010
1001
0000
,  // measure 18
1100
0000
1000
0000
0000
0010
0000
0000
0100
0000
0000
0001
0000
0000
0100
0000
,  // measure 19
0101
0000
0001
0000
0000
0010
0000
0000
0100
0000
0000
1000
0000
0000
0010
0000
,  // measure 20
1010
0000
1000
0000
0000
0100
0000
0000
0010
0000
0000
0001
0000
0000
0010
0000
,  // measure 21
0011
0001
0100
0010
1000
0100
0010
0000
,  // measure 22
0001
0100
1000
0100
0001
1000
0100
0010
,  // measure 23
0001
1000
0010
0001
0010
1000
0002
0000
,  // measure 24
1003
0100
0001
0100
1000
0001
0100
0010
,  // measure 25
1000
0001
0010
1000
0010
0001
2000
0000
,  // measure 26
3001
0100
0010
0100
1000
0100
0010
1000
,  // measure 27
0100
0001
0100
0010
0001
0100
0020
0000
,  // measure 28
1030
0100
0010
0100
0001
0100
0010
0001
,  // measure 29
0100
1000
0100
0010
1000
0100
0010
0001
,  // measure 30
2000
0000
0000
0000
0010
0010
3010
0000
,  // measure 31
0002
0000
0000
0000
0010
0010
0013
0000
,  // measure 32
2000
0000
0000
0000
0100
0100
3100
0000
,  // measure 33
0002
0000
0000
0000
0100
0100
0103
0000
,  // measure 34
2000
0010
3200
0010
,  // measure 35
2300
0001
3020
0100
,  // measure 36
0032
1000
0023
0100
,  // measure 37
2030
0000
0001
0000
3200
0000
0310
0001
,  // measure 38
1000
0100
1000
0001
1000
0010
0100
0001
,  // measure 39
0010
0001
1000
0001
0100
1000
0100
0001
,  // measure 40
0010
0001
0010
0100
0010
0001
0100
0010
,  // measure 41
0100
1000
0100
0001
1000
0100
0010
0000
,  // measure 42
0001
0100
0001
1000
0001
0010
0100
1000
,  // measure 43
0010
1000
0001
1000
0100
0001
0100
1000
,  // measure 44
0010
1000
0010
0100
0010
1000
0100
0010
,  // measure 45
0100
0001
0100
1000
0001
0100
0010
0000
,  // measure 46
2002
0000
0000
0000
,  // measure 47
0000
0000
3003
0000
0000
0000
0010
1000
,  // measure 48
0100
0010
0001
0001
0000
1100
0000
0101
,  // measure 49
0001
0100
0010
0010
0100
0000
0001
0001
,  // measure 50
1000
0010
0100
0100
0000
0110
0000
1001
,  // measure 51
0000
0001
1000
1000
0001
0000
0010
0001
,  // measure 52
0100
0010
1000
1000
0000
0101
0000
1100
,  // measure 53
1000
0100
0010
0010
0100
0000
1000
1000
,  // measure 54
0001
0010
0100
0100
0000
0110
0000
1001
,  // measure 55
0000
0010
0100
0010
0110
0000
1000
1000
,  // measure 56
0100
0001
0100
0100
0000
1010
0000
0101
,  // measure 57
0001
0100
0010
0010
0100
0000
0001
0001
,  // measure 58
0100
1000
0100
0100
0000
0011
0000
1100
,  // measure 59
0000
1000
0010
0010
0100
0001
0010
0001
,  // measure 60
0010
0001
1000
0010
1000
0010
0100
0001
,  // measure 61
0100
0001
1000
0010
0100
0001
1000
0100
,  // measure 62
0001
0100
1000
0001
0100
1000
0100
0001
,  // measure 63
0010
1000
0001
0100
1000
0010
0220
0000
,  // measure 64
0000
0000
0000
0000
,  // measure 65
0000
0000
0000
0330
;

//---------------dance-single - NewbStepper-BSP----------------
#NOTEDATA:;
#CHARTNAME:NewbStepper-BSP;
#STEPSTYPE:dance-single;
#DESCRIPTION:NewbStepper-BSP;
#DIFFICULTY:Easy;
#METER:9;
#RADARVALUES:0.390908,0.455867,0.194133,0.083200,0.018489,296,275,21,9,0,0,0,0,0,0.390908,0.455867,0.194133,0.083200,0.018489,296,275,21,9,0,0,0,0,0;
#CREDIT:NewbStepper;
#NOTES:
// measure 0
0000
0000
0000
0000
,  // measure 1
0000
0000
0000
0000
,  // measure 2
0000
0000
0000
0000
,  // measure 3
0000
0000
0000
0000
,  // measure 4
0000
0000
0000
0000
,  // measure 5
0001
0100
0101
0000
,  // measure 6
1000
0100
1100
0000
,  // measure 7
1001
0000
0110
0000
,  // measure 8
1001
0000
0110
0000
,  // measure 9
2002
0000
0000
3003
,  // measure 10
1000
1000
1000
1000
,  // measure 11
0001
0001
0001
0001
,  // measure 12
0100
0100
0100
0100
,  // measure 13
0010
0010
0010
0010
,  // measure 14
1000
0000
0100
0000
1000
0001
1000
0000
,  // measure 15
0001
0000
0100
0000
0001
1000
0001
0000
,  // measure 16
0100
0000
0010
0000
1000
0100
0001
0000
,  // measure 17
0100
0000
0010
0000
0001
0100
1000
0000
,  // measure 18
0100
0000
0010
0000
1000
0010
1000
0000
,  // measure 19
0100
0000
0010
0000
0001
0010
0001
0000
,  // measure 20
1000
0010
0100
0101
,  // measure 21
0001
0010
0100
1100
,  // measure 22
1000
0100
0010
0000
0001
0000
0100
0010
,  // measure 23
0100
0001
0100
0000
0010
0000
1001
0000
,  // measure 24
0001
0100
0010
0000
1000
0000
0100
0010
,  // measure 25
0100
1000
0100
0000
0010
0000
1001
0000
,  // measure 26
1000
0010
1000
0000
0001
0010
0001
0010
,  // measure 27
0100
0000
1000
0100
0001
0000
0110
0000
,  // measure 28
0001
0010
0001
0000
1000
0010
1000
0010
,  // measure 29
0100
0000
0001
0100
0010
1000
0100
0010
,  // measure 30
0002
0000
0000
0003
,  // measure 31
2000
0000
0000
3000
,  // measure 32
0020
0000
0000
0030
,  // measure 33
0200
0000
0000
0300
,  // measure 34
0001
0000
1000
0000
0010
0100
0010
0000
,  // measure 35
1000
0000
0001
0000
0010
0100
0010
0000
,  // measure 36
0001
0000
1000
0000
0100
0010
0100
0000
,  // measure 37
1000
0000
0001
0000
0100
0010
0100
0000
,  // measure 38
0001
0010
0001
0000
0001
0010
0100
0000
,  // measure 39
1000
0010
1000
0000
1000
0010
0100
0000
,  // measure 40
0001
0100
0001
0000
0001
0100
0010
0000
,  // measure 41
1000
0100
1000
0000
1000
0100
0010
0000
,  // measure 42
0001
0000
0000
0001
0000
0000
0001
0000
0100
0000
0010
0000
1000
0000
0000
0000
,  // measure 43
1000
0000
0000
1000
0000
0000
1000
0000
0100
0000
0010
0000
0001
0000
0000
0000
,  // measure 44
0100
0000
0000
0100
0000
0000
0100
0000
0010
0000
1000
0000
0001
0000
0000
0000
,  // measure 45
0100
0000
0000
0100
0000
0000
0100
0000
0010
0000
0100
0000
0010
0000
0100
0000
,  // measure 46
0020
0000
0000
0000
,  // measure 47
0000
0000
0030
0000
,  // measure 48
1010
0000
0100
0001
0010
0000
0100
1000
,  // measure 49
0010
0000
0100
0010
0100
0000
0001
0000
,  // measure 50
0101
0000
0010
0010
0000
1000
0000
0001
,  // measure 51
0000
1000
0010
0100
0010
0000
1000
0000
,  // measure 52
0011
0000
0100
1000
0010
0000
0100
0001
,  // measure 53
0010
0000
0100
0010
0100
0000
1000
0000
,  // measure 54
1100
0000
0010
0010
0000
0001
0000
1000
,  // measure 55
0000
0001
1000
0001
1000
0000
0010
1000
,  // measure 56
0010
1000
0010
1000
0000
0100
0000
0100
,  // measure 57
0000
1000
0010
1000
0100
0000
0010
0001
,  // measure 58
0010
0001
0010
0001
0000
0100
0000
0100
,  // measure 59
0000
0001
0010
0001
0100
0000
0001
1000
,  // measure 60
0001
1000
0001
1000
0001
0000
0010
0100
,  // measure 61
0010
0100
0010
0100
0010
0000
0001
0000
,  // measure 62
0100
1000
0010
0011
,  // measure 63
1010
1100
0101
0220
,  // measure 64
0000
0000
0000
0000
,  // measure 65
0000
0000
0000
0330
;

//---------------dance-single - NewbStepper-bSP----------------
#NOTEDATA:;
#CHARTNAME:NewbStepper-bSP;
#STEPSTYPE:dance-single;
#DESCRIPTION:NewbStepper-bSP;
#DIFFICULTY:Beginner;
#METER:5;
#RADARVALUES:0.202057,0.273520,0.101689,0.046222,0,153,142,11,5,0,0,0,0,0,0.202057,0.273520,0.101689,0.046222,0,153,142,11,5,0,0,0,0,0;
#CREDIT:NewbStepper;
#NOTES:
// measure 0
0000
0000
0000
0000
,  // measure 1
0000
0000
0000
0000
,  // measure 2
0000
0000
0000
0000
,  // measure 3
0000
0000
0000
0000
,  // measure 4
0000
0000
0000
0000
,  // measure 5
1000
1000
0100
0000
,  // measure 6
0010
0010
0001
0000
,  // measure 7
0001
0001
0100
0000
,  // measure 8
0010
0010
1000
0000
,  // measure 9
0000
0000
0000
0000
,  // measure 10
0001
0100
0001
0000
,  // measure 11
0100
0010
0100
0000
,  // measure 12
0010
1000
0010
0000
,  // measure 13
1000
0100
1000
0000
,  // measure 14
0100
0010
0100
0000
,  // measure 15
0010
0001
0010
0000
,  // measure 16
0001
0100
0001
0000
,  // measure 17
1000
0100
1000
0000
,  // measure 18
1001
0000
0000
0000
,  // measure 19
0001
1000
0001
1000
,  // measure 20
1001
0000
0000
0000
,  // measure 21
1000
0001
1000
0001
,  // measure 22
1001
0000
0010
0000
,  // measure 23
1001
0000
0100
0000
,  // measure 24
1001
0000
1000
0000
,  // measure 25
1001
0000
0001
0000
,  // measure 26
1001
0000
0010
0000
,  // measure 27
1001
0000
0100
0000
,  // measure 28
1001
0000
0001
0000
,  // measure 29
1001
0000
1000
0000
,  // measure 30
0002
0000
0000
0000
,  // measure 31
0000
0000
0003
0000
,  // measure 32
2000
0000
0000
0000
,  // measure 33
0000
0000
3000
0000
,  // measure 34
0002
0000
0000
0000
,  // measure 35
0000
0000
0003
0000
,  // measure 36
2000
0000
0000
0000
,  // measure 37
0000
0000
3000
0000
,  // measure 38
0010
0010
1000
0000
,  // measure 39
0010
0010
0001
0000
,  // measure 40
0100
0100
1000
0000
,  // measure 41
0100
0100
0001
0000
,  // measure 42
0100
1000
0001
0000
,  // measure 43
0100
0001
1000
0000
,  // measure 44
0001
0100
0010
0000
,  // measure 45
1000
0100
0010
0000
,  // measure 46
1001
0000
0000
0000
,  // measure 47
0000
0000
0000
0000
,  // measure 48
0001
0000
1000
0010
,  // measure 49
0010
0000
1000
0100
,  // measure 50
0100
0000
1000
0001
,  // measure 51
0001
0000
1000
0001
,  // measure 52
1000
0000
0001
0010
,  // measure 53
0010
0000
0001
0100
,  // measure 54
0100
0000
0001
1000
,  // measure 55
1000
0001
0001
1000
,  // measure 56
0010
0100
0000
0001
,  // measure 57
0010
0100
0000
1000
,  // measure 58
0010
0100
0000
0001
,  // measure 59
0010
0100
0000
1000
,  // measure 60
0100
1000
0000
0001
,  // measure 61
0100
0001
0000
0100
,  // measure 62
0010
0100
0010
1000
,  // measure 63
0001
1000
0001
0020
,  // measure 64
0000
0000
0000
0000
,  // measure 65
0000
0000
0000
0030
;

//---------------dance-double - NewbStepper-EDP----------------
#NOTEDATA:;
#CHARTNAME:NewbStepper-EDP;
#STEPSTYPE:dance-double;
#DESCRIPTION:NewbStepper-EDP;
#DIFFICULTY:Hard;
#METER:15;
#RADARVALUES:0.711823,0.942125,0.231111,0.147911,0.651734,539,514,25,16,0,0,0,0,0,0.711823,0.942125,0.231111,0.147911,0.651734,539,514,25,16,0,0,0,0,0;
#CREDIT:NewbStepper;
#NOTES:
00000000
00000000
00000000
00000000
,
00000000
00000000
00000000
00000000
,
00000000
00000000
00000000
00000000
,
00000000
00000000
00000000
00000000
,
00000000
00000000
00000000
00000000
,
00000011
00000001
00000100
00001000
00010000
01000000
10000000
00000000
,
10100000
10000000
01000000
00010000
00001000
00000100
00000001
00000000
,
00001010
00001000
00000100
00010000
00011000
00001000
01000000
00010000
,
10000000
00100000
10000000
00010000
00100000
01000000
10000000
00010000
01000000
00100000
10000000
00010000
00100000
00001000
00010000
00000100
,
00002000
00000000
00000000
00003000
,
00000001
00000001
00000100
00000100
,
00001000
00001000
00010000
00010000
,
00100000
10000000
01000000
00010000
00001000
00100000
00010000
00001000
,
00000200
00000000
00000000
00000000
00000001
00000000
00000000
00000000
00000310
00000000
00000100
00000000
00000100
00000000
00000100
00001000
,
00000001
00000000
00000010
00000000
00000001
00000000
00001000
00000010
00000100
00000000
00000001
00000000
00000100
00000000
00001000
00010000
,
00100000
00000000
10000000
00000000
00010000
00000000
00100000
00010000
00000000
00000000
10000000
00010000
00000000
00010000
01000000
00100000
,
10000000
00000000
00100000
00000000
10000000
00000000
01000000
00100000
00010000
00000000
00100000
00000000
00001000
00000000
00010000
00000100
,
00001000
00000000
00000001
00000000
00000100
00000000
00000010
00001000
00000000
00000000
00000001
00001000
00000000
00001000
00000100
00000010
,
00000001
00000000
00001000
00000000
00000001
00000100
00000000
00000010
00000100
00000000
00000001
00000100
00000000
00000010
00000100
00001000
,
00010000
00000000
00000100
00000000
00010000
00001000
00000000
00100000
00001000
00000000
00010000
00000100
00000000
00010000
00001000
00100000
,
00010000
00000000
10000000
00000000
00100000
10000000
00000000
00010000
10000000
00000000
00100000
10000000
00000000
10000000
01000000
00010000
,
00001000
00000000
00010000
00000000
00000010
00001000
00000000
00000100
00000010
00000000
00000001
00000100
00000000
00000010
00000100
00000000
,
00001000
00010000
00001000
00000000
00100000
00010000
00000000
00010000
01000000
00000000
01000000
00100000
00000000
00100000
10000000
00000000
,
00010000
01000000
00000000
10000000
01000000
00000000
00010000
00100000
00000000
00001000
00010000
00000000
00022000
00000000
00033000
00000000
,
00010000
00001000
00010000
00000000
00000010
00001000
00000000
00001000
00000100
00000000
00000100
00000010
00000000
00000010
00000001
00000000
,
00001000
00000100
00000000
00000001
00000100
00000000
00001000
00000010
00000000
00010000
00001000
00000000
00100000
00010000
00100000
00010000
,
10000000
00100000
01000000
00000000
00010000
00100000
00000000
00001000
00010000
00000000
00000010
00001000
00000000
00000100
00000010
00000000
,
00000001
00000100
00000000
00000100
00000010
00000000
00000010
00001000
00000000
00001000
00000001
00000000
00002002
00000000
00003003
00000000
,
00000001
00000010
00000100
00000000
00001000
00000010
00000000
00010000
00001000
00000000
00100000
00010000
00000000
01000000
00100000
00000000
,
10000000
01000000
00000000
01000000
00100000
00000000
00100000
00010000
00000000
00010000
10000000
00000000
00010000
00100000
00001000
00010000
,
00000020
00000000
00002030
00000000
00000001
00000001
00003001
00000000
,
00000100
00001000
00010000
00000000
01000000
01000000
01100000
00000000
,
00200000
00000000
00320000
00000000
10000000
10000000
10030000
00000000
,
01000000
00010000
00001000
00000000
00000100
00000100
00000110
00000000
,
00000001
00000100
00002000
00000000
00010000
00010000
00013000
00000000
,
00001000
00010000
00200000
00000000
10000000
10000000
10300000
00000000
,
00100000
10000000
02000000
00000000
00010000
00010000
03010000
00000000
,
00001000
00000000
00000000
00000000
00000010
00000000
00000000
00000000
00000001
00000000
00000000
00000000
00000100
00000010
00000100
00000010
,
00001000
00000000
00000001
00000100
00000010
00000000
00000100
00001000
00010000
00000000
01000000
00000000
00100000
00000000
00010000
10000000
,
00100000
00000000
10000000
01000000
00100000
00000000
00010000
01000000
00100000
00000000
00010000
00000000
00001000
00010000
00001000
00010000
,
00000010
00000000
00001000
00000100
00000010
00000000
00000001
00000100
00001000
00000000
00010000
00000000
00100000
00000000
10000000
01000000
,
00100000
00000000
00010000
01000000
00100000
00000000
10000000
00010000
00100000
00000000
00010000
00000000
10010000
00000000
00000000
00000000
,
00010000
00000000
10000000
01000000
00100000
00000000
01000000
00010000
00001000
00000000
00000100
00000000
00000010
00000000
00001000
00000001
,
00000010
00000000
00000001
00000100
00000010
00000000
00001000
00000100
00000010
00000000
00001000
00000000
00010000
00001000
00010000
00001000
,
00100000
00000000
00010000
01000000
00100000
00000000
10000000
01000000
00010000
00000000
00001000
00000000
00000010
00000000
00000001
00000100
,
00000010
00000000
00001000
00000100
00001000
00000000
00000001
00000100
00000001
00000000
00001000
00000100
00001000
00000100
00010000
00001000
,
00020000
00000000
00000000
00000000
,
00000000
00000000
00000000
00000000
00000000
00000000
00000000
00000000
00030000
00000000
00000000
00000000
00001000
00010000
00001000
00000000
,
01000000
00000000
00010000
00000000
00100000
01000000
10000000
00000000
00100000
00000000
10100000
00000000
00000000
00000000
01010000
00000000
,
10010000
00000000
10000000
01000000
00010000
00000000
00001000
00000000
00000010
00000000
00000000
00000000
00000001
00000000
00000001
00000000
,
00000100
00000000
00001000
00000000
00000100
00000010
00000100
00000000
00000000
00000000
00001100
00000000
00000000
00000000
00011000
00000000
,
00000000
00000000
00010000
00100000
10000000
00000000
00100000
00000000
01000000
00000000
00001000
00000000
00010000
00001000
00010000
00000000
,
00000100
00000000
00001000
00000000
00000010
00000100
00000001
00000000
00000010
00000000
00000011
00000000
00000000
00000000
00001100
00000000
,
00001001
00000000
00000001
00000100
00001000
00000000
00010000
00000000
00100000
00000000
00000000
00000000
10000000
00000000
10000000
00000000
,
01000000
00000000
00010000
00000000
01000000
00100000
01000000
00000000
00000000
00000000
01010000
00000000
00000000
00000000
00011000
00000000
,
00000000
00000000
00010100
00000000
00011000
00000000
00101000
00000000
00011000
00000000
00000000
00000000
00010000
00000010
00001000
00000000
,
00000001
00000000
00000010
00000100
00001000
00000000
00000001
00000000
00000100
00000010
00000100
00000000
00000000
00000000
00000001
00000000
,
00000100
00000000
00001000
00010000
00100000
00000000
10000000
00000000
10010000
00000000
00000000
00000000
00010000
01000000
10000000
00000000
,
01000000
00000000
00100000
01000000
00010000
00000000
10000000
00000000
01000000
00100000
00001000
00000000
00000000
00000000
00011000
00000000
,
00000000
00000000
00010000
00001000
00000100
00000000
00000001
00000000
00000010
00000000
00000001
00000000
00001000
00000000
00000010
00000000
,
00000100
00001000
00010000
01000000
00100000
00010000
10000000
00100000
,
00010000
00000000
00001000
00000000
00100000
00000000
01000000
00000000
10000000
00000000
01000000
00000000
00010000
00001000
00010000
00000010
,
00001000
00000010
00010000
00000010
00001000
00000100
00000010
00000001
00000100
00000010
00000100
00001000
00010000
00001000
00100000
00010000
,
10000000
00100000
01000000
00020000
00030000
00000000
00100000
00001000
00100000
00001000
00100000
00001000
00020000
00000000
00000000
00000000
,
00000000
00000000
00000000
00000000
,
00000000
00000000
00000000
00030000
;

//---------------dance-double - NewbStepper-DDP----------------
#NOTEDATA:;
#CHARTNAME:NewbStepper-DDP;
#STEPSTYPE:dance-double;
#DESCRIPTION:NewbStepper-DDP;
#DIFFICULTY:Medium;
#METER:11;
#RADARVALUES:0.512407,0.547040,0.258845,0.203378,0.027733,388,360,28,22,0,0,0,0,0,0.512407,0.547040,0.258845,0.203378,0.027733,388,360,28,22,0,0,0,0,0;
#CREDIT:NewbStepper;
#NOTES:
00000000
00000000
00000000
00000000
,
00000000
00000000
00000000
00000000
,
00000000
00000000
00000000
00000000
,
00000000
00000000
00000000
00000000
,
00000000
00000000
00000000
00000000
,
00000010
00000000
00000100
00001000
00001100
00000000
00010000
00000000
,
00100000
00000000
01000000
00010000
01010000
00000000
00001000
00000000
,
00000010
00000001
00000101
00000000
00000010
00001000
00001100
00000000
,
00001001
00010100
01001000
10010000
,
02200000
00000000
00000000
03300000
,
10000000
10000000
01000000
01000000
,
00010000
00010000
00001000
00001000
,
00000100
00000010
00000100
00000000
00000001
00001000
00000001
00000000
,
00000020
00000000
00000000
00000000
00000000
00000100
00000100
00000130
,
00001000
00000010
00000100
00000001
00000100
00001000
00010000
01000000
,
00100000
01000000
10000000
00100000
01000000
00010000
10000000
00000000
,
00010000
00100000
01000000
10000000
01000000
00010000
00001000
00000100
,
00000010
00000100
00000001
00000010
00000100
00001000
00000001
00000000
,
00000101
00000000
00000001
00000000
00000000
00000010
00000000
00000000
00000100
00000000
00000000
00001000
00000000
00000000
00000100
00000000
,
00010100
00000000
00010000
00000000
00000000
00001000
00000000
00000000
00100000
00000000
00000000
00010000
00000000
00000000
01000000
00000000
,
01100000
00000000
00100000
00000000
00000000
10000000
00000000
00000000
01000000
00000000
00000000
00010000
00000000
00000000
00001000
00000000
,
00011000
00010000
00001000
00000010
00000100
00001000
00000001
00000000
,
00000100
00000010
00001000
00000001
00000100
00001000
00010000
00100000
,
10000000
01000000
00010000
01000000
00100000
00010000
20000000
00000000
,
31000000
00100000
00010000
10000000
01000000
00010000
00001000
00000010
,
00000001
00000100
00001000
00000100
00000010
00001000
00000002
00000000
,
00001003
00000100
00000001
00000100
00001000
00000010
00000100
00001000
,
00010000
01000000
00100000
00010000
10000000
00100000
02000000
00000000
,
03010000
01000000
10000000
01000000
00010000
00100000
01000000
00010000
,
00001000
00000100
00000010
00001000
00000001
00000010
00000100
00001000
,
00020000
01000000
10000000
00100000
,
00032000
00000100
00000001
00000010
,
00023000
00100000
10000000
01000000
,
00032000
00000010
00000001
00000100
,
00023000
00100000
02030000
00100000
,
03002000
00010000
00003020
00000100
,
00000032
00000100
00002003
00000010
,
00023000
00000000
01000000
00000000
20030000
00000000
30100000
10000000
,
01000000
00010000
00001000
00100000
00001000
00010000
00001000
01000000
,
00001000
00010000
00000100
00010000
00001000
00010000
00000010
00010000
,
00001000
00000010
00000001
00000100
00000001
00001000
00000001
00000010
,
00001000
00010000
00001000
00000100
00000010
00001000
00000001
00000000
,
00000100
00001000
00010000
00000010
00010000
00001000
00010000
00000100
,
00010000
00001000
01000000
00001000
00010000
00001000
00100000
00001000
,
00010000
00100000
10000000
01000000
10000000
00010000
10000000
00100000
,
00010000
00001000
00010000
01000000
00010000
00001000
00000100
00000000
,
00000220
00000000
00000000
00000000
,
00000000
00000000
00000330
00000000
00000000
00000000
00000010
00001000
,
00000100
00000010
00000001
00000001
00000000
00000101
00000000
00001010
,
00001000
00000100
00010000
00010000
00001000
00000000
00100000
00100000
,
00010000
00001000
00000100
00000100
00000000
00010100
00000000
00101000
,
00000000
00100000
00001000
00010000
01000000
00000000
00100000
00010000
,
01000000
00100000
10000000
10000000
00000000
11000000
00000000
00110000
,
00010000
01000000
00001000
00001000
00010000
00000000
00000010
00000010
,
00001000
00010000
01000000
01000000
00000000
01001000
00000000
00010010
,
00000000
00000010
00000100
00000010
00000110
00000000
00000001
00000001
,
00000100
00001000
00010000
00010000
00000000
00110000
00000000
10100000
,
10000000
01000000
00100000
00100000
01000000
00000000
10000000
10000000
,
01000000
00010000
00001000
00001000
00000000
00001010
00000000
00000011
,
00000000
00000001
00000010
00000010
00000100
00001000
00000001
00000100
,
00000010
00001000
00000100
00010000
00001000
00100000
00010000
01000000
,
00100000
10000000
01000000
00100000
00010000
01000000
00100000
10000000
,
01000000
00010000
00001000
00000010
00000001
00000100
00001000
00010000
,
00100000
10000000
00010000
01000000
10000000
01000000
02200000
00000000
,
00000000
00000000
00000000
00000000
,
00000000
00000000
00000000
03300000
;

//---------------dance-double - NewbStepper-BDP----------------
#NOTEDATA:;
#CHARTNAME:NewbStepper-BDP;
#STEPSTYPE:dance-double;
#DESCRIPTION:NewbStepper-BDP;
#DIFFICULTY:Easy;
#METER:9;
#RADARVALUES:0.379023,0.455867,0.157156,0.083200,0,287,270,17,9,0,0,0,0,0,0.379023,0.455867,0.157156,0.083200,0,287,270,17,9,0,0,0,0,0;
#CREDIT:NewbStepper;
#NOTES:
00000000
00000000
00000000
00000000
,
00000000
00000000
00000000
00000000
,
00000000
00000000
00000000
00000000
,
00000000
00000000
00000000
00000000
,
00000000
00000000
00000000
00000000
,
00000001
00000100
00000101
00000000
,
00001000
00000100
00001100
00000000
,
00001001
00000000
00000110
00000000
,
00011000
00000000
01100000
00000000
,
20020000
00000000
00000000
30030000
,
10000000
10000000
10000000
10000000
,
00010000
00010000
00010000
00010000
,
01000000
01000000
01000000
01000000
,
00001000
00001000
00001000
00001000
,
00010000
00000000
00000100
00000000
00010000
00001000
00010000
00000000
,
00001000
00000000
01000000
00000000
00001000
00010000
00001000
00000000
,
00000010
00000000
00000001
00000000
00000100
00001000
00010000
00000000
,
00100000
00000000
10000000
00000000
01000000
00010000
00001000
00000000
,
00000100
00000000
00000010
00000000
00001000
00000010
00001000
00000000
,
00000100
00000000
00000010
00000000
00000001
00000010
00000001
00000000
,
00000100
00001000
00010000
01000000
,
10000000
00100000
00010000
00001000
,
00000010
00000001
00001000
00000000
00000100
00000000
00000010
00001000
,
00010000
00001000
00100000
00000000
00010000
00000000
10010000
00000000
,
00100000
10000000
00010000
00000000
01000000
00000000
00100000
00010000
,
00001000
00010000
00000010
00000000
00001000
00000000
00001001
00000000
,
00000001
00000010
00000001
00000000
00001000
00000010
00001000
00000010
,
00000100
00000000
00001000
00010000
01000000
00000000
01100000
00000000
,
10000000
00100000
10000000
00000000
00010000
00100000
00010000
00100000
,
01000000
00000000
00010000
00001000
00000100
00000010
00001000
00000001
,
00000020
00000000
00000000
00000030
,
00002000
00000000
00000000
00003000
,
00020000
00000000
00000000
00030000
,
00200000
00000000
00000000
00300000
,
10000000
00000000
00010000
00000000
00100000
01000000
00100000
00000000
,
00001000
00000000
00010000
00000000
00000010
00000100
00000010
00000000
,
00010000
00000000
00001000
00000000
00000100
00000010
00000100
00000000
,
00001000
00000000
00010000
00000000
01000000
00100000
01000000
00000000
,
10000000
00000000
01000000
00000000
00010000
00001000
00000100
00000000
,
00000001
00000000
00000100
00000000
00001000
00010000
01000000
00000000
,
10000000
00000000
00100000
00000000
00010000
00001000
00000010
00000000
,
00000001
00000000
00000010
00000000
00001000
00010000
00100000
00000000
,
10000000
01000000
00100000
00000000
00010000
01000000
00100000
00000000
,
00010000
00001000
00000100
00000000
00000010
00001000
00000100
00000000
,
00000010
00000001
00000100
00000000
00000010
00001000
00000100
00000000
,
00000001
00000100
00001000
00000000
00010000
01000000
10000000
00000000
,
00200000
00000000
00000000
00000000
,
00000000
00000000
00300000
00000000
,
10100000
00000000
01000000
00010000
00100000
00000000
01000000
10000000
,
00100000
00000000
01000000
00001000
00010000
00000000
00001000
00000000
,
00011000
00000000
00000010
00000010
00000000
00010000
00000000
00001000
,
00000000
00000100
00000010
00001000
00000001
00000000
00000010
00000000
,
00000011
00000000
00000100
00001000
00000010
00000000
00000100
00000001
,
00000010
00000000
00000100
00010000
00001000
00000000
00010000
00000000
,
00011000
00000000
00100000
00100000
00000000
00001000
00000000
00010000
,
00000000
01000000
00100000
01000000
00100000
00000000
00010000
01000000
,
00010000
01000000
00010000
01000000
00000000
00100000
00000000
00100000
,
00000000
10000000
01000000
00010000
00001000
00000000
00000010
00000001
,
00000010
00000001
00000010
00000001
00000000
00000100
00000000
00000100
,
00000000
00000001
00001000
00000010
00001000
00000000
00000001
00000100
,
00000001
00000100
00000001
00000100
00000001
00000000
00001000
00000100
,
00001000
00000100
00001000
00000100
00001000
00000000
00000001
00000000
,
00000100
00001000
00010000
00100000
,
10000000
11000000
01010000
02200000
,
00000000
00000000
00000000
00000000
,
00000000
00000000
00000000
03300000
;
