#TITLE:POSSESSION (Wavelength Remix);
#ARTIST:Wavelengthλ;
#ARTISTTRANSLIT:Wavelength;
#BANNER:POSSESSION (Wavelength Remix).png;
#BACKGROUND:POSSESSION (Wavelength Remix)-bg.png;
#MUSIC:POSSESSION (Wavelength Remix).ogg;
#OFFSET:-0.009453;
#SAMPLESTART:2.604;
#SAMPLELENGTH:15;
#BPMS:0=370,144=185,172=92.5,173=370,302=185,367=370;
#STOPS:173=0.486,302=2.27;
#BGCHANGES:-0.75=POSSESSION (Wavelength Remix).avi=1=0=0=0=StretchNoLoop====,99999=-nosongbg-=1=0=0=0 // don't automatically add -songbackground-;

//---------------dance-single - Marten-ESP----------------
#NOTES:
     dance-single:
     Marten:
     Hard:
     17:
     0.912195,1.519618,0.837425,0.066613,0.509117,671,583,88,7,0,0,0.912195,1.519618,0.837425,0.066613,0.509117,671,583,88,7,0,0:
0000
0000
0000
0000
,
0000
0000
0000
0000
,
0000
0000
0000
0000
,
0000
0000
0000
0000
,
0000
0000
0000
0000
,
0000
0000
0000
0000
,
0000
0000
0000
0000
,
0000
0000
0000
0000
,
0000
0000
0000
0000
,
0000
0000
0000
0000
,
0000
0000
0000
0000
,
0000
0000
0000
0000
,
0001
0100
0001
0010
,
0100
0010
0001
1000
,
0100
1000
0010
0100
,
0010
1000
0100
1000
,
0001
0100
1000
0100
,
0001
0100
1000
0100
,
0001
0010
1000
0001
,
0100
1000
0001
1000
,
0010
1000
0010
0001
,
0010
0100
1000
0100
,
0010
1000
0100
0010
,
0001
0010
0100
0001
,
0100
1000
0001
0100
,
0001
1000
0100
1000
,
0010
0001
0010
1000
,
0010
0001
0010
1000
,
0001
0010
0001
0000
1000
0000
0100
0000
,
0010
0001
1000
0100
,
1000
0010
1000
0000
0001
0000
0100
0000
,
0010
1000
0001
0100
,
0010
1000
0001
0000
0010
0000
0100
0000
,
1000
0001
0100
0000
0010
0000
0100
0000
,
0001
0010
0100
0000
1000
0010
0100
0000
,
0001
1000
0100
0000
1000
0001
0100
0000
,
0220
0000
0000
0000
,
0000
0000
0000
0000
0030
0000
0000
0301
,
1001
0000
0010
0011
0000
0000
1100
0000
,
1001
0000
0000
0000
1000
0000
1010
0000
0000
0000
0101
0000
0000
0000
0001
1000
,
0100
0000
1000
0010
0100
0000
0001
0000
0010
1000
0010
0000
0100
0000
1000
0001
,
0100
0000
0010
0100
0010
0000
1000
0000
0001
0010
0100
0000
1000
0000
0010
0000
,
1010
0000
0000
0000
0101
0000
0000
0000
0001
0100
0010
0100
1000
0100
0010
0100
,
0002
0000
0003
0000
1000
0001
0100
0000
,
0010
0000
1000
0100
0010
0000
1000
0000
,
0010
0001
1000
0000
0010
0100
0010
0000
,
1000
0000
0001
0100
0010
0000
0001
0010
,
0100
0000
0100
0000
0001
1000
0100
0000
,
0010
0000
0001
0100
0010
0000
0001
0000
,
0010
1000
0001
0000
0010
0100
0010
0000
,
0001
0000
1000
0100
0010
0000
1000
0010
,
0100
0000
0100
0000
1000
0010
0100
0000
,
0001
0000
1000
0100
0001
0000
0100
0000
,
0010
0001
1000
0000
0010
1000
0100
0000
,
1000
0000
0010
0100
1000
0000
0001
0010
,
0100
0000
0100
0000
0001
0010
0100
0000
,
1000
0000
0001
0100
1000
0000
0100
0000
,
0010
1000
0001
0000
0010
0001
0100
0000
,
0001
0000
0010
0100
0001
0000
1000
0010
,
0100
0000
0100
0000
1000
0010
0100
0010
,
1000
0000
0001
0100
0001
0000
1000
0000
,
0010
1000
0100
0000
0010
0001
1000
0001
,
0010
0000
0100
1000
0001
0000
0100
0000
,
0110
0000
0110
0000
0001
0010
0100
0010
,
0001
0000
1000
0100
1000
0000
0001
0000
,
0010
0001
0100
0000
0010
1000
0001
1000
,
0010
0000
0100
0001
1000
0000
0100
0010
,
0001
0000
1001
0000
1000
0100
0010
0001
,
0100
0000
0010
1000
0001
0000
0010
0000
,
0100
1000
0001
0000
0100
0001
1000
0001
,
0010
0000
0100
1000
0010
0000
0100
0001
,
1000
0000
0001
0000
1000
0001
0100
0001
,
1000
0100
0010
0001
1000
0010
1000
0001
,
0010
0100
1000
0001
0100
0000
0010
0100
,
0001
0000
1000
0000
1010
0000
0000
0011
,
0000
0000
0110
0000
1001
0000
1000
0010
,
0001
0000
0001
0010
0000
0010
1000
0000
,
1000
0000
0100
0000
0000
0000
0010
0001
1000
0000
1000
0000
0001
0000
0010
0000
,
1000
0000
1000
0010
0000
0010
0001
0000
,
0001
0000
0100
0000
0010
0000
0100
0010
1000
0000
1000
0000
1000
0000
0100
0000
,
0001
0000
0001
0100
0000
0100
1000
0000
,
1000
0000
0010
0000
0100
0000
0010
1000
0100
0000
0100
0000
1100
0000
0000
0000
,
0101
0001
0011
0000
1010
0010
0110
0010
,
1000
0000
0100
0000
0010
0001
1000
0010
0100
0001
0100
0010
1000
0000
0001
0100
,
0010
0100
1000
1000
0100
0010
0010
1000
,
0100
0000
0100
0000
0010
0000
0001
0010
0100
0000
0100
0000
0001
0000
0100
0000
,
0100
1000
0001
0001
0100
1000
1000
0100
,
0010
0000
1000
0000
0001
0000
0010
0100
1000
0000
0001
0000
1000
0000
0100
0000
,
1100
0010
0001
0011
0100
0010
1010
0100
,
0001
0000
0101
0000
0010
0000
0100
1000
0001
0000
0100
0000
0101
0000
0000
0000
,
1010
0000
0000
0100
0000
0000
1001
0000
0000
0000
0000
0000
0011
0000
0000
0100
0000
0000
1000
0000
0010
0000
0001
0000
,
1000
0100
0001
1000
0100
0010
0001
0000
0000
1010
0000
0000
,
0000
0101
0000
0000
0000
1100
0000
0000
0000
0011
0000
0000
,
0000
1100
0000
0000
0000
0101
0000
0000
0000
1010
0000
0000
,
0000
1001
0000
0000
0000
1100
0000
0000
0000
0011
0000
0000
,
0000
1001
0000
0000
0000
0101
0000
0000
0000
0011
0000
0000
,
0000
1100
0000
0000
0000
0101
0000
0000
0000
1010
0000
0000
,
0000
0101
0000
0000
0000
1100
0000
0000
0000
0011
0000
0000
,
0000
1001
0000
0000
0000
0101
0000
0000
0000
1010
0000
0000
,
0000
1001
0000
0000
0000
1100
0000
0000
0000
0011
0000
0000
,
0000
1010
0000
0000
0000
1100
0000
0000
0000
0101
0000
0000
,
0000
1100
0000
0000
0000
1010
0000
0000
0000
0011
0000
0000
,
0000
1100
0000
0000
0000
0101
0000
0000
0000
1010
0000
0000
,
0000
0101
0000
0000
0000
1100
0000
0000
0000
1010
0000
0000
,
0000
0011
0000
0000
0000
0101
0000
0000
0000
1100
0000
0000
,
0000
0101
0000
0000
0000
0011
0000
0000
0000
1010
0000
0000
,
0000
0101
0000
0000
0000
1100
0000
0000
0000
0011
0000
0000
,
0000
1100
0000
0000
0000
0101
0000
0000
0000
0010
0000
1000
,
0000
0010
0000
0100
0000
0001
0000
0200
0000
0010
0000
0000
,
0000
0310
0000
0000
0000
0110
0000
0000
0000
1000
0000
0100
,
0000
1000
0000
0001
0000
0010
0000
0002
0000
1000
0000
0000
,
0000
1003
0000
0000
0000
1001
0000
0000
0000
0010
0000
1000
,
0000
0010
0000
0100
0000
0001
0000
0200
0000
0010
0000
0000
,
0000
0310
0000
0000
0000
0110
0000
0000
0000
1000
0000
0100
,
0000
1000
0000
0001
0000
0010
0000
0001
0000
1000
0000
0100
,
0000
0010
0000
0001
0000
0010
0000
0100
0000
1000
0000
0001
,
0000
0100
0000
0000
0000
0110
0000
0000
0000
1000
0000
0100
,
0000
0010
0000
0000
0000
0110
0000
0000
0000
0001
0000
1000
,
0000
0100
0000
0000
0000
1100
0000
0000
0000
1000
0000
0100
,
0000
0010
0000
0000
0000
0011
0000
0000
0000
0001
0000
0010
,
0000
0100
0000
0001
0000
0100
0000
1000
0000
0010
0000
0100
,
0000
1000
0000
0100
0000
0010
0000
1000
0000
1010
0000
0000
,
0000
0011
0000
0000
0000
0110
0000
0000
0000
1001
0000
0000
,
0000
0000
1000
0100
0010
0001
0200
0000
,
0000
0000
0000
0000
,
0000
0000
0000
0000
,
0000
0000
0000
0000
,
0000
0000
0000
0300
;

//---------------dance-single - Marten-DSP----------------
#NOTES:
     dance-single:
     Marten:
     Medium:
     14:
     0.759936,1.337263,0.713715,0.199840,0.390164,559,484,75,21,0,0,0.759936,1.337263,0.713715,0.199840,0.390164,559,484,75,21,0,0:
0000
0000
0000
0000
,
0000
0000
0000
0000
,
0000
0000
0000
0000
,
0000
0000
0000
0000
,
0000
0000
0000
0000
,
0000
0000
0000
0000
,
0000
0000
0000
0000
,
0000
0000
0000
0000
,
0000
0000
0000
0000
,
0000
0000
0000
0000
,
0000
0000
0000
0000
,
0000
0000
0000
0000
,
0001
0100
0001
0100
,
0010
1000
0010
1000
,
0100
1000
0001
0100
,
0001
0010
0100
1000
,
0001
1000
0200
0300
,
1000
0010
0200
0300
,
0001
0100
0010
0100
,
0001
0010
0100
0100
,
1000
0100
0010
1000
,
0010
0001
1000
0010
,
1000
0001
0100
0010
,
1000
0010
0100
0001
,
1000
0100
0020
0030
,
0001
0100
0020
0030
,
0100
0001
1000
0100
,
0010
0001
1000
0001
,
0010
0001
0100
0100
,
0010
1000
0100
0100
,
1000
0010
0001
0010
,
1000
0100
0001
0100
,
1000
0100
1000
0100
,
0010
0100
0010
0100
,
0010
0001
0010
0001
,
1000
0010
0100
0010
,
0220
0000
0000
0000
,
0000
0000
0000
0000
0030
0000
0000
0301
,
1001
0000
0000
1100
0000
0000
0011
0000
,
0101
0000
0000
0110
0000
1001
0000
0010
,
1010
1000
0100
1100
1000
0001
0101
0100
,
0110
0100
0001
0010
1000
0010
0001
1000
,
1001
0000
0110
0000
0010
1000
0001
0010
,
0200
0300
1000
0100
,
0100
1000
0010
0010
,
0100
0001
1000
0100
,
1000
0000
0001
0010
0001
0000
0100
0000
,
0010
0100
0001
0100
,
0100
0001
0010
0010
,
0100
1000
0001
0100
,
0001
0000
1000
0010
1000
0000
0100
0000
,
0010
0100
1000
0010
,
0010
0100
0001
0001
,
0010
0100
0010
0001
,
1000
0000
0001
0100
0001
0000
1000
0000
,
0100
1000
0001
0010
,
0010
0100
1000
1000
,
0010
0100
0010
1000
,
0001
0000
1000
0100
1000
0000
0001
0000
,
0100
0001
1000
0100
,
0200
0301
0100
0200
,
1300
0010
0100
0001
,
0200
0000
0310
0100
0010
0000
1000
0000
,
0001
0010
0001
0100
,
0200
1300
0100
0200
,
0301
0010
0100
1000
,
0200
0000
0310
0100
0010
0000
0001
0000
,
1000
0010
1000
0010
,
0020
0031
0010
0020
,
1030
0100
0010
1000
,
0020
0000
0130
0010
0100
0000
1000
0000
,
0001
1000
0001
0010
,
0020
1030
0010
0020
,
0031
0100
0010
0001
,
0020
0000
0130
0010
0100
0000
0000
0110
,
0000
0000
1001
0000
1001
0000
0001
0100
,
0001
0000
1000
1000
0000
0100
0100
0000
,
1000
0010
0000
0100
0001
0001
1000
0100
,
1000
0000
0001
0001
0000
0100
0100
0000
,
0001
0010
0000
0100
1000
1000
0010
1000
,
0100
0000
0010
0010
0000
0001
0001
0000
,
0100
0000
0001
0000
1000
0000
0100
1000
0100
0000
0100
0000
0010
0000
0001
0000
,
0100
1000
0100
0010
1000
0001
1000
1000
,
0001
0000
0001
0000
1000
0100
1000
0100
0010
0000
0000
0000
0001
0000
0100
0000
,
0101
0000
0001
0011
0000
0010
0110
0000
,
0100
1000
0010
0100
0010
0010
1000
0100
,
1100
0000
1000
1010
0000
0010
0110
0000
,
0100
0000
0001
0000
0010
0000
0100
0010
0100
0000
1000
0000
0001
0000
0100
0000
,
0100
1000
0100
0100
0010
0100
0100
0001
,
0010
0100
1000
0001
1000
1000
1010
0000
,
0101
0000
0000
0001
0000
0000
1001
0000
0000
0000
0000
0000
1100
0000
0000
1000
0000
0000
0010
0000
1000
0000
0010
0000
,
0100
0001
0100
0010
1000
0001
0010
0000
0000
0100
0000
0000
,
0000
1000
0000
0000
0000
1100
0000
0000
0000
0010
0000
0000
,
0000
0001
0000
0000
0000
0101
0000
0000
0000
1000
0000
0000
,
0000
0010
0000
0000
0000
1010
0000
0000
0000
0100
0000
0000
,
0000
0001
0000
0000
0000
0101
0000
0000
0000
0010
0000
0000
,
0000
0001
0000
0000
0000
0011
0000
0000
0000
1000
0000
0000
,
0000
0010
0000
0000
0000
1010
0000
0000
0000
0100
0000
0000
,
0000
0001
0000
0000
0000
0101
0000
0000
0000
1000
0000
0000
,
0000
0100
0000
0000
0000
1100
0000
0000
0000
0101
0000
0000
,
0000
0101
0000
0000
0000
0101
0000
0000
0000
1010
0000
0000
,
0000
1010
0000
0000
0000
1010
0000
0000
0000
1100
0000
0000
,
0000
1100
0000
0000
0000
1100
0000
0000
0000
0011
0000
0000
,
0000
0011
0000
0000
0000
0011
0000
0000
0000
0101
0000
0000
,
0000
0101
0000
0000
0000
0101
0000
0000
0000
1100
0000
0000
,
0000
1100
0000
0000
0000
1100
0000
0000
0000
0110
0000
0000
,
0000
0110
0000
0000
0000
0110
0000
0000
0000
1001
0000
0000
,
0000
1001
0000
0000
0000
1001
0000
0000
0000
0010
0000
0000
,
0000
1000
0000
0000
0000
0100
0000
0010
0000
0100
0000
0000
,
0000
0010
0000
0000
0000
0001
0000
0010
0000
0001
0000
0000
,
0000
0100
0000
0000
0000
0010
0000
1000
0000
0010
0000
0000
,
0000
0100
0000
0000
0000
0001
0000
0000
0000
1000
0000
0000
,
0000
0001
0000
0000
0000
0010
0000
0100
0000
0010
0000
0000
,
0000
0100
0000
0000
0000
1000
0000
0100
0000
1000
0000
0000
,
0000
0001
0000
0000
0000
1000
0000
0000
0000
0100
0000
0010
,
0000
0100
0000
0010
0000
0100
0000
0000
0000
1100
0000
0000
,
0000
1100
0000
0000
0000
1100
0000
0000
0000
0011
0000
0000
,
0000
0011
0000
0000
0000
0011
0000
0000
0000
0101
0000
0000
,
0000
0101
0000
0000
0000
0101
0000
0000
0000
1010
0000
0000
,
0000
1010
0000
0000
0000
1010
0000
0000
0000
1000
0000
0010
,
0000
1000
0000
0001
0000
0010
0000
0001
0000
1000
0000
0100
,
0000
1000
0000
0001
0000
0100
0000
0001
0000
1001
0000
0000
,
0000
0110
0000
0000
0000
1001
0000
0000
0000
1001
0000
0000
,
0000
0010
0100
0220
,
0000
0000
0000
0000
,
0000
0000
0000
0000
,
0000
0000
0000
0000
,
0000
0000
0000
0330
;

//---------------dance-single - Marten-BSP----------------
#NOTES:
     dance-single:
     Marten:
     Easy:
     10:
     0.508437,0.850986,0.114194,0.123711,0.314034,374,362,12,13,0,0,0.508437,0.850986,0.114194,0.123711,0.314034,374,362,12,13,0,0:
0000
0000
0000
0000
,
0000
0000
0000
0000
,
0000
0000
0000
0000
,
0000
0000
0000
0000
,
0000
0000
0000
0000
,
0000
0000
0000
0000
,
0000
0000
0000
0000
,
0000
0000
0000
0000
,
0000
0000
0000
0000
,
0000
0000
0000
0000
,
0000
0000
0000
0000
,
0000
0000
0000
0000
,
1000
0100
1000
0000
,
0001
1000
0001
0000
,
0100
0001
0100
0000
,
0010
1000
0010
0000
,
1000
0100
1000
0000
,
0001
0010
0001
0000
,
0100
0001
0100
0000
,
0010
1000
0010
0000
,
1000
0000
0010
0000
,
0100
0001
0100
0000
,
0001
0000
0010
0000
,
0100
1000
0100
0000
,
1000
0000
0001
0000
,
0100
0010
0100
0000
,
0001
0000
1000
0000
,
0100
0010
0100
0000
,
1000
0000
0010
0000
,
0001
0000
0010
0000
,
1000
0000
0100
0000
,
0001
0000
0100
0000
,
1000
0001
1000
0000
,
0010
0100
0010
0000
,
1000
0100
1000
0000
,
0001
0100
0001
0000
,
2002
0000
0000
0000
,
0000
0000
0000
3003
,
1001
0000
0000
0101
0000
0000
0110
0000
,
1010
0000
0000
1001
0000
1100
0000
0010
,
0001
0000
1000
0001
0000
1000
0010
0000
,
0100
0000
0001
1000
0000
0001
0010
0000
,
0100
0000
0100
0000
1000
0001
1000
0001
,
0200
0300
0001
0000
,
0010
0000
0100
1000
,
0001
0000
1000
0010
,
1000
0000
0001
0100
,
0001
0000
1000
0000
,
0010
0000
0100
0001
,
1000
0000
0001
0010
,
0001
0000
1000
0100
,
1000
0000
0010
0000
,
0100
0000
0001
1000
,
0100
0000
0010
0001
,
1000
0000
0100
1000
,
0001
0000
0010
0000
,
0100
0000
1000
0001
,
0100
0000
0010
1000
,
0001
0000
0100
0001
,
1000
0000
0001
0010
,
0001
0010
0001
0010
,
0001
0000
1000
0100
,
1000
0100
1000
0100
,
1000
0000
0010
1000
,
0010
1000
0010
1000
,
0010
0000
0100
0001
,
0100
0001
0100
0001
,
0100
0000
0001
1000
,
0100
0000
1000
0001
,
0100
0000
0001
1000
,
0010
0000
1000
0001
,
0010
0000
0100
0010
,
0100
0000
1000
0001
,
1000
0000
0010
0100
,
0001
0000
1001
0000
,
0110
0000
1001
0002
,
0000
1003
0001
0000
0010
0000
0200
0000
,
0000
1300
0100
0000
1000
0010
2000
0000
,
0000
3001
1000
0000
0010
0000
0200
0000
,
0000
0301
0100
0000
0010
0100
0020
0000
,
0000
1030
0001
0000
0010
0000
0200
0000
,
0000
1300
0001
0000
0100
0001
0100
0000
,
0010
1000
0010
0000
0100
0000
0001
0000
,
1000
0000
0001
1000
0001
1000
0001
0100
,
0001
0000
0001
0010
0000
0010
0100
0000
,
0100
0000
1000
0001
1000
0000
1000
0100
,
1000
0000
1000
0010
0000
0010
0100
0000
,
0100
0000
0001
1000
0001
0000
1000
0010
,
1000
0000
1000
0100
0000
0100
0010
0000
,
0010
0000
0001
1000
0001
0000
0010
0000
,
0001
0000
0000
0100
0000
0000
0001
0000
0000
0000
0000
0000
1000
0000
0000
0000
0000
0000
0010
0000
0000
0000
0010
0000
,
0000
0010
0000
0100
0000
0001
0000
1000
0000
0100
0000
0000
,
0000
0100
0000
0000
0000
0100
0000
0000
0000
0001
0000
0000
,
0000
0001
0000
0000
0000
0001
0000
0000
0000
0010
0000
0000
,
0000
0010
0000
0000
0000
0010
0000
0000
0000
1000
0000
0000
,
0000
1000
0000
0000
0000
1000
0000
0000
0000
0100
0000
0000
,
0000
0100
0000
0000
0000
0100
0000
0000
0000
0001
0000
0000
,
0000
0001
0000
0000
0000
0001
0000
0000
0000
0010
0000
0000
,
0000
0010
0000
0000
0000
0010
0000
0000
0000
1000
0000
0000
,
0000
1000
0000
0000
0000
1000
0000
0000
0000
0100
0000
0000
,
0000
0100
0000
0000
0000
0100
0000
0000
0000
1000
0000
0000
,
0000
1000
0000
0000
0000
1000
0000
0000
0000
0010
0000
0000
,
0000
0010
0000
0000
0000
0010
0000
0000
0000
0001
0000
0000
,
0000
0001
0000
0000
0000
0001
0000
0000
0000
0100
0000
0000
,
0000
0100
0000
0000
0000
0100
0000
0000
0000
1000
0000
0000
,
0000
1000
0000
0000
0000
1000
0000
0000
0000
0010
0000
0000
,
0000
0010
0000
0000
0000
0010
0000
0000
0000
0001
0000
0000
,
0000
0001
0000
0000
0000
0001
0000
0000
0000
0010
0000
0000
,
0000
0010
0000
0000
0000
0010
0000
0000
0000
0001
0000
0000
,
0000
0100
0000
0000
0000
0010
0000
0000
0000
1000
0000
0000
,
0000
1000
0000
0000
0000
1000
0000
0000
0000
0010
0000
0000
,
0000
0100
0000
0000
0000
0001
0000
0000
0000
0010
0000
0000
,
0000
0010
0000
0000
0000
0010
0000
0000
0000
0001
0000
0000
,
0000
1000
0000
0000
0000
0100
0000
0000
0000
0010
0000
0000
,
0000
0010
0000
0000
0000
0010
0000
0000
0000
1000
0000
0000
,
0000
0100
0000
0000
0000
0010
0000
0000
0000
0001
0000
0000
,
0000
0100
0000
0000
0000
0010
0000
0000
0000
1000
0000
0000
,
0000
0010
0000
0000
0000
0100
0000
0000
0000
0001
0000
0000
,
0000
0010
0000
0000
0000
0100
0000
0000
0000
1000
0000
0000
,
0000
0100
0000
0000
0000
0010
0000
0000
0000
0001
0000
0000
,
0000
1000
0000
0000
0000
0001
0000
0000
0000
0100
0000
0000
,
0000
0010
0000
0000
0000
0100
0000
0000
0000
0001
0000
0000
,
0000
0010
0000
0000
0000
0100
0000
0000
0000
2002
0000
0000
,
0000
3003
0000
0220
,
0000
0000
0000
0000
,
0000
0000
0000
0000
,
0000
0000
0000
0000
,
0000
0000
0000
0330
;

//---------------dance-single - Marten-bSP----------------
#NOTES:
     dance-single:
     Marten:
     Beginner:
     7:
     0.286845,0.547062,0.104678,0.123711,0,211,200,11,13,0,0,0.286845,0.547062,0.104678,0.123711,0,211,200,11,13,0,0:
0000
0000
0000
0000
,
0000
0000
0000
0000
,
0000
0000
0000
0000
,
0000
0000
0000
0000
,
0000
0000
0000
0000
,
0000
0000
0000
0000
,
0000
0000
0000
0000
,
0000
0000
0000
0000
,
0000
0000
0000
0000
,
0000
0000
0000
0000
,
0000
0000
0000
0000
,
0000
0000
0000
0000
,
0001
0000
0001
0000
,
1000
0000
1000
0000
,
0010
0000
0010
0000
,
0100
0000
0100
0000
,
0002
0000
0003
0000
,
2000
0000
3000
0000
,
0200
0000
0300
0000
,
0020
0000
0030
0000
,
0001
0000
0010
0000
,
0001
0000
0001
0000
,
1000
0000
0010
0000
,
1000
0000
1000
0000
,
0001
0000
0100
0000
,
0001
0000
0001
0000
,
1000
0000
0100
0000
,
1000
0000
1000
0000
,
0020
0000
0030
0000
,
0200
0000
0300
0000
,
0002
0000
0003
0000
,
2000
0000
3000
0000
,
0001
0000
0001
0000
,
1000
0000
1000
0000
,
0010
0000
0100
0000
,
0010
0000
0100
0000
,
0220
0000
0000
0000
,
0000
0000
0330
0000
,
1001
0000
1001
0000
,
0110
0000
0110
0000
,
0010
0010
0100
0000
,
0001
1000
0001
0000
,
0010
0010
0100
0100
,
2000
3000
0001
0000
,
0100
0000
0010
0000
,
0010
0000
1000
0000
,
0100
0000
0010
0000
,
0001
0000
1000
0000
,
0100
0000
0010
0000
,
0010
0000
0001
0000
,
0100
0000
0010
0000
,
1000
0000
0001
0000
,
0010
0000
0100
0000
,
0100
0000
1000
0000
,
0010
0000
0100
0000
,
0001
0000
1000
0000
,
0010
0000
0100
0000
,
0100
0000
0001
0000
,
0010
0000
0100
0000
,
1000
0000
0001
0000
,
0001
0000
0001
0100
,
0001
0000
1000
0000
,
1000
0000
1000
0100
,
1000
0000
0001
0000
,
0001
0000
0001
0010
,
0001
0000
1000
0000
,
1000
0000
1000
0010
,
1000
0000
0001
0000
,
0001
0000
1000
0001
,
1000
0000
0010
0000
,
0010
0000
0100
0010
,
0100
0000
0001
0000
,
0010
0000
1000
0000
,
0100
0000
0001
0000
,
1000
0000
0010
0000
,
0110
0000
1001
0001
,
0001
0100
0000
0010
,
0000
0010
0000
1000
,
1000
0100
0000
0010
,
0000
1001
0000
0001
,
0001
0010
0000
0100
,
0000
1000
0000
1000
,
1000
0001
0001
1000
,
0001
1001
0000
0001
,
0000
0100
0000
1000
,
0000
0010
0000
0001
,
0000
0100
0000
1000
,
0000
0010
0000
0001
,
0000
1000
0000
0010
,
0000
0001
0000
0100
,
0000
1000
0000
0001
,
0001
1000
1000
0010
,
0000
0000
0000
1000
,
0000
0000
0000
0100
,
0000
0000
0000
0001
,
0000
0000
0000
0010
,
0000
0000
0000
1000
,
0000
0000
0000
0100
,
0000
0000
0000
0001
,
0000
0000
0000
0010
,
0000
0000
0000
0001
,
0000
0000
0000
0100
,
0000
0000
0000
1000
,
0000
0000
0000
0010
,
0000
0000
0000
0001
,
0000
0000
0000
0100
,
0000
0000
0000
1000
,
0000
0000
0000
0010
,
0000
0000
0000
0001
,
0000
0000
0000
0100
,
0000
0000
0000
1000
,
0000
0000
0000
0010
,
0000
0000
0000
1000
,
0000
0000
0000
0100
,
0000
0000
0000
0001
,
0000
0000
0000
1000
,
0000
0000
0000
0001
,
0000
0000
0000
1000
,
0000
0000
0000
0001
,
0000
0000
0000
0010
,
0000
0000
0000
0100
,
0000
0000
0000
0010
,
0000
0000
0000
1001
,
0000
0000
0000
0220
,
0000
0000
0000
0000
,
0000
0000
0000
0000
,
0000
0000
0000
0000
,
0000
0000
0000
0330
;

//---------------dance-double - NewbStepper-EDP----------------
#NOTES:
     dance-double:
     NewbStepper:
     Hard:
     17:
     0.879568,1.519618,0.666134,0.066613,0.528149,647,577,70,7,0,0,0.879568,1.519618,0.666134,0.066613,0.528149,647,577,70,7,0,0:
// measure 0
00000000
00000000
00000000
00000000
,  // measure 1
00000000
00000000
00000000
00000000
,  // measure 2
00000000
00000000
00000000
00000000
,  // measure 3
00000000
00000000
00000000
00000000
,  // measure 4
00000000
00000000
00000000
00000000
,  // measure 5
00000000
00000000
00000000
00000000
,  // measure 6
00000000
00000000
00000000
00000000
,  // measure 7
00000000
00000000
00000000
00000000
,  // measure 8
00000000
00000000
00000000
00000000
,  // measure 9
00000000
00000000
00000000
00000000
,  // measure 10
00000000
00000000
00000000
00000000
,  // measure 11
00000000
00000000
00000000
00000000
,  // measure 12
00000001
00000100
00000001
00000010
,  // measure 13
00000100
00000010
00001000
00010000
,  // measure 14
01000000
00100000
01000000
00010000
,  // measure 15
00001000
01000000
00100000
10000000
,  // measure 16
00010000
10000000
01000000
00010000
,  // measure 17
00001000
00100000
00001000
00010000
,  // measure 18
00001000
00000100
00000001
00000010
,  // measure 19
00001000
00010000
01000000
10000000
,  // measure 20
00100000
00010000
10000000
01000000
,  // measure 21
00010000
00100000
00001000
00010000
,  // measure 22
00000010
00010000
00001000
00000010
,  // measure 23
00000001
00001000
00000100
00000001
,  // measure 24
00000100
00001000
00000010
00001000
,  // measure 25
00000001
00000010
00001000
00010000
,  // measure 26
01000000
10000000
00100000
00010000
,  // measure 27
00001000
00100000
00010000
00100000
,  // measure 28
00001000
00010000
00001000
00000000
00010000
00000000
00001000
00000000
,  // measure 29
00000100
00000001
00001000
00000100
,  // measure 30
00010000
00001000
00010000
00000000
01000000
00000000
10000000
00000000
,  // measure 31
00010000
01000000
00100000
10000000
,  // measure 32
00010000
01000000
00100000
00000000
10000000
00000000
01000000
00000000
,  // measure 33
00010000
00001000
00100000
00000000
00001000
00000000
00010000
00000000
,  // measure 34
00000010
00001000
00000001
00000000
00000010
00000001
00001000
00000000
,  // measure 35
00000100
00010000
00001000
00000000
01000000
00001000
00010000
00000000
,  // measure 36
00022000
00000000
00000000
00000000
,  // measure 37
00000000
00000000
00000000
00033000
,  // measure 38
00101000
00000000
00000000
10010000
00000000
00000000
01001000
00000000
,  // measure 39
00010010
00000000
00000000
00000000
00000000
00000000
00001001
00000000
00000000
00000000
00000101
00000000
00000000
00000000
00001000
00000010
,  // measure 40
00001000
00000000
00000100
00010000
00001000
00000000
00010000
00000000
00100000
10000000
00100000
00000000
01000000
00000000
00010000
00100000
,  // measure 41
00001000
00000000
00010000
00000100
00010000
00000000
00001000
00000000
00000010
00000100
00001000
00000000
00000001
00000000
00000010
00000000
,  // measure 42
00000011
00000000
00000000
00000000
00001100
00000000
00000000
00000000
00010000
00001000
00010000
00000010
00010000
00001000
00100000
00001000
,  // measure 43
00020000
00000000
00030000
00000000
00001000
00010000
00100000
00000000
,  // measure 44
01000000
00000000
00010000
10000000
01000000
00000000
00100000
00000000
,  // measure 45
00001000
01000000
00010000
00000000
10000000
00100000
10000000
00000000
,  // measure 46
01000000
00000000
00010000
00001000
00010000
00000000
00000010
00000100
,  // measure 47
00001000
00000000
00001000
00000000
00010000
00001000
00000010
00000000
,  // measure 48
00000100
00000000
00001000
00000001
00000100
00000000
00000010
00000000
,  // measure 49
00010000
00000100
00001000
00000000
00000001
00000010
00000001
00000000
,  // measure 50
00000100
00000000
00001000
00010000
00001000
00000000
00100000
01000000
,  // measure 51
00010000
00000000
00010000
00000000
00001000
00100000
00010000
00000000
,  // measure 52
01000000
00000000
00100000
10000000
01000000
00000000
00010000
00000000
,  // measure 53
00001000
00000010
00000100
00000000
00001000
00000010
00000100
00000000
,  // measure 54
00000001
00000000
00000010
00000100
00001000
00000000
00000010
00000100
,  // measure 55
00001000
00000000
00001000
00000000
00010000
00000010
00001000
00000000
,  // measure 56
00000100
00000000
00000010
00000001
00000100
00000000
00001000
00000000
,  // measure 57
00010000
00100000
01000000
00000000
00010000
00100000
01000000
00000000
,  // measure 58
10000000
00000000
00100000
01000000
00010000
00000000
00100000
01000000
,  // measure 59
00010000
00000000
00010000
00000000
00001000
00010000
00000010
00010000
,  // measure 60
00001000
00000000
00000010
00000100
00000010
00000000
00001000
00000000
,  // measure 61
00010000
00001000
00000100
00000000
00000010
00001000
00000100
00000000
,  // measure 62
00000010
00000001
00001000
00000001
,  // measure 63
00000100
00000000
00001000
00000000
00010000
00001000
00100000
00001000
,  // measure 64
00010000
00000000
00100000
01000000
00100000
00000000
00010000
00000000
,  // measure 65
00001000
00010000
01000000
00000000
00100000
00010000
01000000
00000000
,  // measure 66
00100000
10000000
00010000
10000000
,  // measure 67
01000000
00000000
00010000
00000000
00001000
00010000
00000100
00010000
,  // measure 68
00001000
00000000
00000100
00000001
00001000
00000000
00000010
00000000
,  // measure 69
00000100
00001000
00010000
00000000
00000100
00001000
00000001
00000000
,  // measure 70
00000100
00001000
00010000
01000000
,  // measure 71
10000000
00000000
00100000
00000000
00010000
00001000
01000000
00001000
,  // measure 72
00010000
00000000
01000000
10000000
00010000
00000000
00100000
00000000
,  // measure 73
01000000
00010000
00001000
00000000
01000000
00010000
10000000
00000000
,  // measure 74
01000000
00010000
00001000
00000100
,  // measure 75
00000001
00000000
00000010
00000000
00000110
00000000
00000001
00000100
,  // measure 76
00001000
00000000
00001000
00010000
00000000
00010000
01000000
00000000
,  // measure 77
01000000
00000000
10000000
00000000
00000000
00000000
00100000
01000000
00010000
00000000
00010000
00000000
10000000
00000000
01000000
00000000
,  // measure 78
00010000
00000000
00010000
00001000
00000000
00001000
00000100
00000000
,  // measure 79
00000100
00000000
00000001
00000000
00000000
00000000
00000010
00000100
00001000
00000000
00001000
00000000
00000001
00000000
00000010
00000000
,  // measure 80
00001000
00000000
00001000
00010000
00000000
00010000
00100000
00000000
,  // measure 81
00100000
00000000
10000000
00000000
00000000
00000000
01000000
00100000
00010000
00000000
00010000
00000000
00110000
00000000
00000000
00000000
,  // measure 82
00101000
00001000
00011000
00000000
00010010
00010000
00011000
00001000
,  // measure 83
00000100
00000000
00000001
00000000
00001000
00000010
00010000
00000010
00001000
00000010
00010000
00001000
00100000
00000000
00010000
01000000
,  // measure 84
00100000
01000000
10000000
10000000
01000000
00100000
00100000
10000000
,  // measure 85
01000000
00000000
01000000
00000000
00010000
00000000
00001000
00000100
00000010
00000000
00000010
00000000
00001000
00000000
00000001
00000000
,  // measure 86
00000001
00000100
00001000
00001000
00000100
00000010
00000010
00010000
,  // measure 87
00001000
00000000
00100000
00000000
00010000
00000000
10000000
00100000
01000000
00000000
00010000
00000000
00100000
00000000
00001000
00000000
,  // measure 88
00010000
00000100
00000001
00000100
00010000
00001000
00000010
00010000
,  // measure 89
00100000
00000000
00010000
00000000
00000010
00000000
00000100
00000000
00010000
00000000
00001000
00010000
00000010
00000000
00010000
00000000
,  // measure 90
00001000
00000000
00000000
01000000
00000000
00000000
10000000
00000000
00000000
01000000
00000000
00000000
00001000
00000000
00000000
00010000
00000000
00000000
00000010
00000000
00001000
00000000
00000100
00000000
,  // measure 91
00010000
00001000
00100000
00010000
01000000
00100000
10000000
00000000
00000000
10100000
00000000
00000000
,  // measure 92
00000000
11000000
00000000
00000000
00000000
01010000
00000000
00000000
00000000
11000000
00000000
00000000
,  // measure 93
00000000
10100000
00000000
00000000
00000000
00110000
00000000
00000000
00000000
00101000
00000000
00000000
,  // measure 94
00000000
00011000
00000000
00000000
00000000
01001000
00000000
00000000
00000000
00010010
00000000
00000000
,  // measure 95
00000000
00011000
00000000
00000000
00000000
00001100
00000000
00000000
00000000
00000011
00000000
00000000
,  // measure 96
00000000
00000101
00000000
00000000
00000000
00001100
00000000
00000000
00000000
00000101
00000000
00000000
,  // measure 97
00000000
00000011
00000000
00000000
00000000
00001010
00000000
00000000
00000000
00010010
00000000
00000000
,  // measure 98
00000000
00011000
00000000
00000000
00000000
00010100
00000000
00000000
00000000
00101000
00000000
00000000
,  // measure 99
00000000
00011000
00000000
00000000
00000000
01001000
00000000
00000000
00000000
01010000
00000000
00000000
,  // measure 100
00000000
11000000
00000000
00000000
00000000
10100000
00000000
00000000
00000000
00110000
00000000
00000000
,  // measure 101
00000000
00011000
00000000
00000000
00000000
00001010
00000000
00000000
00000000
00000011
00000000
00000000
,  // measure 102
00000000
00000101
00000000
00000000
00000000
00001100
00000000
00000000
00000000
00011000
00000000
00000000
,  // measure 103
00000000
01010000
00000000
00000000
00000000
01100000
00000000
00000000
00000000
01010000
00000000
00000000
,  // measure 104
00000000
00011000
00000000
00000000
00000000
00001100
00000000
00000000
00000000
00000101
00000000
00000000
,  // measure 105
00000000
00000011
00000000
00000000
00000000
00001010
00000000
00000000
00000000
00011000
00000000
00000000
,  // measure 106
00000000
00110000
00000000
00000000
00000000
10100000
00000000
00000000
00000000
11000000
00000000
00000000
,  // measure 107
00000000
01010000
00000000
00000000
00000000
11000000
00000000
00000000
00000000
10000000
00000000
01000000
,  // measure 108
00000000
00100000
00000000
01000000
00000000
00100000
00000000
00020000
00000000
10000000
00000000
00000000
,  // measure 109
00000000
10030000
00000000
00000000
00000000
10010000
00000000
00000000
00000000
00100000
00000000
01000000
,  // measure 110
00000000
00100000
00000000
01000000
00000000
00001000
00000000
00020000
00000000
00001000
00000000
00000000
,  // measure 111
00000000
00031000
00000000
00000000
00000000
00011000
00000000
00000000
00000000
00001000
00000000
00000010
,  // measure 112
00000000
00001000
00000000
00000010
00000000
00000001
00000000
00000020
00000000
00000100
00000000
00000000
,  // measure 113
00000000
00000130
00000000
00000000
00000000
00000110
00000000
00000000
00000000
00000010
00000000
00000001
,  // measure 114
00000000
00000010
00000000
00000001
00000000
00000100
00000000
00000001
00000000
00000100
00000000
00001000
,  // measure 115
00000000
00010000
00000000
01000000
00000000
10000000
00000000
00010000
00000000
10000000
00000000
00100000
,  // measure 116
00000000
01000000
00000000
00010000
00000000
00100000
00000000
01000000
00000000
00010000
00000000
01000000
,  // measure 117
00000000
00100000
00000000
00010000
00000000
00001000
00000000
00000100
00000000
00000010
00000000
00000001
,  // measure 118
00000000
00000100
00000000
00000010
00000000
00001000
00000000
00000010
00000000
00000001
00000000
00001000
,  // measure 119
00000000
00000100
00000000
00000010
00000000
00001000
00000000
00000100
00000000
00000010
00000000
00001000
,  // measure 120
00000000
00010000
00000000
01000000
00000000
00100000
00000000
00010000
00000000
01000000
00000000
00100000
,  // measure 121
00000000
00010000
00000000
10000000
00000000
00100000
00000000
01000000
00000000
01010000
00000000
00000000
,  // measure 122
00000000
11000000
00000000
00000000
00000000
01100000
00000000
00000000
00000000
10010000
00000000
00000000
,  // measure 123
00000000
00000000
00010000
00100000
00001000
00010000
00000200
00000000
,  // measure 124
00000000
00000000
00000000
00000000
,  // measure 125
00000000
00000000
00000000
00000000
,  // measure 126
00000000
00000000
00000000
00000000
,  // measure 127
00000000
00000000
00000000
00000300
;

//---------------dance-double - NewbStepper-DDP----------------
#NOTES:
     dance-double:
     NewbStepper:
     Medium:
     15:
     0.720512,1.276479,0.409196,0.085646,0.404438,530,487,43,9,0,0,0.720512,1.276479,0.409196,0.085646,0.404438,530,487,43,9,0,0:
00000000
00000000
00000000
00000000
,
00000000
00000000
00000000
00000000
,
00000000
00000000
00000000
00000000
,
00000000
00000000
00000000
00000000
,
00000000
00000000
00000000
00000000
,
00000000
00000000
00000000
00000000
,
00000000
00000000
00000000
00000000
,
00000000
00000000
00000000
00000000
,
00000000
00000000
00000000
00000000
,
00000000
00000000
00000000
00000000
,
00000000
00000000
00000000
00000000
,
00000000
00000000
00000000
00000000
,
10000000
01000000
10000000
01000000
,
00100000
00010000
00100000
00010000
,
00001000
00000100
00001000
00000100
,
00000010
00000001
00000010
00000001
,
00000100
00001000
00020000
00030000
,
01000000
00010000
00002000
00003000
,
00010000
00001000
00010000
00100000
,
10000000
01000000
00010000
00001000
,
00000010
00000001
00000100
00000010
,
00000001
00000010
00001000
00010000
,
01000000
00001000
00010000
00100000
,
10000000
01000000
00100000
01000000
,
01000000
00010000
00002000
00003000
,
00000100
00001000
00020000
00030000
,
00001000
00000010
00000001
00000100
,
00000010
00001000
00010000
01000000
,
00100000
00010000
00001000
00000010
,
00001000
00010000
00100000
01000000
,
00010000
00001000
00000100
00000010
,
00001000
00010000
01000000
00100000
,
00010000
00001000
00000010
00000100
,
00001000
00010000
01000000
10000000
,
00100000
00010000
00001000
00000010
,
00000001
00000100
00001000
00010000
,
00022000
00000000
00000000
00000000
,
00000000
00000000
00000000
00033000
,
01001000
00000000
00000000
00110000
00000000
00000000
00101000
00000000
,
00011000
00000000
00000000
00010010
00000000
00000110
00000000
00000100
,
00000101
00000000
00000001
00001001
00000000
00001000
00001100
00000100
,
00010100
00010000
00001000
00100000
00010000
00001000
00010000
00100000
,
00001000
00010000
00100000
10000000
00100000
00010000
00001000
00000010
,
00000002
00000003
00001000
00000010
,
00000010
00001000
00000100
00000100
,
00000010
00000001
00000100
00001000
,
00010000
00000000
00001000
00010000
00001000
00000000
01000000
00000000
,
00100000
10000000
00010000
00100000
,
00100000
00010000
01000000
01000000
,
00100000
10000000
01000000
00010000
,
00001000
00000000
00010000
00001000
00010000
00000000
00000100
00000000
,
00000010
00000001
00000100
00001000
,
00010000
00000100
00001000
00010000
,
00000100
00001000
00010000
01000000
,
00100000
00000000
00001000
00010000
00001000
00000000
00010000
00000000
,
00100000
10000000
01000000
00010000
,
00001000
01000000
00010000
00001000
,
01000000
00010000
00001000
00000100
,
00000010
00000000
00010000
00001000
00010000
00000000
00001000
00000000
,
00000010
00000001
00000100
00000010
,
00001000
00010000
00001000
00000010
,
00000100
00001000
00010000
01000000
,
00100000
00000000
00010000
01000000
00010000
00000000
10000000
00000000
,
01000000
00010000
00001000
00100000
,
00010000
00001000
00010000
00100000
,
01000000
00010000
00001000
00000100
,
00000010
00000000
00001000
00000100
00001000
00000000
00000001
00000000
,
00000100
00001000
01000000
00001000
,
00000100
00010000
00100000
00010000
,
00000010
00010000
00100000
01000000
,
10000000
00000000
01000000
00100000
01000000
00000000
00010000
00000000
,
00001000
00000010
00000100
00010000
,
01000000
00001000
00000010
00001000
,
00100000
00001000
00000010
00000100
,
00000001
00000000
00000100
00000010
00000100
00000000
00001000
00000000
,
00010000
00000000
00001000
00000000
00011000
00000000
00100000
00001000
,
00100000
00000000
00001000
00001000
00000000
00010000
00010000
00000000
,
00001000
00000010
00000000
00000001
00000100
00000100
00000010
00010000
,
00000010
00000000
00010000
00010000
00000000
00001000
00001000
00000000
,
00010000
00100000
00000000
10000000
01000000
01000000
00010000
00001000
,
00000100
00000000
00000001
00000001
00000000
00000010
00000010
00000000
,
00000001
00000000
00000100
00000000
00001000
00000000
00010000
00001000
00010000
00000000
00100000
00000000
10000000
00000000
01000000
00000000
,
00010000
00001000
00100000
00010000
00001000
00000100
00001000
00000001
,
00000100
00000000
00001000
00000000
00010000
00000100
00010000
00000100
00001000
00000000
00000000
00000000
00000001
00000000
00000100
00000000
,
00000101
00000000
00000001
00000011
00000000
00000010
00001010
00000000
,
00001000
00010000
01000000
01000000
00100000
00010000
10000000
01000000
,
11000000
00000000
10000000
10100000
00000000
00100000
00110000
00000000
,
00010000
00001000
00000100
00000100
00000010
00001000
00000001
00000010
,
00001000
00100000
00001000
00000010
00010000
00100000
00010000
00000010
,
00001000
00000000
01000000
00000000
00001000
00000000
00010000
00001000
00010000
00000000
00000100
00000000
00010000
00000000
01000000
00000000
,
00001000
00000000
00000000
00000100
00000000
00000000
00001000
00000000
00000000
01000000
00000000
00000000
00010000
00000000
00000000
00000100
00000000
00000000
00001000
00000000
00000010
00000000
00001000
00000000
,
00000001
00000010
00000100
00001000
00000001
00000100
00000010
00000100
00000001
00000010
00000000
00000000
,
00000000
00000001
00000000
00000000
00000000
00000101
00000000
00000000
00000000
00000100
00000000
00000000
,
00000000
00001000
00000000
00000000
00000000
00011000
00000000
00000000
00000000
00010000
00000000
00000000
,
00000000
00100000
00000000
00000000
00000000
10100000
00000000
00000000
00000000
10000000
00000000
00000000
,
00000000
01000000
00000000
00000000
00000000
01010000
00000000
00000000
00000000
00010000
00000000
00000000
,
00000000
00001000
00000000
00000000
00000000
00001010
00000000
00000000
00000000
00000010
00000000
00000000
,
00000000
00000001
00000000
00000000
00000000
00000101
00000000
00000000
00000000
00000100
00000000
00000000
,
00000000
00001000
00000000
00000000
00000000
00011000
00000000
00000000
00000000
00010000
00000000
00000000
,
00000000
00100000
00000000
00000000
00000000
10100000
00000000
00000000
00000000
10000000
00000000
00000000
,
00000000
01000000
00000000
00000000
00000000
00010000
00000000
00000000
00000000
00001000
00000000
00000000
,
00000000
00000100
00000000
00000000
00000000
00000001
00000000
00000000
00000000
00000001
00000000
00000000
,
00000000
00000010
00000000
00000000
00000000
00001000
00000000
00000000
00000000
00010000
00000000
00000000
,
00000000
00100000
00000000
00000000
00000000
10000000
00000000
00000000
00000000
10000000
00000000
00000000
,
00000000
01000000
00000000
00000000
00000000
00010000
00000000
00000000
00000000
00001000
00000000
00000000
,
00000000
00000100
00000000
00000000
00000000
00000001
00000000
00000000
00000000
00000001
00000000
00000000
,
00000000
00000010
00000000
00000000
00000000
00001000
00000000
00000000
00000000
00010000
00000000
00000000
,
00000000
00100000
00000000
00000000
00000000
10000000
00000000
00000000
00000000
10000000
00000000
00000000
,
00000000
00100000
00000000
00000000
00000000
10000000
00000000
01000000
00000000
10000000
00000000
00000000
,
00000000
01000000
00000000
00000000
00000000
00010000
00000000
00001000
00000000
00010000
00000000
00000000
,
00000000
00001000
00000000
00000000
00000000
00000010
00000000
00000100
00000000
00000010
00000000
00000001
,
00000000
00000010
00000000
00000000
00000000
00000001
00000000
00000000
00000000
00000001
00000000
00000000
,
00000000
00000010
00000000
00000000
00000000
00000001
00000000
00000100
00000000
00000001
00000000
00000000
,
00000000
00000100
00000000
00000000
00000000
00001000
00000000
00010000
00000000
00001000
00000000
00000000
,
00000000
00010000
00000000
00000000
00000000
00100000
00000000
00000000
00000000
10000000
00000000
00010000
,
00000000
10000000
00000000
00010000
00000000
10000000
00000000
00000000
00000000
11000000
00000000
00000000
,
00000000
11000000
00000000
00000000
00000000
11000000
00000000
00000000
00000000
10100000
00000000
00000000
,
00000000
11000000
00000000
00000000
00000000
10100000
00000000
00000000
00000000
00110000
00000000
00000000
,
00000000
00110000
00000000
00000000
00000000
00110000
00000000
00000000
00000000
00011000
00000000
00000000
,
00000000
00110000
00000000
00000000
00000000
00011000
00000000
00000000
00000000
00001000
00000000
00000010
,
00000000
00001000
00000000
00000010
00000000
00000001
00000000
00000100
00000000
00000001
00000000
00000100
,
00000000
00001000
00000000
00010000
00000000
00001000
00000000
00010000
00000000
00011000
00000000
00000000
,
00000000
00110000
00000000
00000000
00000000
00011000
00000000
00000000
00000000
00001010
00000000
00000000
,
00000000
00000000
00000000
00022000
,
00000000
00000000
00000000
00000000
,
00000000
00000000
00000000
00000000
,
00000000
00000000
00000000
00000000
,
00000000
00000000
00000000
00033000
;

//---------------dance-double - NewbStepper-BDP----------------
#NOTES:
     dance-double:
     NewbStepper:
     Easy:
     11:
     0.504358,0.850986,0.095162,0.161775,0.285486,371,361,10,17,0,0,0.504358,0.850986,0.095162,0.161775,0.285486,371,361,10,17,0,0:
00000000
00000000
00000000
00000000
,
00000000
00000000
00000000
00000000
,
00000000
00000000
00000000
00000000
,
00000000
00000000
00000000
00000000
,
00000000
00000000
00000000
00000000
,
00000000
00000000
00000000
00000000
,
00000000
00000000
00000000
00000000
,
00000000
00000000
00000000
00000000
,
00000000
00000000
00000000
00000000
,
00000000
00000000
00000000
00000000
,
00000000
00000000
00000000
00000000
,
00000000
00000000
00000000
00000000
,
10000000
01000000
10000000
00000000
,
01000000
00010000
01000000
00000000
,
00010000
00001000
00010000
00000000
,
00001000
00000010
00001000
00000000
,
00000010
00000001
00000010
00000000
,
00000001
00000100
00000001
00000000
,
00001000
00000100
00001000
00000000
,
00000010
00010000
00000010
00000000
,
00010000
00001000
00010000
00000000
,
00100000
01000000
00100000
00000000
,
10000000
00010000
10000000
00000000
,
01000000
00010000
01000000
00000000
,
00010000
00000000
00001000
00000000
,
00000100
00000010
00000100
00000000
,
00001000
00000000
00010000
00000000
,
01000000
00100000
01000000
00000000
,
10000000
00000000
00100000
00000000
,
00010000
00000000
00001000
00000000
,
00000010
00000000
00000001
00000000
,
00000100
00000000
00001000
00000000
,
00010000
00001000
00010000
00000000
,
00100000
01000000
00100000
00000000
,
10000000
00100000
00010000
00000000
,
00001000
00010000
00001000
00000000
,
00022000
00000000
00000000
00000000
,
00000000
00000000
00000000
00033000
,
00011000
00000000
00000000
00010010
00000000
00000000
00000110
00000000
,
00000101
00000000
00000000
00001001
00000000
00001100
00000000
00000100
,
00010000
00000000
00001000
00100000
00000000
01000000
10000000
00000000
,
00100000
00000000
00010000
00001000
00000000
00010000
00000010
00000000
,
00000100
00000000
00000100
00000000
00000001
00001000
00000001
00001000
,
00000200
00000300
00010000
00000000
,
00001000
00000000
01000000
00100000
,
10000000
00000000
00010000
00100000
,
00010000
00000000
01000000
00001000
,
01000000
00000000
00001000
00000000
,
00010000
00000000
00000100
00000010
,
00000001
00000000
00001000
00000010
,
00001000
00000000
00000100
00010000
,
00000100
00000000
00010000
00000000
,
00100000
00000000
10000000
01000000
,
00010000
00000000
00001000
00000100
,
00000001
00000000
00000010
00000100
,
00010000
00000000
00001000
00000000
,
00000010
00000000
00000001
00000100
,
00001000
00000000
00010000
01000000
,
10000000
00000000
00100000
01000000
,
00001000
00000000
00010000
00000100
,
00010000
00000100
00010000
00000100
,
00001000
00000000
00000001
00000100
,
00000001
00000100
00000001
00000100
,
00000010
00000000
00001000
00000100
,
00001000
00000100
00001000
00000100
,
00010000
00000000
00001000
00100000
,
00001000
00100000
00001000
00100000
,
00010000
00000000
10000000
01000000
,
00010000
00000000
01000000
00010000
,
00001000
00000000
00010000
00001000
,
00000010
00000000
00001000
00000010
,
00000001
00000000
00000001
00000100
,
00001000
00000000
00000100
00001000
,
00010000
00000000
00001000
00010000
,
00100000
00000000
00010000
00100000
,
10000000
00000000
10010000
20000000
,
30000000
00010000
10000000
00000000
00100000
00000000
02000000
00000000
,
03000000
00001000
00010000
00000000
00001000
00000010
00000002
00000000
,
00000003
00001000
00000001
00000000
00000010
00000000
00000200
00000000
,
00000300
00010000
00001000
00000000
00010000
00100000
20000000
00000000
,
30000000
00010000
10000000
00000000
01000000
00000000
00200000
00000000
,
00300000
00001000
00010000
00000000
00001000
00000100
00000002
00000000
,
00000003
00001000
00000001
00000000
00000100
00000000
00000020
00000000
,
00000030
00010000
00001000
00000000
00010000
01000000
10000000
00000000
,
00100000
00000000
00100000
10000000
00000000
10000000
01000000
00000000
,
00010000
00000000
00001000
00010000
00001000
00010000
00000000
00001000
,
00000010
00000000
00000010
00000001
00000000
00000001
00000100
00000000
,
00001000
00000000
00010000
00001000
00010000
00001000
00000000
00010000
,
01000000
00000000
01000000
10000000
00000000
10000000
00100000
00000000
,
00010000
00000000
00001000
00010000
00001000
00010000
00000000
00001000
,
00000100
00000000
00000100
00000001
00000000
00000001
00000010
00000000
,
00001000
00000000
00010000
00001000
00010000
00001000
00000100
00000000
,
00000000
00000100
00000000
00000000
00000000
00000100
00000000
00000000
00000000
00000001
00000000
00000000
,
00000000
00000001
00000000
00000000
00000000
00000001
00000000
00000000
00000000
00000010
00000000
00000000
,
00000000
00000010
00000000
00000000
00000000
00000010
00000000
00000000
00000000
00001000
00000000
00000000
,
00000000
00001000
00000000
00000000
00000000
00001000
00000000
00000000
00000000
00010000
00000000
00000000
,
00000000
00010000
00000000
00000000
00000000
00010000
00000000
00000000
00000000
00100000
00000000
00000000
,
00000000
00100000
00000000
00000000
00000000
00100000
00000000
00000000
00000000
10000000
00000000
00000000
,
00000000
10000000
00000000
00000000
00000000
10000000
00000000
00000000
00000000
01000000
00000000
00000000
,
00000000
01000000
00000000
00000000
00000000
01000000
00000000
00000000
00000000
00010000
00000000
00000000
,
00000000
00010000
00000000
00000000
00000000
00010000
00000000
00000000
00000000
00001000
00000000
00000000
,
00000000
00001000
00000000
00000000
00000000
00001000
00000000
00000000
00000000
00000010
00000000
00000000
,
00000000
00000010
00000000
00000000
00000000
00000010
00000000
00000000
00000000
00000001
00000000
00000000
,
00000000
00000001
00000000
00000000
00000000
00000001
00000000
00000000
00000000
00000100
00000000
00000000
,
00000000
00000100
00000000
00000000
00000000
00000100
00000000
00000000
00000000
00001000
00000000
00000000
,
00000000
00001000
00000000
00000000
00000000
00001000
00000000
00000000
00000000
00010000
00000000
00000000
,
00000000
00010000
00000000
00000000
00000000
00010000
00000000
00000000
00000000
00000010
00000000
00000000
,
00000000
00000010
00000000
00000000
00000000
00000010
00000000
00000000
00000000
00000100
00000000
00000000
,
00000000
00000100
00000000
00000000
00000000
00000100
00000000
00000000
00000000
00000001
00000000
00000000
,
00000000
00000001
00000000
00000000
00000000
00000001
00000000
00000000
00000000
00000010
00000000
00000000
,
00000000
00000010
00000000
00000000
00000000
00000010
00000000
00000000
00000000
00001000
00000000
00000000
,
00000000
00001000
00000000
00000000
00000000
00001000
00000000
00000000
00000000
00010000
00000000
00000000
,
00000000
00010000
00000000
00000000
00000000
00010000
00000000
00000000
00000000
00100000
00000000
00000000
,
00000000
00100000
00000000
00000000
00000000
00100000
00000000
00000000
00000000
10000000
00000000
00000000
,
00000000
10000000
00000000
00000000
00000000
20000000
00000000
00000000
00000000
00200000
00000000
00000000
,
00000000
00000000
00000000
00000000
00000000
30300000
00000000
00000000
00000000
10000000
00000000
00000000
,
00000000
00010000
00000000
00000000
00000000
01000000
00000000
00000000
00000000
00100000
00000000
00000000
,
00000000
10000000
00000000
00000000
00000000
01000000
00000000
00000000
00000000
00010000
00000000
00000000
,
00000000
00001000
00000000
00000000
00000000
00100000
00000000
00000000
00000000
00001000
00000000
00000000
,
00000000
00010000
00000000
00000000
00000000
00000010
00000000
00000000
00000000
00001000
00000000
00000000
,
00000000
00000001
00000000
00000000
00000000
00000100
00000000
00000000
00000000
00000010
00000000
00000000
,
00000000
00010000
00000000
00000000
00000000
00000100
00000000
00000000
00000000
00001000
00000000
00000000
,
00000000
00000001
00000000
00000000
00000000
00000010
00000000
00000000
00000000
00000220
00000000
00000000
,
00000000
00000330
00000000
00002002
,
00000000
00000000
00000000
00000000
,
00000000
00000000
00000000
00000000
,
00000000
00000000
00000000
00000000
,
00000000
00000000
00000000
00003003
;
