#TITLE:PARANOiA-Respect-(XX-Special);
#ARTIST:.3k;
#BANNER:PARANOiA-Respect-(XX-Special).png;
#BACKGROUND:PARANOiA-Respect-(XX-Special)-bg.png;
#MUSIC:PARANOiA-Respect-(XX-Special).ogg;
#SAMPLESTART:1.144;
#SAMPLELENGTH:15;
#DISPLAYBPM:300;
#BPMS:0=300.5,4=300;
#STOPS:72=0.6,103=0.2,196=0.4,260=0.4,328=0.6;

//---------------dance-single - Talkion-CSP----------------
#NOTES:
     dance-single:
     Talkion:
     Challenge:
     17:
     :
0000
0000
0000
0000
,
0000
0000
0000
0000
,
0000
0000
0000
0000
,
0000
0000
0000
0000
,
0000
0000
0000
0000
,
0000
0000
0000
0000
,
2001
0000
0000
3100
0000
0100
0000
0000
,
0001
0100
0010
0001
0010
0100
0001
0000
,
2001
0000
0000
3010
0000
0010
0000
0000
,
0001
0010
0100
0001
0100
0010
0001
1000
,
0200
0000
0000
0310
0000
0010
1000
0000
,
0010
0100
0010
0001
0010
0100
0001
0000
,
1002
0000
0000
0103
0000
0100
1000
0000
,
0100
0010
0100
0001
0100
0010
0001
1000
,
0200
0000
0000
0310
0000
0010
1000
0000
,
0010
0100
1000
0100
0010
1000
0001
0000
,
1002
0000
0000
0103
0000
0100
1000
0000
,
0100
0010
0000
1000
0000
0010
0100
1000
,
0000
0000
1010
0000
0010
0100
0001
0010
,
0000
1000
0010
0100
0001
0010
0000
1000
,
0010
1000
0001
0000
1000
0100
1000
0001
,
1000
0010
0100
0000
0001
0100
0010
0000
,
1000
0000
0001
1000
0100
0010
0001
0100
,
0000
1000
0100
0010
0001
0100
0000
1000
,
0100
1000
0001
0000
1000
0010
1000
0001
,
1000
0100
0010
0000
0001
0000
0101
0000
,
0100
0001
1000
0100
0010
1000
0000
0100
,
1000
0100
0010
1000
0000
0100
1000
0100
,
0010
0000
0001
0010
0001
1000
0001
0100
,
0010
0000
1000
0010
0100
0000
0001
0000
,
0010
0001
1000
0010
0100
1000
0000
0010
,
1000
0010
0100
1000
0000
0010
1000
0010
,
0100
0000
0001
0100
0001
1000
0001
0010
,
0100
0000
1000
0000
0010
0100
0010
0000
,
1010
0000
2000
0010
0000
0001
0000
3100
,
0010
0100
0001
0000
0100
0000
0010
0000
,
0001
0000
2000
0100
0000
0001
0000
3010
,
0100
0010
0001
0000
0010
0000
0100
0010
,
1000
0000
0002
0100
0000
1000
0000
0013
,
0100
0010
1000
0000
0010
0000
0001
0000
,
1001
0000
1000
0010
1000
0000
2001
0000
,
0000
0000
3100
0000
0010
0100
0010
0100
,
1000
0000
0002
0010
0000
1000
0000
0103
,
0010
0100
1000
0000
0100
0000
0010
0000
,
1000
0000
0002
0100
0000
1000
0000
0013
,
0100
0010
1000
0000
0010
0000
0100
0010
,
0001
0000
2000
0100
0000
0001
0000
3010
,
0100
0010
0001
0000
0010
0000
1000
0000
,
1001
0000
0001
0010
0001
0000
1002
0000
,
0000
0000
0000
0000
0203
0000
0310
0001
,
0010
0000
0100
0000
0001
1000
0001
0000
,
0010
0000
0100
0000
1200
0000
0310
1000
,
0010
0000
0100
0000
1000
0001
1000
0000
,
0010
0000
0100
0000
0210
0000
1300
0100
,
0001
0000
1000
0000
0001
0010
0001
0000
,
1000
0000
0100
0000
0210
0000
0301
0100
,
1000
0000
0001
0000
1000
0010
1000
0000
,
0001
0100
0001
0100
0020
0000
0130
1000
,
0100
0000
0010
0000
0001
0010
0100
0000
,
0001
0000
1000
0000
1200
0000
0310
1000
,
0010
0000
0100
0000
0001
0100
0010
0000
,
0001
0000
1000
0000
1020
0000
0130
1000
,
0100
0000
0010
0000
0001
0010
0100
0000
,
0001
1000
1200
0310
,
0001
0000
1000
0010
0100
0010
1000
0000
,
0002
0000
0000
0013
0000
0010
1000
0000
,
0010
0100
0001
0100
0010
0001
0010
0000
,
2000
0000
0000
3010
0000
0010
0001
0000
,
0010
0100
1000
0100
0010
1000
0010
0100
,
2000
0000
0000
3100
0000
0100
0010
0000
,
0100
1000
0001
0010
0100
0010
1000
0000
,
0002
0000
0000
0103
0000
0100
0010
0000
,
0100
0001
1000
0010
0100
0010
0001
1000
,
0002
0000
0000
0013
0000
0010
0100
0000
,
1000
0100
0010
0001
0010
0100
0001
0000
,
2000
0000
0000
3010
0000
0010
0100
0000
,
0001
0100
0010
1000
0010
0100
0010
0001
,
2000
0000
0000
3100
0000
0100
0010
0000
,
1000
0010
0100
1000
0100
0010
1000
0000
,
0001
0000
0001
0000
0001
0000
1000
0100
,
0010
0001
0100
0010
1000
0001
0010
0100
,
1000
0010
0100
0001
1000
0100
0010
0002
,
0000
0000
2003
0000
0000
0010
0000
0000
,
0001
0000
0000
0100
0000
0000
3001
0000
,
0000
0000
1002
0000
0000
0010
0000
0000
,
1000
0000
0000
0100
0000
0000
1003
0000
,
0000
0000
1200
0000
0000
0010
0000
0000
,
0001
0000
0000
0010
0000
0000
1300
0000
,
0000
0000
0201
0000
0000
0010
0000
0000
,
1000
0000
0000
0010
0000
0000
0301
0000
,
0000
0000
2000
0000
0000
3100
0000
0100
,
0000
0000
0002
0000
0000
0103
0000
0100
,
0000
0000
2000
0000
0000
3010
0000
0010
,
0000
0000
0002
0000
0000
0013
0000
0010
,
0000
2000
3100
0020
,
0130
0002
0103
0020
,
0130
2001
0000
0010
,
3010
1002
0000
0010
,
0013
2001
0000
0000
,
3000
0000
1100
0000
1000
0001
0100
0010
,
1000
0001
0010
0100
0010
1000
0000
1000
,
0100
0000
0010
0000
0001
1000
0010
0100
,
0001
1000
0100
1000
0001
0010
0000
0010
,
1000
0010
0100
0000
0001
1000
0100
0010
,
0001
1000
0010
0100
0010
0001
0000
0001
,
0100
0000
0010
0000
1000
0001
0010
0100
,
1000
0001
0100
0001
1000
0010
0000
0010
,
0001
0010
0100
0000
0001
0100
0010
1000
,
0010
0100
1000
0010
0100
1000
0000
1000
,
0010
0000
0100
0000
1000
0100
0010
0100
,
0001
1000
0100
1000
0001
0010
0000
0010
,
1000
0010
0100
0000
1000
0100
0010
0001
,
0010
0100
0001
0010
0100
0001
0000
0001
,
0010
0000
0110
0000
0100
1000
0001
0100
,
0010
0100
0000
0010
0100
0010
1000
0001
,
0010
0100
0020
1000
0000
0001
0000
1000
,
0000
0001
0000
1000
0000
0001
0000
1030
,
0010
0001
0100
1000
0000
0001
0010
1000
,
0100
0001
0000
1000
0010
0001
0100
1000
,
0000
0001
0010
0000
0120
0000
0000
0000
,
0000
0000
0030
0000
;

//---------------dance-double - NewbStepper-CDP----------------
#NOTES:
     dance-double:
     NewbStepper:
     Challenge:
     17:
     :
00000000
00000000
00000000
00000000
,
00000000
00000000
00000000
00000000
,
00000000
00000000
00000000
00000000
,
00000000
00000000
00000000
00000000
,
00000000
00000000
00000000
00000000
,
00000000
00000000
00000000
00000000
,
00012000
00000000
00000000
01003000
00000000
01000000
10000000
00000000
,
00000000
01000000
00010000
01000000
00100000
00010000
00001000
00000000
,
00021000
00000000
00000000
00030100
00000000
00000100
00000001
00000000
,
00000000
00000100
00001000
00000100
00000010
00001000
00010000
00000000
,
00012000
00000000
00000000
00103000
00000000
00100000
10000000
00000000
,
00000000
00100000
00010000
00100000
01000000
00010000
00001000
00000000
,
00021000
00000000
00000000
00030010
00000000
00000010
00000001
00000000
,
00000000
00000010
00001000
00000010
00000100
00001000
00010000
00000000
,
00012000
00000000
00000000
00103000
00000000
00100000
00010000
00000000
,
00000000
01000000
00100000
00010000
00001000
00100000
00001000
00000000
,
00021000
00000000
00000000
00030010
00000000
00000010
00001000
00000000
,
00000000
00000100
00000010
00001000
00010000
00000010
00010000
00001000
,
00000000
00000000
11000000
00000000
01000000
00010000
00001000
00100000
,
00000000
01000000
00010000
00001000
00100000
00000000
01000000
10000000
,
01000000
10000000
00010000
00000000
01000000
00100000
00010000
00001000
,
00100000
00001000
00010000
00000000
00000100
00000010
00001000
00010000
,
00000010
00010000
00001000
00000000
00000100
00001000
00010000
00000010
,
00000000
00000100
00001000
00010000
00000010
00000000
00000100
00000001
,
00000100
00000001
00001000
00000000
00000001
00000100
00001000
00010000
,
00100000
10000000
01000000
00000000
00100000
00000000
10010000
00000000
,
00010000
01000000
00100000
00010000
00001000
00100000
00000000
01000000
,
00010000
00001000
00100000
00010000
00000000
01000000
00100000
00010000
,
00001000
00000000
00000010
00000100
00000010
00000001
00000010
00000100
,
00010000
00000000
00001000
00000100
00000001
00000010
00000001
00000000
,
00001000
00000100
00000010
00001000
00010000
00000010
00000000
00000100
,
00001000
00010000
00000010
00001000
00000000
00000100
00000010
00001000
,
00010000
00000000
00100000
01000000
00100000
10000000
00100000
01000000
,
00001000
00000000
00010000
01000000
10000000
00100000
10000000
00000000
,
10010000
00000000
00020000
00100000
00000000
10000000
00000000
01030000
,
00100000
00010000
00001000
00000010
,
00000001
00000000
00002000
00000100
00000000
00000001
00000000
00003010
,
00000100
00000001
00000010
00001000
,
00010000
00000000
00200000
10000000
00000000
00010000
00000000
01300000
,
00100000
10000000
01000000
00100000
,
10010000
00010000
00100000
00101000
,
00001000
00000000
00010000
00000000
00000100
00000010
00000100
00000010
,
00000001
00000000
00002000
00000010
00000000
00000001
00000000
00003100
,
00000010
00001000
00010000
00100000
,
10000000
00000000
00020000
01000000
00000000
10000000
00000000
00130000
,
01000000
10000000
00100000
00010000
,
00001000
00000000
00000020
00000001
00000000
00001000
00000000
00000130
,
00000010
00000001
00000100
00000010
,
00001001
00001000
00000100
00010100
,
00011000
00000000
00000000
00000000
00020000
00000000
00031000
00100000
,
00001000
00000000
00010000
00000000
00100000
10000000
00100000
00000000
,
10000000
00000000
01000000
00000000
00020000
00000000
00031000
01000000
,
00001000
00000000
00010000
00000000
00001000
00000100
00001000
00000000
,
00000100
00000000
00000001
00000000
00002000
00000000
00003001
00000100
,
00001000
00000000
00010000
00000000
00000100
00001000
00000100
00000000
,
00010000
00001000
00100000
00000000
00020000
00000000
10030000
01000000
,
00010000
00000000
00001000
00000000
01000000
00010000
01000000
00000000
,
00100000
10000000
00100000
10000000
02000000
00000000
03010000
00001000
,
00000100
00000000
00000001
00000000
00000010
00000001
00000100
00000000
,
00000110
00000000
00000010
00000000
00000200
00000000
00001300
00010000
,
01000000
00000000
10000000
00000000
00100000
10000000
01000000
00000000
,
00100000
01000000
00010000
00000000
00021000
00000000
00031000
00000100
,
00000010
00000000
00001000
00000000
00000001
00000010
00001000
00000000
,
00000010
00000100
00010000
00000000
00012000
00000000
00013000
01000000
,
00100000
00000000
00010000
10000000
00010000
10000000
00010000
00000000
,
20000000
00000000
00000000
30100000
00000000
00100000
00010000
00000000
,
00001000
00010000
00001000
00000100
00000001
00001000
00000100
00000000
,
00020000
00000000
00000000
00000010
00030000
00000010
00001000
00000000
,
00000001
00000100
00001000
00010000
00000100
00000010
00000001
00001000
,
00000002
00000000
00000000
00000013
00000000
00000010
00001000
00000000
,
00010000
00001000
00010000
01000000
10000000
00010000
01000000
00000000
,
00002000
00000000
00000000
00103000
00000000
00100000
00010000
00000000
,
10000000
01000000
00010000
00001000
01000000
00100000
10000000
00010000
,
00200000
00000000
00000000
01300000
00000000
01000000
00010000
00000000
,
00001000
00100000
00010000
00100000
00001000
00010000
00001000
00000100
,
00000020
00000000
00000000
00000130
00000000
00000100
00001000
00000000
,
00010000
00000010
00001000
00000010
00010000
00001000
00010000
01000000
,
00200000
00000000
00000000
00301000
00000000
00001000
00010000
00000000
,
00100000
01000000
00001000
00010000
00001000
00000010
00000001
00000000
,
00000100
00000000
00000100
00000000
00000100
00000000
00000100
00000010
,
00001000
00000100
00010000
00001000
00100000
00010000
01000000
00100000
,
10000000
00010000
00100000
00001000
00010000
00000100
00001000
00000010
,
00000000
00000000
00002001
00000000
00000000
00000010
00000000
00000000
,
00000001
00000000
00000000
00000100
00000000
00000000
00013000
00000000
,
00000000
00000000
10020000
00000000
00000000
00100000
00000000
00000000
,
10000000
00000000
00000000
01000000
00000000
00000000
00031000
00000000
,
00000000
00000000
00012000
00000000
00000000
00000100
00000000
00000000
,
00000001
00000000
00000000
00000010
00000000
00000000
00013000
00000000
,
00000000
00000000
00021000
00000000
00000000
01000000
00000000
00000000
,
10000000
00000000
00000000
00100000
00000000
00000000
00031000
00000000
,
00000000
00000000
00000002
00000000
00000000
00000103
00000000
00000100
,
00000000
00000000
00000020
00000000
00000000
00001030
00000000
00001000
,
00000000
00000000
00020000
00000000
00000000
01030000
00000000
01000000
,
00000000
00000000
00200000
00000000
00000000
10300000
00000000
10000000
,
00000000
02000000
00000000
03020000
,
00000000
00032000
00000000
00003200
,
00000000
00000000
00000301
00000100
00000010
00001000
00010000
01000000
,
00100000
10000000
00010000
10000000
01000000
00100000
00010000
00001000
,
00000100
00000010
00000002
00000000
00000000
00000000
00000000
00000000
,
00000003
00000000
00000011
00000000
00001000
00000001
00000010
00000100
,
00001000
00000000
00000001
00000100
00001000
00010000
01000000
10000000
,
00100000
00000000
10100000
00000000
00010000
01000000
00100000
10000000
,
00010000
00000000
10000000
01000000
00010000
00001000
00000100
00000001
,
00000100
00000000
00000101
00000000
00001000
00000010
00000100
00000001
,
00001000
00000000
00000001
00000010
00001000
00010000
00100000
10000000
,
01000000
00000000
11000000
00000000
00010000
00100000
01000000
10000000
,
00010000
00000000
10000000
00100000
00010000
00001000
00000010
00000001
,
00001000
00000000
00001100
00000000
00000100
00000010
00001000
00010000
,
00001000
00000000
01000000
00001000
00010000
00100000
01000000
10000000
,
01000000
00000000
01010000
00000000
01000000
00100000
00010000
00001000
,
00010000
00000000
00000100
00010000
00001000
00000010
00000100
00000001
,
00000100
00000000
00001000
00000001
00000100
00000010
00001000
00000100
,
00000010
00001000
00010000
01000000
00100000
00010000
01000000
00100000
,
10000000
00000000
00010000
10000000
01000000
00100000
00010000
01000000
,
00100000
00010000
00001000
00000100
00000010
00001000
00000100
00000010
,
00000001
00000100
00000020
00010000
00000000
00001000
00000000
00010000
,
00000000
00001000
00000000
00010000
00000000
00001000
00000000
00000030
,
00000010
00000100
00000010
00000100
00000000
00000000
00001000
00010000
,
00001000
00010000
00000000
00000000
00100000
01000000
00100000
01000000
,
00000000
01100000
20020000
00000000
,
00000000
00000000
30030000
00000000
;
