#TITLE:PARANOiA CONTiNUUM;
#ARTIST:ALP-200;
#BANNER:PARANOiA CONTiNUUM.png;
#BACKGROUND:PARANOiA CONTiNUUM-bg.png;
#MUSIC:PARANOiA CONTiNUUM.ogg;
#OFFSET:1.12;
#SAMPLESTART:9.68;
#SAMPLELENGTH:15;
#DISPLAYBPM:200:400;
#BPMS:0=200,28=100,30=200,258=400,322=200;

//--------------- dance-single - Talkion-bSP----------------
#NOTES:
     dance-single:
     Talkion:
     Beginner:
     4:
     :
0000
0000
0000
0000
,
0000
0000
0000
0000
,
0000
0000
0000
0000
,
0000
0000
0000
0000
,
0000
0000
0000
0000
,
0000
0000
0000
0000
,
0000
0000
0000
0000
,
0000
0000
0000
0000
,
0000
0000
0001
0000
,
0001
0000
0001
0000
,
0001
0000
1000
0000
,
1000
0000
1000
0000
,
1000
0000
0001
0000
,
0001
0000
0001
0000
,
0001
0000
2000
0000
,
3000
0000
1000
0000
,
1000
0000
0010
0000
,
0010
0000
0010
0000
,
0010
0000
0100
0000
,
0100
0000
0100
0000
,
0100
0000
0010
0000
,
0010
0000
0010
0000
,
0010
0000
0000
0100
,
0000
0100
0000
0100
,
0000
0100
0200
0000
,
0300
0000
0000
0000
,
0001
0000
0002
0000
,
0003
0000
0000
0000
,
1000
0000
2000
0000
,
3000
0000
0000
0000
,
0010
0000
0020
0000
,
0030
0000
0000
0000
,
0100
0000
0200
0000
,
0300
0000
0000
0000
,
0001
0000
0002
0000
,
0003
0000
0000
0000
,
1000
0000
2000
0000
,
3000
0000
0000
0000
,
0010
0000
0020
0000
,
0030
0000
0000
0000
,
0100
0000
0010
0000
,
0010
0000
0010
0000
,
0010
0000
1000
0000
,
1000
0000
1000
0000
,
1000
0000
0001
0000
,
0001
0000
0001
0000
,
0001
0000
0100
0000
,
0100
0000
0100
0000
,
0100
0000
0010
0000
,
0010
0000
1000
0000
,
0100
0000
0010
0000
,
0010
0000
0001
0000
,
0100
0000
0010
0000
,
0010
0000
1000
0000
,
0100
0000
0010
0000
,
0010
0000
0001
0000
,
0100
0000
0010
0000
,
0000
0000
0000
0000
,
0000
0000
0000
0100
,
0100
0000
0000
0000
,
0000
0000
0010
0000
,
0000
0000
0000
0000
,
0000
0000
0000
0100
,
0100
0000
0000
0000
,
0000
0000
0001
0000
,
0001
0000
0001
0000
,
0000
0000
1000
0000
,
1000
0000
1000
0000
,
0000
0000
0001
0000
,
0001
0000
0001
0000
,
0000
0000
1000
0000
,
1000
0000
1000
0000
,
0000
0000
0001
0000
,
0001
0000
0001
0000
,
0000
0000
1000
0000
,
1000
0000
1000
0000
,
0000
0000
0001
0000
,
0001
0000
0001
0000
,
0000
0000
2000
0000
,
0000
0000
3000
0000
,
0000
0000
0110
0000
;

//--------------- dance-single - Talkion-BSP----------------
#NOTES:
     dance-single:
     Talkion:
     Easy:
     9:
     :
0000
0000
0000
0000
,
0000
0000
0000
0000
,
0000
0000
0000
0000
,
0000
0000
0000
0000
,
0000
0000
0000
0000
,
0000
0000
0000
0000
,
0000
0000
0000
0000
,
0000
0000
0000
0000
1000
0000
0000
2000
,
0000
0000
3001
0100
,
0001
0100
0010
0100
,
0010
0100
0010
1000
,
0010
1000
0001
1000
,
0001
1000
0100
1000
,
0100
1000
0100
0010
,
0100
0010
0002
1003
,
2000
0000
3001
0000
0100
0010
0100
0010
,
0100
0010
1000
0001
,
1000
0001
0010
0001
,
0010
0001
0010
0100
,
0010
0100
0010
1000
,
0010
1000
0010
0100
,
0010
0100
1000
0001
,
1000
0000
0001
0000
0000
0100
0000
0100
,
0000
0010
0000
0010
0000
1000
0000
1000
,
0000
0001
1000
0001
1000
0000
0000
0000
,
1100
0000
0000
0000
2000
0000
0000
3200
,
0000
0310
0001
0000
,
0101
0000
0000
0000
0002
0000
0000
0203
,
0000
0310
1000
0000
,
1001
0000
0000
0000
0002
0000
0000
0023
,
0000
1030
0010
0010
,
0100
0000
0100
0000
0020
0000
0000
0032
,
0000
1003
0001
0000
,
0101
0000
0000
0000
0002
0000
0000
0203
,
0000
0310
1000
0000
,
1100
0000
0000
0000
2000
0000
0000
3200
,
0000
0310
0001
0000
,
1001
0000
0000
0000
2000
0000
0000
3020
,
0000
0031
0010
0010
,
0100
0100
0001
0001
,
1000
1000
0100
0100
,
0100
0000
0100
0010
0001
0000
0000
0001
,
0000
0001
0100
0100
,
0100
0000
0100
0010
1000
0000
0000
1000
,
0000
1000
0001
0001
,
0001
0000
0001
0100
0010
0000
0000
0010
,
0000
0010
1000
1000
,
1000
0000
1000
0100
0010
0000
0000
0010
,
0000
0010
0001
0001
,
0001
0000
0001
0010
1000
0000
0000
1000
,
0000
1000
0010
0010
,
0010
0000
0010
0100
1000
0000
0000
1000
,
0000
1000
0001
0001
,
0001
0000
0001
0100
1000
0000
0000
1000
,
0000
1000
0100
0100
,
0100
0000
0100
0010
1000
0000
0000
1000
,
0000
0000
1000
0000
0200
0000
0000
0020
,
0000
0000
0000
0000
,
0000
0000
0330
0000
0000
0002
0000
2000
,
0000
0000
0000
0000
,
0000
0000
3003
0000
0020
0000
0000
0200
,
0000
0000
0000
0000
,
0000
0000
0330
0000
0000
0002
0000
2000
,
0000
0000
0000
0000
,
0000
3003
0000
0001
,
0000
0010
0000
0001
,
0000
0010
0000
1000
,
0000
0010
0000
1000
,
0000
0010
0000
0001
,
0000
0100
0000
0001
,
0000
0100
0000
1000
,
0000
0100
0000
1000
,
0000
0100
0000
0001
,
0000
1000
0000
0001
,
1000
0001
0000
1000
,
0000
0001
0000
1000
,
0001
1000
0000
0010
,
0100
0010
0100
0010
,
0100
0010
0100
0010
,
0100
0010
0100
0010
,
0100
0020
0200
0000
,
0000
0000
0330
0000
;

//--------------- dance-single - Talkion-DSP----------------
#NOTES:
     dance-single:
     Talkion:
     Medium:
     12:
     :
0000
0000
0000
0000
,
0000
0000
0000
0000
,
0000
0000
0000
0000
,
0000
0000
0000
0000
,
0000
0000
0000
0000
,
0000
0000
0000
0000
,
0000
0000
0000
0000
,
0000
0200
0300
0020
0030
0000
0000
0000
2001
0000
0000
0000
0000
0000
3200
0000
,
0000
0310
0001
0001
,
0001
0000
0100
0010
1000
0000
1000
0000
,
1000
0000
0100
0010
0001
0000
0001
0000
,
0001
0000
0100
1000
0100
0000
0100
0000
,
0100
0000
0010
1000
0100
0000
0100
0000
,
0100
0000
0010
0001
0100
0000
0100
0000
,
0100
0000
1000
0100
0002
0000
1000
1003
,
0001
0000
1001
0000
1000
0100
0001
0100
,
0010
0110
0001
0001
,
0100
0001
0100
0001
0010
0000
0010
0000
,
0100
1000
0100
1000
0010
0000
0010
0000
,
0100
1000
0100
0001
0100
0000
0100
0000
,
0010
1000
0010
1000
0001
0000
0001
0000
,
0010
0001
0010
0001
0100
0000
0100
0000
,
0010
1000
0010
1000
0100
0010
0000
0011
,
0000
1010
0000
0011
0000
1010
0000
0011
,
0000
0010
0010
0100
1000
0000
1001
0000
,
0001
0000
1001
0000
2000
0000
0000
3020
,
0000
0130
0001
1001
,
1000
0000
1001
0000
0002
0000
0000
0023
,
0000
0130
1000
1001
,
0001
0000
1001
0000
2000
0000
0000
3020
,
0000
0031
0010
0110
,
0100
0000
0110
0000
0001
0010
0100
1000
,
0100
0010
0001
0000
0100
0000
1010
0000
,
0100
0000
0011
0000
0200
0000
0000
0302
,
0000
0013
1000
0110
,
0001
0000
0110
0000
2000
0000
0000
3002
,
0000
0103
0010
1100
,
0010
0000
0101
0000
0020
0000
0000
2030
,
0000
3100
0010
1001
,
0100
0000
1001
0000
0010
0001
0010
0100
,
0010
1000
0010
0000
0100
0000
0100
0000
,
0100
0000
0010
0010
0010
0000
0001
1000
,
0000
1000
0010
0100
0001
0000
0001
0000
,
0001
0000
1000
1000
1000
0000
0100
0010
,
0000
0010
0001
0100
0010
0000
0010
0000
,
0010
0000
0100
0100
0100
0000
0001
1000
,
0000
1000
0100
0010
0001
0000
0001
0000
,
0001
0000
1000
1000
1000
0000
0010
0100
,
0010
0100
0001
0000
1000
0000
1010
0000
,
1000
0010
0010
1000
0020
0000
0100
0100
,
0000
0130
0010
0100
0001
0000
0011
0000
,
0001
0010
0010
0001
0020
0000
0100
0100
,
0000
0130
0010
0100
1000
0000
1001
0000
,
0001
1000
1000
0001
0200
0000
1000
1000
,
0000
1300
0100
0010
1000
0000
1001
0000
,
1000
0001
0001
1000
0200
0000
0001
0301
,
0100
0010
0001
0100
0020
0000
0100
0000
,
0000
0100
0000
0100
,
0000
0130
2000
0001
,
0000
0001
0000
0001
,
0000
3001
0020
0100
,
0000
0100
0000
0100
,
0000
0130
2000
0001
,
0000
0001
0000
0001
,
0000
3001
0100
0010
,
0100
0010
0100
0010
,
0100
0000
0001
1000
,
0001
1000
0001
1000
,
0001
0000
1000
0100
,
1000
0100
0010
0100
,
1000
0000
0001
0100
,
0001
0100
0010
0100
,
0001
0000
1000
0100
,
1000
0100
0010
0001
,
0010
0001
0100
0001
,
0100
0001
0100
1000
,
0100
1000
0100
0001
,
0100
1000
0100
0010
,
1000
0100
0010
0001
,
0100
0010
1000
0100
,
0010
0002
2000
0000
,
0000
0000
3003
0000
;

//--------------- dance-single - Talkion-ESP----------------
#NOTES:
     dance-single:
     Talkion:
     Hard:
     15:
     :
0000
0000
0000
0000
,
0000
0000
0000
0000
,
0000
0000
0000
0000
,
0000
0000
0000
0000
,
0000
0000
0000
0000
,
0000
0000
0000
0000
,
0000
0000
0000
0000
,
0000
0200
0300
0020
0030
0000
0000
0000
2001
0000
0000
0000
3100
0000
0120
0000
,
0000
0031
1001
0000
1000
0010
1000
0001
,
1000
0100
1000
0000
0001
0010
0001
1000
,
0001
0100
0001
0000
1000
0100
0001
0100
,
1000
0100
0010
0000
0001
0100
1000
0100
,
0001
0000
1000
0001
1000
0000
0000
0000
0001
0000
0010
0000
0100
0000
0010
0000
,
0001
0100
0010
0000
1000
0100
0010
0100
,
1000
0000
0010
0000
0100
0000
0000
0000
0001
1000
0002
0000
0100
0000
0203
0000
,
0010
0310
2001
0000
0100
0100
3100
1000
,
1100
0000
0101
0000
1000
0100
0010
0100
,
1000
0100
0001
0000
0100
0010
0001
0010
,
0100
0010
0001
0000
1000
0010
0100
0010
,
1000
0010
0001
0000
0010
0100
0001
0100
,
0010
0000
0100
0010
0100
0000
0000
0000
0001
0000
0010
0000
1000
0000
0010
0000
,
0001
0010
1000
0000
0010
0001
0100
0001
,
0010
0001
0100
0000
0020
1030
0020
0031
,
0020
1030
0020
0031
0020
1030
2000
3100
,
0200
0000
0310
0000
0001
1000
0001
1000
0010
0000
0000
0000
0101
0000
0000
0000
,
0010
0000
1100
0000
1002
0000
0103
1000
,
0001
0010
1010
0000
0100
0000
0011
0000
,
0100
0000
1010
0000
2001
0000
3010
0001
,
1000
0100
0101
0000
0010
0000
1001
0000
,
0100
0000
1001
0000
0210
0000
0301
0010
,
0100
1000
1001
0000
0200
0310
0020
0130
,
0002
0103
2000
3100
0002
0103
2000
3100
,
0001
0000
1000
0001
1000
0000
0000
0000
0011
0000
0000
0000
0101
0000
0000
0000
,
1100
0000
1010
0000
0012
0000
0103
1000
,
0001
0010
1010
0000
1100
0000
0101
0000
,
0011
0000
1010
0000
1200
0000
0301
1000
,
0010
0001
0101
0000
0011
0000
1010
0000
,
0011
0000
0110
0000
1002
0000
0103
0010
,
0001
1000
1100
0000
0101
0000
1100
0000
,
0101
0000
0110
0000
2001
0000
3100
0010
,
0001
0000
1000
0001
1000
0000
0010
0000
0100
0000
0100
0000
0010
0000
0001
0000
,
0001
0010
1000
1000
0010
0100
0100
0200
,
0000
0000
0301
0100
0010
0000
0000
0000
0010
0000
0010
0000
0100
0000
1000
0000
,
1000
0100
0001
0001
0100
0010
0010
0020
,
0000
0000
1030
0010
0100
0000
0000
0000
0001
0000
0010
0000
0010
0000
1000
0000
,
0010
0010
0001
0100
0010
0100
0100
0200
,
0000
0000
1300
0100
0010
0000
0000
0000
1000
0000
0100
0000
0100
0000
0001
0000
,
0100
0100
1000
0010
0100
0010
0010
0020
,
0000
0000
0031
0010
0100
0000
0000
0000
0010
0000
1000
0000
1000
0000
0100
0000
,
0001
0000
0001
0000
0100
0000
1000
0000
1000
0000
0001
0100
0001
0100
0020
0000
,
0000
0000
1030
0010
0100
0000
0000
0000
0100
0000
0001
0000
0001
0000
0010
0000
,
1000
0000
1000
0000
0010
0000
0001
0000
0001
0000
1000
0010
1000
0010
0200
0000
,
0000
0000
0301
0100
0010
0000
0000
0000
1000
0000
0100
0000
0100
0000
0001
0000
,
1000
0000
1000
0000
0010
0000
0001
0000
0100
0000
0010
0100
0010
0100
0002
0000
,
0000
0000
1003
0001
0010
0000
0000
0000
0001
0000
0010
0000
0010
0000
1000
0000
,
0001
0000
0001
0000
0100
0000
1000
0000
0010
0000
0100
0010
0100
0010
2000
0000
,
0000
0000
3001
1000
0100
0000
0010
0000
0110
0000
0000
0000
0100
0000
2100
0000
,
0000
0010
0100
0010
,
0001
0001
3001
0000
0110
0100
0000
1001
,
0000
0001
0021
0000
0100
0000
1000
0000
,
0100
0100
0130
0000
0110
0000
0010
0012
,
0000
0100
0010
0100
,
1000
1000
1003
0000
0110
0010
0000
1001
,
0000
1000
1200
0000
0001
0000
1000
0000
,
0010
0010
0310
0000
0002
0000
0103
0000
,
2000
3100
0002
0103
,
0020
1030
0200
0301
,
0200
1300
0200
0310
,
0002
0103
0020
0031
,
0020
1030
0020
0031
,
0020
1030
0200
0310
,
2000
3010
0200
0310
,
2000
0000
3010
0000
0001
0100
0010
0000
,
0100
0000
0010
0000
1000
0100
0010
0000
,
0100
0000
0010
0000
0001
1000
0100
0000
,
1000
0000
0100
0000
1000
0001
0100
0000
,
0001
0000
0100
0000
0010
0100
0010
0000
,
0100
1000
0100
0000
0010
0100
0010
0000
,
1000
0001
1000
0000
0001
0010
0100
0000
,
1000
0100
0010
0000
0001
1000
0001
1000
,
0001
1000
0001
0200
0020
0000
0000
0000
,
0000
0000
0330
0000
;

//--------------- dance-single - Talkion-CSP----------------
#NOTES:
     dance-single:
     Talkion:
     Challenge:
     17:
     :
0000
0000
0000
0000
,
0000
0000
0000
0000
,
0000
0000
0000
0000
,
0000
0000
0000
0000
,
0000
0000
0000
0000
,
0000
0000
0000
0000
,
0000
0000
0000
0000
,
0000
0200
0300
0020
0030
0000
0000
0000
2001
0000
0000
0000
3100
0000
0120
0000
,
0000
0031
1001
0000
1000
0010
0100
0010
,
1000
0000
0010
0000
0100
0000
0100
1000
0001
0000
0010
0000
0100
0000
0010
0000
,
0001
0000
0010
0000
0100
0000
0100
0001
1000
0000
0001
0000
0010
0000
0001
0000
,
1000
0000
0001
0000
0010
0000
0010
1000
0001
0000
0100
0000
0010
0000
0100
0000
,
0001
0000
1000
0100
1000
0001
0100
0001
1000
0000
0100
0000
0010
0000
0100
0000
,
1000
0000
0100
0000
0010
0000
0010
1000
0001
0000
0100
0000
0010
0000
0100
0000
,
0001
0000
1000
0000
0010
0000
0010
0001
1000
0100
0010
0000
1000
0000
1000
0000
,
0100
0010
0011
0000
1001
1000
1010
0010
,
0011
0000
0000
0001
1000
0010
0100
0001
1000
0000
0001
0000
0010
0000
0001
0000
,
1000
0000
0020
0100
0031
0000
0200
0010
0301
0000
0010
0000
1000
0000
0001
0010
,
0001
0000
1000
0000
0010
0100
0010
0100
0001
0000
1000
0000
0010
0000
1000
0000
,
0001
0000
0020
0100
1030
0000
0200
0010
1300
0000
0010
0000
0001
0000
1000
0010
,
1000
0000
0001
0010
0001
1000
0010
0100
0001
0000
1000
0000
0100
0000
1000
0000
,
0001
0000
0200
0010
1300
0000
0020
0100
1030
0000
0100
0000
0001
0000
1000
0100
,
1000
0000
0001
0000
0100
0010
0100
0010
1000
0000
0002
0000
0010
0000
2003
0000
,
0010
3002
0100
2003
0100
3002
0100
1003
,
0001
0000
0010
0100
1000
0001
0100
0010
0001
0000
0000
0000
0011
0000
0000
0000
,
1010
0000
1001
0000
0011
0000
0100
2000
,
0000
3010
0100
0000
1100
0000
0101
0000
,
1001
0000
1100
0000
0011
0000
0001
2000
,
0000
3010
0010
0001
1001
0000
1100
0000
,
0011
0000
1001
0000
1010
0000
0010
0200
,
0000
0301
1000
0000
0001
0010
1000
0010
,
0001
0010
1000
0001
1000
0010
0001
1000
,
0001
0000
1000
0010
1000
0000
0100
0000
0001
0000
0000
0000
0101
0000
0000
0000
,
1100
0000
1001
0000
0101
0000
0010
2000
,
0000
3100
0010
0000
1010
0000
0011
0000
,
1001
0000
1010
0000
0101
0000
0001
2000
,
0000
3100
0100
0001
1001
0000
1010
0000
,
0101
0000
1001
0000
1100
0000
0100
0020
,
0000
0031
1000
0000
0001
0100
1000
0100
,
0001
0100
1000
0001
1000
0100
0001
1000
,
0001
0000
1000
0100
1000
0000
0010
0000
0001
0000
1000
0000
1000
0000
0100
0000
,
0010
0010
1000
0100
0010
0010
1000
0001
,
0010
0000
0100
0010
0001
0000
1000
0100
0001
0000
1000
0000
1000
0000
0010
0000
,
0100
0100
1000
0010
0100
0100
1000
0001
,
0100
0000
0100
1000
0001
0000
0010
0000
1000
0000
0001
0000
0001
0000
0100
0000
,
0010
0010
0001
0100
0010
0010
0001
1000
,
0010
0000
0100
0010
1000
0000
0001
0100
1000
0000
0001
0000
0001
0000
0010
0000
,
0100
0100
0001
0010
0100
0100
0001
1000
,
0100
0000
0000
0010
0100
0000
1000
0000
0001
0000
0100
0000
0100
0000
1000
0000
,
0001
0000
2000
0010
3001
0000
0020
0100
0031
0000
0010
0000
0010
0000
1000
0000
,
0001
0000
0010
0100
1000
0000
0100
1000
0001
0000
0010
0000
0010
0000
1000
0000
,
0001
0000
2000
0100
3001
0000
0200
0010
0301
0000
0100
0000
0100
0000
1000
0000
,
0001
0000
0100
0001
1000
0000
0100
0000
0010
0000
1000
0000
1000
0000
0100
0000
,
0001
0000
0200
0010
0301
0000
2000
0010
3001
0000
0010
0000
1000
0000
0001
0000
,
0010
0000
0100
0010
0001
0000
1000
0001
0100
0000
1000
0000
1000
0000
0010
0000
,
0001
0000
0020
0100
0031
0000
2000
0100
3001
0000
0100
0000
1000
0000
0001
0000
,
0100
0000
0000
0001
1000
0000
0100
0000
0110
0000
0000
0000
0010
0000
0012
0000
,
0000
0100
0010
0100
,
1000
1000
1003
0000
0110
0010
0000
1001
,
0000
1000
1200
0000
0010
0000
0001
0000
,
0010
0010
0310
0000
0110
0000
0100
2100
,
0000
0010
0100
0010
,
0001
0001
3001
0000
0110
0100
0000
1001
,
0000
0001
0021
0000
1000
0000
0001
0000
,
0100
0100
0130
0000
1000
0000
0002
0000
,
0010
2003
0010
3002
,
0100
2003
0100
3002
,
1000
0023
1000
0032
,
1000
0103
0010
2000
,
0100
3002
0100
2003
,
0010
3002
0010
2003
,
0001
3200
0001
1300
,
0100
0000
0010
0000
0001
0010
0001
0000
,
0010
0100
0010
0000
0100
1000
0100
0000
,
1000
0001
1000
0000
0001
0100
0001
0000
,
0100
0010
0100
0000
0010
1000
0010
0000
,
1000
0001
1000
0000
0001
0010
0100
1000
,
0001
0010
0100
1000
0001
1000
0100
0010
,
0001
1000
0100
0010
0001
1000
0010
0100
,
0001
1000
0100
0010
0001
1000
0010
0100
,
0001
1000
0100
0010
2000
0000
0000
0000
,
0000
0000
3000
0000
;

//--------------- dance-double - Talkion-BDP----------------
#NOTES:
     dance-double:
     Talkion:
     Easy:
     10:
     :
00000000
00000000
00000000
00000000
,
00000000
00000000
00000000
00000000
,
00000000
00000000
00000000
00000000
,
00000000
00000000
00000000
00000000
,
00000000
00000000
00000000
00000000
,
00000000
00000000
00000000
00000000
,
00000000
00000000
00000000
00000000
,
00000000
00000000
00000000
00000000
00000001
00000000
00000000
00000002
,
00000000
00000000
00000013
00000100
,
00000010
00000100
00010000
00000100
,
00010000
00000100
00010000
00001000
,
00010000
00001000
00100000
00001000
,
00100000
00001000
00100000
01000000
,
00100000
01000000
10000000
01000000
,
10000000
01000000
00200000
00301000
,
00002000
00000000
00013000
00000000
00001000
00010000
00001000
00010000
,
00001000
00000100
00000010
00000100
,
00000010
00000200
00000000
00000000
00000301
00000000
00000100
00000000
,
00001000
00010000
00100000
01000000
,
00100000
02000000
00000000
00000000
03010000
00000000
10000000
00000000
,
01000000
00100000
00001000
00010000
,
00001000
00020000
00000000
00000000
00030100
00000000
00000010
00000000
,
00000001
00000000
00001000
00000000
00000000
00000010
00000000
00000010
,
00000000
00001000
00000000
00001000
00000000
00010000
00000000
00010000
,
00000000
01000000
00100000
01000000
00100000
00000000
00000000
00000000
,
10010000
00000000
00000000
00000000
00020000
00000000
00000000
00032000
,
00000000
00003100
00000010
00000000
,
00001001
00000000
00000000
00000000
00002000
00000000
00000000
00023000
,
00000000
01030000
00100000
00000000
,
10010000
00000000
00000000
00000000
20000000
00000000
00000000
30200000
,
00000000
00310000
00001000
00001000
,
00010000
00000000
00010000
00000000
00002000
00000000
00000000
00003200
,
00000000
00000301
00001000
00000000
,
00000110
00000000
00000000
00000000
00002000
00000000
00000000
00023000
,
00000000
00130000
00010000
00000000
,
01100000
00000000
00000000
00000000
00020000
00000000
00000000
00032000
,
00000000
00003100
00001000
00000000
,
00000110
00000000
00000000
00000000
00000002
00000000
00000000
00000023
,
00000000
00001030
00010000
00010000
,
00001000
00001000
00100000
00100000
,
00010000
00010000
10000000
00100000
,
00010000
00000000
00001000
00010000
00001000
00000000
00000000
00000100
,
00000000
00000100
00000001
00000100
,
00001000
00000000
00010000
00001000
00010000
00000000
00000000
00100000
,
00000000
00100000
10000000
01000000
,
00010000
00000000
00001000
00010000
00001000
00000000
00000000
00100000
,
00000000
00100000
00001000
00010000
,
00100000
00000000
10000000
00010000
10000000
00000000
00000000
00100000
,
00000000
00100000
00010000
00001000
,
00000010
00000000
00001000
00010000
00001000
00000000
00000000
00000100
,
00000000
00000100
00001000
00010000
,
01000000
00000000
00010000
00001000
00010000
00000000
00000000
00100000
,
00000000
00100000
00010000
00001000
,
00000010
00000000
00000001
00001000
00000001
00000000
00000000
00000100
,
00000000
00000100
00001000
00010000
,
01000000
00000000
10000000
00010000
10000000
00000000
00000000
00100000
,
00000000
00000000
00100000
00000000
00020000
00000000
00000000
00002000
,
00000000
00000000
00000000
00000000
,
00033000
00000000
00000000
00000000
00000000
00000020
00000000
00000200
,
00000000
00000000
00000000
00000000
,
00000330
00000000
00000000
00000000
00020000
00000000
00000000
00002000
,
00000000
00000000
00000000
00000000
,
00000000
00000000
00033000
00000000
00000000
00000000
00000000
02000000
,
00000000
00200000
00000000
00000000
00000000
00000000
00000000
00000000
,
03300000
00000000
00000000
10000000
,
00000000
00100000
00000000
00010000
,
00000000
00001000
00000000
00100000
,
00000000
00010000
00000000
00001000
,
00000000
00000100
00000000
00000001
,
00000000
00000100
00000000
00001000
,
00000000
00010000
00000000
00000100
,
00000000
00001000
00000000
00010000
,
00000000
00100000
00000000
00010000
,
00000000
10000000
00000000
00010000
,
10000000
00010000
00000000
00100000
,
00000000
00001000
00000000
00100000
,
00001000
00100000
00000000
00001000
,
00010000
00001000
00010000
00001000
,
00010000
00001000
00010000
00001000
,
00010000
00001000
00010000
00001000
,
00010000
00002000
00020000
00000000
,
00000000
00000000
00033000
00000000
;

//--------------- dance-double - Talkion-DDP----------------
#NOTES:
     dance-double:
     Talkion:
     Medium:
     13:
     :
00000000
00000000
00000000
00000000
,
00000000
00000000
00000000
00000000
,
00000000
00000000
00000000
00000000
,
00000000
00000000
00000000
00000000
,
00000000
00000000
00000000
00000000
,
00000000
00000000
00000000
00000000
,
00000000
00000000
00000000
00000000
,
00000000
00020000
00030000
00002000
00003000
00000000
00000000
00000000
00012000
00000000
00000000
00000000
00000000
00000000
00003200
00000000
,
00000000
00000301
00000010
00000010
,
00000001
00000000
00000010
00000100
00001000
00000000
00001000
00000000
,
00010000
00000000
00001000
00010000
00100000
00000000
00100000
00000000
,
01000000
00000000
00100000
00010000
01000000
00000000
01000000
00000000
,
00100000
10000000
00100000
10000000
00010000
00000000
00010000
00000000
,
10000000
00000000
01000000
00100000
00010000
00000000
00010000
00000000
,
00001000
00000000
00010000
00001000
00000200
00000000
00000010
00000310
,
00000100
00000000
00001001
00000000
00000001
00000100
00001000
00010000
,
00100000
01100000
10000000
10000000
,
01000000
00100000
01000000
00100000
00010000
00000000
00010000
00000000
,
00001000
00000100
00001000
00000100
00000010
00000000
00000010
00000000
,
00000001
00000010
00000001
00000010
00000100
00000000
00000100
00000000
,
00001000
00010000
00001000
00010000
00100000
00000000
00100000
00000000
,
01000000
10000000
00100000
10000000
01000000
00000000
01000000
00000000
,
00010000
00001000
00100000
00010000
00000000
10010000
00000000
00110000
,
00000000
00001100
00000000
00110000
00000000
00001100
00000000
00001001
,
00000000
00000001
00000001
00000100
00000010
00000000
00001010
00000000
,
00001000
00000000
00011000
00000000
00020000
00000000
00000000
20030000
,
00000000
31000000
00100000
00110000
,
00010000
00000000
00011000
00000000
00002000
00000000
00000000
00003002
,
00000000
00000103
00001000
00011000
,
00010000
00000000
01010000
00000000
02000000
00000000
00000000
23000000
,
00000000
30100000
00010000
00011000
,
00001000
00000000
00011000
00000000
00000100
00001000
00000010
00001000
,
00000100
00001000
00010000
00100000
01000000
00000000
11000000
00000000
,
10000000
00000000
10100000
00000000
00200000
00000000
00000000
00302000
,
00000000
00003010
00000100
00000101
,
00000001
00000000
00000011
00000000
00000020
00000000
00000000
00020030
,
00000000
00130000
00010000
10010000
,
10000000
00000000
10100000
00000000
00200000
00000000
00000000
00320000
,
00000000
00031000
00000100
00000110
,
00000010
00000000
00000110
00000000
00000001
00000010
00001000
00010000
,
01000000
10000000
00010000
01000000
00100000
00000000
00100000
00000000
,
00100000
00000000
10000000
10000000
01000000
00000000
00010000
00000100
,
00010000
00001000
00000100
00000100
,
00000100
00000000
00000001
00000001
00000010
00000000
00001000
00100000
,
00001000
00010000
00100000
00100000
,
00100000
00000000
10000000
10000000
00010000
00000000
00001000
00010000
,
00100000
00001000
00000100
00000100
,
00000100
00000000
00000001
00000001
00001000
00000000
00010000
00001000
,
00000100
00000010
00001000
00001000
,
00010000
10000000
00010000
00100000
02000000
00000000
00001000
00001000
,
00000000
03100000
01000000
00100000
00010000
00000000
00010000
00000000
,
00001000
00000001
00001000
00000010
00000200
00000000
00010000
00010000
,
00000000
00000310
00000100
00000010
00001000
00000000
00001000
00000000
,
00010000
01000000
10000000
00100000
00020000
00000000
00000100
00000100
,
00000000
00030010
00000100
00000010
00010000
00000000
00010000
00000000
,
00001000
00000010
00000001
00000100
00002000
00000000
00100000
00100000
,
00000000
01003000
00100000
01000000
00020000
00000000
10000000
00000000
,
00000000
10000000
00000000
00100000
,
00000000
00130000
00002000
00000100
,
00000000
00000100
00000000
00000001
,
00000000
00003001
00000020
00000100
,
00000000
00000100
00000000
00010000
,
00000000
00010030
00002000
00100000
,
00000000
00100000
00000000
01000000
,
00000000
01003000
00100000
10000000
,
00100000
00000000
00010000
00001000
,
00010000
00000000
00001000
00000010
,
00001000
00000000
00000010
00000001
,
00000010
00000000
00000001
00000100
,
00001000
00000000
00000100
00001000
,
00010000
00000000
00001000
00010000
,
01000000
00000000
00010000
01000000
,
10000000
00000000
00100000
01000000
,
00100000
01000000
00010000
00100000
,
00010000
00100000
00001000
00010000
,
00001000
00010000
00000100
00001000
,
00000100
00001000
00000001
00000010
,
00000100
00001000
00010000
00001000
,
00010000
00100000
01000000
10000000
,
00100000
00010000
00001000
00000100
,
00000001
00000020
00000200
00000000
,
00000000
00000000
00000330
00000000
;

//--------------- dance-double - Talkion-EDP----------------
#NOTES:
     dance-double:
     Talkion:
     Hard:
     16:
     :
00000000
00000000
00000000
00000000
,
00000000
00000000
00000000
00000000
,
00000000
00000000
00000000
00000000
,
00000000
00000000
00000000
00000000
,
00000000
00000000
00000000
00000000
,
00000000
00000000
00000000
00000000
,
00000000
00000000
00000000
00000000
,
00000000
00020000
00030000
00002000
00003000
00000000
00000000
00000000
00021000
00000000
00000000
00000000
01030000
00000000
02100000
00000000
,
00000000
13000000
10010000
00000000
10000000
00100000
00010000
00100000
,
10000000
00100000
00010000
00000000
00001000
00010000
01000000
00010000
,
00001000
00010000
01000000
00000000
00010000
00001000
00000100
00001000
,
00010000
00001000
00000100
00000000
00000001
00000010
00001000
00000010
,
00000001
00000010
00001000
00000000
00010000
00001000
00000100
00001000
,
00010000
00001000
00000100
00000000
00000010
00001000
00010000
00001000
,
00000010
00000000
00001000
00000000
00010000
00000000
00000000
00000000
00100000
00010000
00200000
00000000
00010000
00000000
00320000
00000000
,
10000000
10030000
00200000
00000000
00320000
00032000
00003200
00000302
,
00000013
00000000
00000110
00000000
00000001
00000010
00001000
00000010
,
00000001
00000100
00000010
00000000
00010000
00001000
00000010
00001000
,
00010000
00000100
00001000
00000000
00010000
00100000
01000000
00100000
,
00010000
01000000
00100000
00000000
10000000
01000000
00010000
01000000
,
10000000
00100000
01000000
00000000
00001000
00010000
01000000
00010000
,
00001000
00100000
00010000
00000000
00001000
00000100
00000010
00000100
,
00001000
00000010
00000100
00000000
00000020
00001030
00200000
00310000
,
00000020
00001030
00200000
00310000
00000020
00001030
00010000
00100000
,
01000000
00000000
10000000
00000000
00010000
10000000
00010000
10000000
00100000
00000000
00000000
00000000
00011000
00000000
00000000
00000000
,
00000010
00000000
00011000
00000000
00200000
00000000
00301000
00000020
,
00000000
00001030
00010000
00000000
00000100
00000000
00011000
00000000
,
01000000
00000000
00011000
00000000
00000200
00000000
00010300
02000000
,
00000000
03010000
00001000
00000000
00100000
00000000
00011000
00000000
,
00000010
00000000
00011000
00000000
00200000
00000000
00301000
00000200
,
00000000
00000310
00000100
00000000
00000002
00000103
00002000
00003100
,
00000002
00000013
00002000
00013000
00200000
10300000
00010000
00100000
,
01000000
00000000
10000000
00010000
10000000
00000000
00000000
00000000
01100000
00000000
00000000
00000000
00011000
00000000
00000000
00000000
,
00000110
00000000
00011000
00000000
01100000
00000000
10000000
01000000
,
00001000
00010000
00100000
00000000
00011000
00000000
00000110
00000000
,
00011000
00000000
01100000
00000000
00011000
00000000
00000100
00010000
,
00000010
00000100
00001000
00000000
00000110
00000000
00011000
00000000
,
01100000
00000000
00011000
00000000
00000110
00000000
00000001
00000010
,
00010000
00001000
00000100
00000000
00011000
00000000
01100000
00000000
,
00011000
00000000
00000110
00000000
00021000
00000000
01030000
10000000
,
00100000
00000000
01000000
00100000
01000000
00000000
00000000
00000000
00100000
00000000
00010000
00000000
00001000
00000000
00000010
00000000
,
00001000
00010000
00100000
00001000
00010000
00100000
01000000
20000000
,
00000000
00000000
30010000
10000000
01000000
00000000
00000000
00000000
01000000
00000000
00010000
00000000
00001000
00000000
00000100
00000000
,
00001000
00010000
01000000
00001000
00010000
01000000
00100000
20000000
,
00000000
00000000
30010000
10000000
00100000
00000000
00000000
00000000
00010000
00000000
00001000
00000000
00000010
00000000
00000001
00000000
,
00000010
00001000
00010000
00000010
00001000
00010000
00100000
00002000
,
00000000
00000000
00013000
00001000
00010000
00000000
00000000
00000000
00010000
00000000
00001000
00000000
00000100
00000000
00000001
00000000
,
00000100
00001000
00010000
00000100
00001000
00010000
01000000
00002000
,
00000000
00000000
00013000
00001000
00010000
00000000
00000000
00000000
00001000
00000000
00000010
00000000
00000001
00000000
00001000
00000000
,
00000010
00000001
00001000
00010000
00001000
00000010
00000100
00002000
,
00000000
00000000
00003100
00010000
00001000
00000000
00000000
00000000
00010000
00000000
01000000
00000000
10000000
00000000
00010000
00000000
,
01000000
10000000
00010000
00001000
00010000
01000000
00100000
00020000
,
00000000
00000000
00130000
00001000
00010000
00000000
00000000
00000000
00001000
00000000
00000100
00000000
00000001
00000000
00000010
00000000
,
00001000
00100000
00001000
00000010
00001000
00100000
00010000
00002000
,
00000000
00000000
00003100
00010000
00001000
00000000
00000000
00000000
00010000
00000000
00100000
00000000
10000000
00000000
01000000
00000000
,
00010000
00000100
00010000
01000000
00010000
00000100
00001000
00020000
,
00000000
00000000
00130000
00001000
00010000
00000000
00001000
00000000
00011000
00000000
00000000
00000000
00010000
00000000
00010200
00000000
,
00000000
00000010
00001000
00000010
,
00010000
00010000
00010300
00000000
00011000
00010000
00000000
00101000
,
00000000
00100000
00120000
00000000
01000000
00000000
00100000
00000000
,
01000000
01000000
01030000
00000000
10010000
00000000
10000000
12000000
,
00000000
00010000
10000000
00010000
,
00100000
00100000
03100000
00000000
00101000
00100000
00000000
00011000
,
00000000
00000100
00010200
00000000
00000010
00000000
00001000
00000000
,
00000010
00000010
00000310
00000000
00000002
00000000
00000103
00000000
,
00020000
00031000
00000200
00000301
,
00002000
00013000
00000200
00001300
,
00020000
00130000
02000000
13000000
,
00010000
00010000
20000000
30100000
,
00002000
00013000
00200000
10300000
,
00020000
00031000
00200000
00310000
,
00002000
00003100
00000020
00000031
,
00001000
00000000
00001000
00000000
00000001
00000010
00000001
00000000
,
00000010
00000000
00000100
00000000
00001000
00000100
00001000
00000000
,
00000100
00000000
00010000
00000000
00001000
00010000
00001000
00000000
,
00100000
00000000
00010000
00000000
10000000
00010000
10000000
00000000
,
00100000
00000000
10000000
00000000
01000000
10000000
01000000
00000000
,
00010000
01000000
00010000
00000000
00001000
00010000
00001000
00000000
,
00000010
00001000
00000010
00000000
00000001
00001000
00000100
00000000
,
00001000
00000001
00000100
00000000
00000010
00000100
00000010
00000100
,
00000010
00000100
00000010
00000200
00000020
00000000
00000000
00000000
,
00000000
00000000
00000330
00000000
;

//--------------- dance-double - Talkion-CDP----------------
#NOTES:
     dance-double:
     Talkion:
     Challenge:
     17:
     :
00000000
00000000
00000000
00000000
,
00000000
00000000
00000000
00000000
,
00000000
00000000
00000000
00000000
,
00000000
00000000
00000000
00000000
,
00000000
00000000
00000000
00000000
,
00000000
00000000
00000000
00000000
,
00000000
00000000
00000000
00000000
,
00000000
00020000
00030000
00002000
00003000
00000000
00000000
00000000
00021000
00000000
00000000
00000000
01030000
00000000
02100000
00000000
,
00000000
13000000
10010000
00000000
10000000
00100000
00010000
00100000
,
10000000
00000000
00100000
00000000
01000000
00000000
00001000
00010000
00001000
00000000
01000000
00000000
00001000
00000000
00010000
00000000
,
00001000
00000000
01000000
00000000
00001000
00010000
00001000
00010000
00000100
00000000
00000010
00000000
00000001
00000000
00000010
00000000
,
00000100
00000000
00000010
00000000
00000001
00000000
00001000
00000100
00001000
00000000
00000001
00000000
00000100
00000000
00000010
00000000
,
00010000
00000000
00000000
00010000
00001000
00000000
00010000
00000000
00000010
00000000
00001000
00000000
00000001
00000000
00001000
00000000
,
00000010
00000000
00001000
00000000
00000001
00000000
00000010
00000100
00000010
00000000
00001000
00000000
00010000
00000000
00000100
00000000
,
00010000
00000000
00001000
00000000
01000000
00010000
01000000
00010000
10000000
01000000
00100000
00000000
00001000
00000000
00010000
00000000
,
00010010
00000000
01001000
00000000
01000000
01000000
01000000
00001000
,
00000100
00000000
00000000
00000100
00000010
00000000
00001000
00000000
00000001
00000000
00000010
00000000
00001000
00000000
00010000
00000000
,
00001000
00000000
02000000
00010000
03100000
00000000
00020000
00100000
01030000
00000000
10000000
00000000
00010000
00000000
01000000
00000000
,
00100000
00000000
01000000
00000000
00001000
00010000
00001000
00010000
00000100
00000000
00000010
00000000
00001000
00000000
00010000
00000000
,
00001000
00000000
00000020
00000100
00001030
00000000
00000200
00001000
00000310
00000000
00010000
00000000
00001000
00000000
01000000
00000000
,
00100000
00000000
00000000
00100000
10000000
00000000
00010000
00000000
00100000
00000000
10000000
00000000
00100000
00000000
00010000
00000000
,
10000000
00000000
00200000
01000000
00310000
00000000
02000000
00001000
03010000
00000000
00001000
00000000
01000000
00000000
00001000
00000000
,
00010000
00000000
00000100
00000000
00000010
00000001
00000010
00000001
00001000
00000000
00000020
00000000
00010030
00000000
00200000
00000000
,
00301000
00000020
00010030
00200000
00301000
00000020
00010030
00200000
,
00301000
00000000
00000010
00000000
00000100
00000010
00000100
00000010
00001000
00000000
00000000
00000000
00001001
00000000
00000000
00000000
,
00000100
00000000
00011000
00000000
01000000
00000000
10000000
02000000
,
00000000
03001000
00010000
00000000
00000010
00000000
00001001
00000000
,
00000010
00000000
00011000
00000000
00100000
00000000
10000000
00200000
,
00000000
00301000
00010000
00010000
00000010
00000000
00001001
00000000
,
00000010
00000000
00011000
00000000
00100000
00000000
10000000
00200000
,
00000000
00301000
00010000
00000000
00000010
00001000
00100000
00001000
,
00000010
00001000
00100000
00010000
00001000
00010000
01000000
00001000
,
00000100
00001000
01000000
01000000
00100000
00000000
10010000
00000000
,
00100000
00000000
00011000
00000000
00000010
00000000
00000001
00000020
,
00000000
00010030
00001000
00000000
01000000
00000000
10010000
00000000
,
01000000
00000000
00011000
00000000
00000100
00000000
00000001
00000200
,
00000000
00010300
00010000
00001000
01000000
00000000
10010000
00000000
,
01000000
00000000
00011000
00000000
00000100
00000000
00000001
00000200
,
00000000
00010300
00001000
00000000
01000000
00010000
00000100
00010000
,
01000000
00010000
00000100
00001000
00010000
00001000
00000010
00000001
,
00001000
00000000
00000100
00010000
00000100
00000000
00001000
00000000
00000001
00000000
00000100
00000000
00000100
00000000
00010000
00000000
,
00001000
00100000
00100000
10000000
00010000
00010000
00001000
01000000
,
00010000
00000000
01000000
00100000
10000000
00000000
00010000
00000000
10000000
00000000
00100000
00000000
00100000
00000000
00001000
00000000
,
00010000
00000100
00000100
00000001
00001000
00001000
00010000
00000100
,
00000010
00000100
00001000
00000100
00000010
00000000
00000001
00000000
00001000
00000000
00000010
00000000
00000010
00000000
00000100
00000000
,
00010000
00001000
00001000
00000010
00001000
00010000
00010000
00000010
,
00001000
00000000
00000100
00010000
00000100
00000000
00001000
00000000
00010000
00000000
01000000
00000000
01000000
00000000
00100000
00000000
,
00001000
00010000
00010000
01000000
00010000
00001000
00001000
01000000
,
00010000
00000000
10000000
00010000
00100000
00000000
00010000
00000000
10000000
00000000
00100000
00000000
00100000
00000000
00001000
00000000
,
00010000
00000000
00000020
00000100
00001030
00000000
00020000
00000010
00030100
00000000
00000001
00000000
00001000
00000000
00000100
00000000
,
00001000
00000000
00000001
00000100
00000010
00000000
00001000
00000000
00000001
00000000
00000100
00000000
00000100
00000000
00010000
00000000
,
00001000
00000000
02000000
00100000
03010000
00000000
00002000
01000000
00103000
00000000
10000000
00000000
00010000
00000000
01000000
00000000
,
00100000
01000000
00010000
01000000
00100000
00000000
10000000
00000000
00010000
00000000
01000000
00000000
01000000
00000000
00100000
00000000
,
00001000
00000000
00020000
00001000
00030010
00000000
00002000
00000010
00003100
00000000
00010000
00000000
00000100
00000000
00001000
00000000
,
00000001
00000000
00000010
00000100
00001000
00000000
00000001
00000000
00001000
00000000
00000010
00000000
00000010
00000000
00000100
00000000
,
00010000
00000000
00002000
00010000
01003000
00000000
00020000
01000000
00130000
00000000
00001000
00000000
00100000
00000000
00010000
00000000
,
10000000
00000000
01000000
00100000
00010000
00000000
10000000
00000000
00100000
00000000
00000000
00000000
01000000
00000000
01002000
00000000
,
00000000
00010000
01000000
00010000
,
00100000
00100000
00103000
00000000
00011000
00010000
00000000
00010020
,
00000000
00000100
00010000
00000100
,
00001000
00001000
00001030
00000000
00000010
00000000
00010000
00021000
,
00000000
00000100
00001000
01000000
,
00001000
00001000
00031000
00000000
01001000
01000000
00000000
10010000
,
00000000
20010000
00100000
00010000
,
00100000
00100000
30100000
00000000
10000000
00000000
00010000
00000000
,
00100000
01000000
00001000
00000100
,
00000010
00000001
00001000
00000010
,
00000100
00010000
01000000
00100000
,
10000000
00010000
00100000
00001000
,
00000010
00000100
00010000
00001000
,
01000000
00100000
01000000
00001000
,
00000100
00000010
00010000
00001000
,
00100000
00000000
01000000
00000000
10000000
00010000
10000000
00000000
,
00010000
01000000
00010000
00000000
01000000
00001000
01000000
00000000
,
00001000
00010000
00001000
00000000
00010000
00000010
00010000
00000000
,
00000010
00001000
00000010
00000000
00001000
00000001
00001000
00000000
,
00000010
00000100
00000010
00000000
00010000
00001000
00010000
00001000
,
00010000
00001000
00100000
00000000
00001000
00010000
00001000
00010000
,
00001000
00010000
00000010
00000000
00010000
00001000
00010000
00001000
,
01000000
00010000
01000000
00010000
10000000
01000000
10000000
01000000
,
00100000
00010000
00100000
00010000
20000000
00000000
00000000
00000000
,
00000000
00000000
30000000
00000000
;
