#TITLE:Outbreak;
#ARTIST:RG+Ice;
#CREDIT:Pray for All;
#BANNER:Outbreak.png;
#BACKGROUND:Outbreak-bg.png;
#MUSIC:Outbreak.ogg;
#OFFSET:-0.007;
#SAMPLESTART:35.375;
#SAMPLELENGTH:15;
#BPMS:0=190;

//---------------dance-single - RGTM-bSP----------------
#NOTES:
     dance-single:
     RGTM:
     Beginner:
     9:
     0.3785,0.46784,0.302346,0.254607,0,333,295,38,32,0,0,0.3785,0.46784,0.302346,0.254607,0,333,295,38,32,0,0:
0000
0000
0000
0000
,
0000
0000
0000
0000
,
0000
0000
0000
0000
,
2002
3003
0000
0000
,
0000
0000
0000
0000
,
1001
0000
0000
0000
,
0000
0000
0000
0000
,
1001
1001
0000
0000
,
0000
0000
0000
0000
,
1001
0000
1001
0000
,
1001
0000
1001
0000
,
0001
1000
0001
1000
,
2002
0000
0000
3003
,
0010
1000
0100
0000
,
0010
0001
0100
0000
,
0010
1000
0100
0010
,
0002
0023
0230
1300
,
1001
0001
0100
0000
,
0010
1000
0100
0000
,
0010
0001
0100
0010
,
2000
0000
3002
0000
2003
0000
3010
0100
,
0010
1000
0001
0010
,
0200
0010
0320
0100
,
0130
1000
1000
0001
,
0200
0000
0300
0110
,
1001
0001
1000
0010
,
0200
0010
0320
0100
,
0130
0001
0001
1000
,
2002
0000
0000
3003
,
1001
1000
0100
0100
,
0010
0000
0001
1000
0000
1000
0001
0000
,
0100
0000
0010
0000
1000
0000
0001
0010
,
0000
0010
0000
0100
0000
0100
1000
0000
,
1000
0001
0100
0100
,
0010
0000
1000
0001
0000
0001
1000
0000
,
0100
0000
0010
0000
0001
0000
0100
0010
,
0200
0000
0000
0310
,
1001
1000
0001
0100
,
0010
1000
0100
0010
,
0010
0010
0001
1000
,
2000
3020
0230
0301
,
1001
1000
0100
0100
,
0010
0010
0001
0100
,
0001
1000
0001
1000
,
0200
0000
0000
0310
,
1001
1000
0100
0010
,
0001
1000
0010
0100
,
0001
1000
0001
0010
,
0100
1000
0001
1000
,
1001
0001
0100
0010
,
1000
0001
0010
0100
,
1000
0001
1000
0010
,
0000
1000
0001
1000
0001
1000
0001
0000
,
1000
0000
0100
0000
,
0010
0000
0001
0000
,
1000
0000
0010
0000
,
0100
0000
0001
0000
,
1000
1000
0100
0100
,
0010
0010
0001
0001
,
1000
0001
1000
0000
0010
0100
0010
0000
,
2002
0000
0000
3003
,
1000
0000
0110
0000
,
0001
1000
0110
0000
,
0001
0000
0110
0000
,
1000
0001
0110
0000
,
0100
0000
1001
0000
,
0010
0100
1001
0000
,
1000
1000
0001
0001
,
0100
0000
0010
0000
1000
0001
1000
0000
,
0001
0000
0110
0000
,
1000
0001
0110
0000
,
1000
0000
0110
0000
,
0001
1000
0110
0000
,
0010
0000
1001
0000
,
0100
0010
1001
0000
,
0100
0000
1001
0000
,
0200
0000
0000
0310
,
1001
0000
0000
0000
,
0000
0000
0000
0010
,
1001
0000
1000
0000
0001
0000
1000
0100
,
0000
0100
0000
0010
0000
0010
0001
0000
,
0001
1000
0010
0010
,
0100
0000
0001
1000
0000
1000
0001
0000
,
0010
0000
0100
0000
1000
0000
0010
0100
,
0020
0000
0000
0130
,
1001
0001
1000
0010
,
0100
0001
0010
0100
,
0100
0100
1000
0001
,
0002
0203
0320
1030
,
1001
0001
0010
0010
,
0100
0100
1000
0001
,
0100
0100
0001
1000
,
0010
0001
0100
1000
,
2002
3003
0000
0000
,
0000
0000
0000
0000
,
0000
0000
0000
0000
,
0000
0000
0000
0000
,
2000
0000
0000
3000
,
1001
0000
0000
0000
;

//---------------dance-single - RGTM-BSP----------------
#NOTES:
     dance-single:
     RGTM:
     Easy:
     13:
     0.641064,0.703550,0.461475,0.334171,0.031826,564,506,58,42,0,0,0.641064,0.703550,0.461475,0.334171,0.031826,564,506,58,42,0,0:
0000
0000
0000
0000
,
0000
0000
0000
0000
,
0000
0000
0000
0000
,
2002
3003
0000
0000
,
0000
0000
0000
0010
,
1001
0000
1000
0000
0010
1000
0001
0000
,
0010
0001
1000
0000
0100
0000
0010
0000
,
1001
0000
0001
0000
0010
0001
1000
0000
,
0010
1000
0001
0000
0100
0000
0010
0000
,
1001
0010
1001
0010
,
1001
0100
1001
0100
,
0110
1001
0110
0010
,
2002
0000
0000
3003
,
1001
0000
1000
0010
1000
0100
0020
0000
,
0031
0010
0000
1000
0000
0100
0000
0001
,
0000
1000
1000
0000
0001
0010
0100
0000
,
1000
0000
0000
0010
0000
0000
0001
0000
0000
0100
0000
0000
0110
0000
0000
0000
,
1001
0000
0001
0010
0001
0100
0020
0000
,
1030
0010
0000
0001
0000
0100
0000
1000
,
0000
0001
0001
0000
1000
0100
0010
0001
,
0201
1000
0001
0310
,
0110
1000
0002
0203
,
0320
0100
2030
0010
,
0001
0001
0100
3010
,
0020
0000
0000
0000
0000
0100
0130
0000
,
0110
0001
2000
3200
,
0320
0100
0032
0010
,
1000
1000
0100
0013
,
2002
0000
0000
3003
,
1001
0000
0001
0000
0010
0100
0010
0001
,
0000
1000
0100
0002
0000
0103
1000
0001
,
0100
0000
0001
0010
0100
1000
0000
1010
,
0000
0110
0000
0101
0000
0110
0000
0000
,
1001
0000
1000
0000
0010
0100
0010
1000
,
0000
0001
0100
2000
0000
3100
0001
1000
,
0100
0010
0100
0010
0001
1000
0010
0100
,
0020
0000
0000
0000
0000
0100
0130
0000
,
0110
0000
1001
0000
0001
0010
1000
0010
,
0100
0001
0100
1000
0010
0100
0001
2000
,
0000
3010
0100
0010
1000
0001
0010
0100
,
1000
0000
0000
0100
0000
0000
0001
0000
0000
0010
0000
0000
1001
0000
0000
0000
,
0110
0000
1001
0001
1000
0010
0001
0010
,
0100
1000
0100
0001
0010
1000
0001
1000
,
0010
0001
0100
0010
1000
0100
0010
0010
,
0200
0010
0310
0110
,
1001
0000
1000
0100
1000
0000
0100
0001
,
0100
0000
0001
0010
0001
0000
0010
1000
,
0010
0000
1000
0100
0010
0100
0001
0100
,
1000
0010
1000
0001
0010
0100
1000
0000
,
1001
0000
0001
0100
0010
1000
0001
0010
,
0000
0100
1000
0100
0010
0100
1000
0001
,
1000
0010
0100
0001
0010
0100
2000
0000
,
3000
0000
0001
0100
0001
0000
1000
0100
1000
0000
0001
0000
0100
0000
0000
0000
,
1001
1000
0002
0203
,
0320
0100
2030
0010
,
0001
0001
0100
0100
,
3010
0000
1000
0000
0100
0000
0010
0001
,
1000
0010
1000
0010
0100
0001
0100
0001
,
0010
0100
0010
0100
1000
0001
1000
0010
,
0001
0010
1000
0001
0010
1000
0010
0001
,
0020
0000
0000
0030
,
0001
0100
0010
1000
0002
0000
1003
0010
,
1000
0100
0001
0100
2000
0000
3010
1000
,
0001
0100
1000
0100
0002
0000
1003
0100
,
0010
0001
0100
0010
0110
0000
0110
0000
,
1000
0100
0010
0001
2000
0000
3001
0010
,
0001
0100
1000
0100
0002
0000
0013
0001
,
1000
0100
0001
0100
1000
0010
0001
0010
,
1000
0000
1000
0000
0001
0100
0001
0100
,
0001
0010
0100
1000
1010
0000
0010
0100
,
1000
0100
0001
0010
0110
0000
0100
0001
,
0100
1000
0010
0100
0110
0000
0010
1000
,
0001
0100
1000
0100
0110
0000
0110
0000
,
1000
0010
0100
0001
0011
0000
0010
0100
,
0001
0100
1000
0010
0110
0000
0100
1000
,
0100
0001
1000
0100
0001
0100
1000
0010
,
0200
0000
0300
0110
,
1001
0000
0000
0000
,
0000
0000
0000
0110
,
1001
0000
1000
0010
0100
0001
0000
0011
,
0000
0110
0000
1100
0000
0110
0000
0000
,
1001
0000
0001
0000
0010
0100
0010
0001
,
0000
1000
0100
0002
0000
0103
1000
0001
,
0100
0010
0100
0010
1000
0001
0010
0100
,
0020
0000
0000
0000
0000
0100
0130
0000
,
0110
0000
1001
0000
1000
0010
0001
0010
,
0100
1000
0100
0001
0010
0100
1000
0002
,
0000
0013
0100
0010
0001
1000
0010
0100
,
0001
0000
0000
0100
0000
0000
1000
0000
0000
0010
0000
0000
1001
0000
0000
0000
,
0110
0000
1001
1000
0001
0100
1000
0100
,
0010
0001
0010
1000
0100
0001
1000
0001
,
0100
1000
0010
0100
0001
0010
0100
1000
,
0001
0100
1000
0001
0010
1000
0100
0010
,
2002
0000
0000
0000
,
0000
0000
0000
0000
,
0000
0000
0000
0000
,
0000
0000
0000
3003
,
0100
1000
0010
0001
1000
0100
0001
0010
,
0220
0330
0000
0000
;

//---------------dance-single - RGTM-DSP----------------
#NOTES:
     dance-single:
     RGTM:
     Medium:
     15:
     0.802466,1.016239,0.509214,0.373954,0.405780,706,642,64,47,0,0,0.802466,1.016239,0.509214,0.373954,0.405780,706,642,64,47,0,0:
0000
0000
0000
0000
,
0000
0000
0000
0000
,
0000
0000
0000
0000
,
2002
3003
0000
0000
,
0000
0000
0000
0110
,
1001
0000
1000
0000
0001
1000
1000
0100
,
0010
0010
0001
1000
0100
0001
0101
0000
,
1100
0000
1001
0000
1000
0010
0100
0001
,
0010
1000
0010
0001
0100
0010
1000
0000
,
1001
0000
0001
0100
0101
0000
1000
0100
,
1100
0000
0001
0010
0011
0000
1000
0010
,
1010
1001
0110
1000
,
2002
0000
0000
3003
,
1001
0000
0001
0000
1000
0000
0010
0000
0100
0001
0200
0000
0010
0000
0300
0000
,
0001
0010
0000
1000
0000
0100
0000
0001
,
0000
0000
1000
0000
0000
0000
0001
0100
0001
0000
1000
0100
1000
0000
0001
0000
,
1000
0000
1000
0010
0000
0010
0100
0000
0100
0001
0000
0001
0010
0000
0000
0000
,
1001
0000
1000
0000
0001
0000
0010
0000
0100
1000
0200
0000
0010
0000
0300
0000
,
1000
0010
0000
0001
0000
0100
0000
1000
,
0000
0000
0001
0000
0000
0000
0001
0000
0000
0000
1000
0010
0100
0000
0001
0000
,
0011
1010
0110
0101
,
1001
0001
0200
0000
1000
0000
0001
0000
,
0320
0001
2030
0010
,
3001
0000
0000
0000
1000
0000
0000
0000
0100
0000
1000
0001
1000
0000
0010
0000
,
0200
0000
0000
0000
0000
0000
0000
0000
0000
0000
0310
0100
0010
0000
0000
0000
,
1001
1000
0100
0010
0002
0010
2003
0001
,
3020
1000
0100
0100
2030
0010
0010
0001
,
3001
0000
0010
0000
0100
0000
1000
0000
0001
1000
0001
1000
0001
1000
0001
1000
,
0200
0020
0000
0330
,
0101
0000
1100
0000
0001
0001
1000
0010
,
0010
0100
0001
2000
0000
3100
0010
0002
,
0000
0000
1003
0000
0001
0000
0010
0100
0010
0000
0001
0000
1000
0000
1001
0000
,
0000
0110
0000
1001
0000
1010
0011
0000
,
1100
0000
0101
1000
1000
0001
0010
0100
,
0100
0010
0001
2000
0000
3010
1000
0002
,
0000
0013
0100
1000
0001
0100
0010
1000
,
0001
0000
1000
0100
1000
0000
0001
0100
0001
0000
0010
0100
0010
0000
0000
0000
,
0110
0000
0000
0000
1001
0000
0000
0000
0001
0100
0001
0000
1000
0000
0010
0100
,
0010
1000
0010
0001
1000
0100
0001
2000
,
0000
0000
3001
0000
0100
0000
0010
1000
0010
0000
1000
0000
0100
0000
0010
0000
,
0001
0000
1000
0100
0000
0100
0010
0000
0010
0001
0000
0001
0100
0000
0000
0000
,
0110
0010
1000
0001
0010
1000
0001
0100
,
1000
0010
0100
0002
0000
1003
0010
0100
,
0001
0000
1000
0100
1000
0000
0001
0100
0001
0000
0010
0100
1000
0001
1000
0001
,
0200
0010
0310
0110
,
1001
1000
0001
0100
0010
1000
0100
0002
,
0000
0103
1000
0001
0100
0010
0100
1000
,
0100
0001
0010
0100
1000
0001
1000
0200
,
0000
0000
0301
0000
0100
0000
1000
0000
0010
0000
0100
0001
0000
0001
1000
0000
,
1001
0001
1000
0100
0010
0001
0100
2000
,
0000
3100
0001
1000
0100
0010
0100
0001
,
0100
1000
0010
0100
0001
1000
0001
0200
,
0000
0000
0301
0010
0001
0000
1000
0010
1000
0000
0100
0000
0110
0000
0000
0000
,
1001
1000
0200
0000
1000
0000
0001
0000
,
0320
1000
0032
0010
,
1003
0001
0001
1000
,
1000
0000
0001
0000
0100
0000
0010
1000
,
0001
0010
0100
1000
0001
0100
0010
1000
,
0100
0010
0001
1000
0010
0100
0001
1000
,
0001
1000
0001
1000
0001
1000
0001
1000
0010
0100
0010
0100
0010
0100
0010
0100
,
0020
0000
0000
0000
0000
0000
0000
0030
,
1000
0000
0010
0100
0000
0010
0100
0000
0002
0000
0003
0000
1000
0010
1000
0000
,
0001
0000
0010
0001
0000
0001
0100
0000
0110
0000
0000
0000
1001
0000
0100
0000
,
0001
0000
0010
0100
0000
0010
0100
0000
2000
0000
3000
0000
0001
1000
0001
0000
,
1000
0000
0010
1000
0000
1000
0100
0000
0110
0000
0000
0000
1001
0000
0000
0000
,
1000
0000
0010
0100
0000
0100
0001
0000
0020
0000
0000
0030
0100
1000
0100
0000
,
1000
0000
0001
0100
0000
0100
0010
0000
2000
0000
0000
0000
3100
0000
0000
0000
,
0010
0001
0010
1000
0010
0001
0100
0010
,
0110
0000
1001
0000
1000
1000
1000
1000
,
0001
0000
0010
0100
0000
0010
0100
0000
2000
0000
3000
0000
0001
0010
0001
0000
,
1000
0000
0010
1000
0000
1000
0100
0000
0110
0000
0000
0000
1001
0000
0100
0000
,
1000
0000
0010
0100
0000
0010
0100
0000
0002
0000
0003
0000
1000
0001
1000
0000
,
0001
0000
0010
0001
0000
0001
0100
0000
0110
0000
0000
0000
1001
0000
0000
0000
,
0001
0000
0010
0001
0000
0001
0100
0000
0020
0000
0000
0030
0100
0001
0100
0000
,
0001
0000
1000
0100
0000
0100
0010
0000
0002
0000
0000
0000
0103
0000
0000
0000
,
0010
0000
1000
0000
0010
0000
1000
0000
0001
0000
0010
0000
0001
1000
0001
1000
,
0200
0000
0000
0000
0000
0300
0110
0000
,
1001
0000
0000
0000
,
0000
0000
0000
0110
,
1001
0000
0001
0000
1000
0000
0100
0010
0100
0000
1000
0000
0001
0000
1001
0000
,
0000
0110
0000
1001
0000
0011
1010
0000
,
0101
0000
1100
0001
0001
1000
0010
0100
,
0100
0010
1000
0002
0000
0013
0001
2000
,
0000
3010
0100
0001
1000
0100
0010
0001
,
1000
0000
0001
0100
0001
0000
1000
0100
1000
0000
0010
0100
0010
0000
0000
0000
,
0110
0000
0000
0000
1001
0000
0000
0000
1000
0100
1000
0000
0001
0000
0010
0100
,
0010
0001
0010
1000
0001
0100
1000
0002
,
0000
0000
1003
0000
0100
0000
0010
0001
0010
0000
0001
0000
0100
0000
0010
0000
,
1000
0000
0001
0100
0000
0100
0010
0000
0010
1000
0000
1000
0100
0000
0000
0000
,
0110
0000
0010
0000
0001
0000
1000
0010
0100
0000
0001
0000
0010
0100
1000
0000
,
0010
0100
0001
0000
1000
0100
0020
0000
0000
0000
0031
0000
0100
0000
0010
0000
,
1000
0000
0001
0010
0001
0000
1000
0010
1000
0000
0100
0010
0100
0000
1000
0000
,
0001
0010
0001
0000
1000
0010
1000
0000
0010
0100
0010
0100
0001
1000
0001
0000
,
2002
0000
0000
0000
,
0000
0000
0000
0000
,
0000
0000
0000
0000
,
0000
0000
0000
3003
,
1000
0000
0001
0000
1000
0000
0001
0000
1000
0001
1000
0001
1000
0001
1000
0001
,
2000
3000
0000
0000
;

//---------------dance-single - RGTM-ESP----------------
#NOTES:
     dance-single:
     RGTM:
     Hard:
     18:
     1.002514,1.250756,0.501257,0.373954,1.010471,882,819,63,47,0,0,1.002514,1.250756,0.501257,0.373954,1.010471,882,819,63,47,0,0:
0000
0000
0000
0000
,
0000
0000
0000
0000
,
0000
0000
0000
0000
,
2002
3003
0000
0000
,
0000
0000
0000
0110
,
1001
0000
1000
1000
0100
0010
0001
0001
,
0100
0010
0010
1000
0100
0100
1100
0000
,
0101
0000
1001
0000
1000
0001
0100
0100
,
0010
0000
1000
0100
1000
0100
0010
0000
0001
0100
0001
0100
0010
0000
1000
0001
,
1000
0000
0100
0010
0011
0000
0100
0010
,
1010
0000
0100
0010
1001
0000
1000
0001
,
1000
0100
1000
0100
0010
0001
0010
0001
1000
0001
1000
0001
0100
0010
0100
0010
,
0200
0000
0000
0000
0310
0000
1000
0001
1000
0100
0010
0000
0110
0000
0000
0000
,
1001
0000
0001
0000
0100
0000
0010
0000
1000
0010
2000
0000
0001
0000
3100
0000
,
0000
0011
0000
1010
0000
1100
0000
0101
,
0000
0000
1000
0000
0000
0000
0001
0100
0001
0000
0100
0010
0100
0000
0010
0000
,
1000
0000
1000
0100
0000
0100
0001
0000
0001
0010
0000
0010
0100
0000
0000
0000
,
1001
0000
1000
0000
0100
0000
0010
0000
0001
0010
0002
0000
1000
0000
0103
0000
,
0000
0101
0000
1100
0000
1010
0000
0011
,
0000
0000
1000
0000
0000
0000
1000
0000
0000
0000
0001
0010
0100
0000
1000
0000
,
1010
0000
0011
0000
0110
0000
1100
0101
,
1001
1000
0100
0010
0002
0010
2003
0001
,
3020
1000
0100
0000
2030
0010
0010
0000
,
0001
0000
0001
0000
0100
0000
3001
1000
,
0020
0000
0000
0000
0000
0000
0000
0000
0000
0000
0130
0010
0100
0000
0000
0000
,
1001
0001
0100
0010
2000
0010
3002
1000
,
0023
0001
0100
0100
0032
0010
0010
1000
,
1003
0001
1000
0001
0010
0001
0010
0001
0010
0100
0010
0100
1000
0001
1000
0001
,
0200
0000
0000
0000
0310
0000
1000
0001
1000
0100
0010
0000
0100
0010
0001
1000
,
0010
0000
0000
0000
1001
0000
0000
0000
1000
0100
1000
0000
0001
0000
0100
0001
,
1000
0001
0100
0000
0010
0000
2000
0000
0000
0000
3100
0000
0010
0000
0002
0000
,
0000
0000
0013
0000
0100
0000
1000
0100
1000
0001
1000
0000
0001
0000
0011
0000
,
0000
0000
1010
0000
0000
0000
0110
0000
0000
0000
1001
0000
0001
0100
0010
1000
,
0001
0000
0000
0000
0110
0000
1000
0010
1000
0001
1000
0000
0100
1000
0100
1000
,
0100
0010
0100
0000
1000
0001
2000
0000
0000
0000
3100
0000
0010
0000
0002
0000
,
0000
0000
0103
0001
0100
0000
0010
1000
0001
1000
0010
0000
1000
0000
0001
0000
,
0100
0001
0100
0010
1000
0001
1000
0100
0010
0001
1000
0001
0100
0001
1000
0100
,
0010
0000
0000
0000
1001
0000
0000
0000
1000
0100
0010
0000
0001
0000
1000
0010
,
1000
0100
0010
0000
0001
0100
0010
0000
0001
0000
0010
0000
1000
0000
0002
0000
,
0000
0000
0013
0001
1000
0000
0100
0010
0001
0100
0010
0000
1000
0000
0001
0000
,
1000
0000
1000
0010
0000
0010
0001
0000
0001
0100
0000
0100
0010
0000
0000
0000
,
0110
0000
0000
0000
1001
0000
0001
0100
0001
1000
0010
0000
1000
0100
0010
0000
,
0001
0100
0010
0000
1000
0001
0020
0000
0000
0000
0130
0000
1000
0000
0001
0000
,
0100
0001
0100
0001
1000
0100
1000
0100
0010
0001
1000
0001
0100
0010
0100
0010
,
0200
0010
0310
0110
,
1001
0000
1000
0000
0000
0000
0001
0100
0000
0000
0020
0000
0000
0030
2000
0000
,
0000
3000
0100
0010
0000
0000
0010
0001
0000
1000
0001
1000
0000
0001
0100
0001
,
0000
0000
1000
0100
0000
0000
0100
0010
0000
0000
0010
0001
0000
1000
0002
0000
,
0000
0003
0100
0010
0000
1000
0010
1000
0000
0100
0010
0100
0000
0010
0001
0000
,
1001
0000
2000
0000
0000
3000
0001
0100
0000
0000
0020
0000
0000
1030
0200
0000
,
0000
0300
0010
0001
0000
1000
0001
1000
0000
0010
0000
0010
0000
0100
0001
0100
,
0000
0000
0020
0000
0000
0000
2030
0000
0000
3001
0010
0100
1000
0000
0002
0000
,
0000
0003
0010
0001
0100
0000
0010
1000
0100
0000
1100
0000
0101
0000
0000
0000
,
1001
0001
2000
3200
,
0320
0000
0100
0000
0032
0000
0010
0010
,
0010
1000
1000
0100
,
0013
0000
0001
0000
0100
0000
0010
1000
,
0001
0001
0010
0010
0100
0100
1000
1000
,
0001
0001
0100
0100
0010
0010
1000
1000
,
0001
0010
0001
0010
0100
1000
0100
1000
0001
0100
0001
0100
0010
1000
0001
0100
,
0020
0000
0000
0000
0000
0000
0000
0030
,
1000
0100
0010
0100
1000
0001
0100
0001
0010
0000
0000
0000
0001
1000
0001
1000
,
0001
0100
0010
0100
0001
1000
0100
1000
0010
0000
0000
0000
1100
0000
0101
0000
,
0001
0100
0010
0100
0001
1000
0100
1000
0010
0000
0000
0000
1000
0001
1000
0001
,
1000
0100
0010
0100
1000
0001
0100
0001
0010
0000
0001
1000
0010
0000
0000
0000
,
1000
0100
0010
0100
1000
0010
0100
0001
1000
0000
0000
0000
0001
0010
0001
1000
,
0001
0100
0010
0100
0001
0010
0100
1000
0010
0000
0110
0000
0101
0000
1100
0000
,
1000
1000
0001
0001
0010
0010
0200
0000
,
1300
0000
0110
0000
0101
0001
1100
1000
,
0001
0100
0010
0100
0001
1000
0100
1000
0010
0000
1000
0010
1000
0001
0100
0001
,
1000
0100
0010
0100
1000
0001
0100
0001
0010
0000
0100
1000
0001
0000
1001
0000
,
1000
0100
0010
0100
1000
0001
0100
0001
0010
0000
0001
0010
0001
1000
0100
1000
,
0001
0100
0010
0100
0001
1000
0100
1000
0010
0000
1000
0001
0010
0000
0001
1000
,
0001
0100
0010
0100
0001
0010
0100
1000
0001
0000
1000
0010
1000
0001
0100
0001
,
1000
0100
0010
0100
1000
0010
0100
0001
0010
0000
0110
0000
1100
0000
0101
0000
,
0001
0000
0000
0100
0000
0000
0001
0000
0000
1000
0000
0000
0100
0000
0000
0010
0000
0000
0001
0000
0000
1000
0000
0000
0010
0000
0000
0000
0000
0000
0100
0000
0000
0000
0000
0000
0001
0000
1000
0000
0001
0000
1000
0000
0001
0000
1000
0000
,
0200
0000
0000
0000
0000
0300
0110
0000
,
1001
0000
0000
0000
,
0000
0000
0000
0110
,
1001
0000
0001
0000
0010
0000
0100
1000
0001
1000
0100
0000
0010
0000
1000
0000
,
0010
0000
0001
0000
0100
0000
1000
0000
0100
0000
0001
0000
1000
0100
0010
0001
,
1000
0000
0000
0000
0110
0000
0001
0010
0001
1000
0001
0000
0100
0001
0100
0001
,
0100
0010
0100
0000
0001
1000
0002
0000
0000
0000
0103
0000
0010
0000
2000
0000
,
0000
0000
3100
1000
0100
0000
0010
0001
1000
0001
0010
0000
0001
0000
1000
0000
,
0100
1000
0100
0010
0001
1000
0001
0100
0010
1000
0001
1000
0100
1000
0001
0100
,
0010
0000
0000
0000
1001
0000
0000
0000
0001
0100
0010
0000
1000
0000
0001
0010
,
0001
0100
0010
0000
1000
0100
0010
0000
1000
0000
0010
0000
0001
0000
2000
0000
,
0000
0000
3010
1000
0001
0000
0100
0010
1000
0100
0010
0000
0001
0000
1000
0000
,
0001
0000
0001
0010
0000
0010
1000
0000
1000
0100
0000
0100
0010
0000
0000
0000
,
0110
0000
0000
0000
1001
0000
1000
0100
1000
0001
0010
0000
0001
0100
0010
0000
,
1000
0100
0010
0000
0001
1000
0020
0000
0000
0000
0130
0000
0001
0000
2000
0000
,
0000
0000
3001
0100
0010
0000
1000
0100
0010
0100
0010
0000
0001
0000
1000
0000
,
0001
0100
0010
1000
0001
0010
0001
1000
0010
0100
0001
0010
1000
0010
0001
2000
,
0002
0000
0000
0000
,
0000
0000
0000
0000
,
0000
0000
0000
0000
,
0000
0000
0000
3003
,
1000
0100
1000
0100
0010
0001
1000
0010
0100
0010
0100
0001
1000
0100
0010
0001
,
2002
3003
0000
0000
;

//---------------dance-single - RGTM-CSP----------------
#NOTES:
     dance-single:
     RGTM:
     Challenge:
     19:
     1.102538,1.368014,0.556952,0.358041,1.197448,970,900,70,45,0,0,1.102538,1.368014,0.556952,0.358041,1.197448,970,900,70,45,0,0:
0000
0000
0000
0000
,
0000
0000
0000
0000
,
0000
0000
0000
0000
,
2002
3003
0000
0000
,
0000
0000
0000
0110
,
1001
0000
0100
0100
1000
0001
0010
0010
,
1000
0100
0100
0001
0010
0010
1010
0000
,
0011
0000
1001
0000
1000
0001
0100
0100
,
1000
0000
0000
0000
0000
0000
0010
0000
0000
0100
0000
0000
0001
0000
0000
1000
0000
0000
0100
0000
0000
0000
0000
0000
0010
0000
0000
0001
0000
0000
1000
0000
0000
0010
0000
0000
0100
0000
0000
0000
0000
0000
0001
0000
1000
0000
0001
0000
,
0010
0100
1000
0010
1010
0100
0001
0010
,
1100
0010
0001
0100
0101
0010
1000
0100
,
0010
0000
0000
0001
0000
0000
1000
0000
0000
0001
0000
0000
0100
0000
0000
0010
0000
0000
1000
0000
0000
0010
0000
0000
0100
0000
0000
0001
0000
0000
0010
0000
0000
0100
0000
0000
1000
0000
0001
0000
1000
0000
0001
0000
1000
0000
0001
0000
,
0200
0000
0000
0000
0310
0000
0001
0010
1000
0100
0010
0000
0110
0000
0000
0000
,
1001
0000
1000
0000
0010
0000
0100
0000
0001
0100
0002
0000
0010
0000
1003
0000
,
0001
0011
0000
1010
0000
1100
0000
0101
,
0000
0000
1000
0000
0000
0000
0001
0010
0100
0000
0100
1000
0001
0000
1000
0000
,
0010
1000
0100
0010
0001
0100
0010
1000
0100
0010
0001
0100
0110
0000
0000
0000
,
1001
0000
0001
0000
0010
0000
0100
0000
1000
0100
2000
0000
0010
0000
3001
0000
,
1000
1100
0000
0101
0000
0011
0000
1010
,
0000
0000
0000
0001
0000
0000
0000
0000
0000
1000
0000
0000
0000
0000
0000
0001
0010
0100
1000
0000
0000
0001
0000
0000
,
0011
0000
1010
0000
0110
0000
1100
0101
,
1001
1000
0100
0010
0002
1000
0203
0001
,
0320
1000
0100
1000
2030
0010
0001
0100
,
3100
1000
0010
0100
1000
0001
0010
1000
,
1200
0000
0000
0000
0001
0000
0000
0000
1000
0000
0310
0100
0010
0000
0000
0000
,
1001
1000
0100
0010
0002
1000
0203
0001
,
0320
1000
0100
1000
2030
0010
0001
0010
,
3010
0000
0000
1000
0000
0000
0010
0000
0000
1000
0000
0000
0100
0000
0000
0010
0000
0000
0100
0000
0000
0010
0000
0000
0001
0000
0000
1000
0000
0000
0010
0000
0000
0100
0000
0000
0010
0000
0100
0000
0001
0000
1000
0000
0001
0000
1000
0000
,
0200
0000
0000
0000
0000
0000
0000
0000
0000
0000
0000
0000
0310
0000
0000
0000
0000
0000
1000
0000
0000
0010
0000
0000
0001
0000
0000
0100
0000
0000
0010
0000
0000
0000
0000
0000
1000
0000
0100
0000
1000
0000
0100
0000
0010
0000
0001
0000
,
1000
0000
0000
0000
0110
0000
0000
0000
0001
0100
0001
0000
0010
0000
0100
1000
,
0100
0010
0100
0000
1000
0000
0002
0000
0100
0000
1003
0000
0001
0000
2000
0000
,
0010
0000
3001
0000
1000
0000
0100
0010
0100
1000
0001
0000
0010
0000
0011
0000
,
0000
0000
1010
0000
0000
0000
0110
0000
0000
0000
1001
0000
0001
0100
0010
1000
,
0001
0000
0000
0000
0110
0000
1000
0010
1000
0001
1000
0000
0100
0010
0100
1000
,
0100
0010
0100
0000
0010
0001
2000
0000
0010
0000
3001
0000
1000
0000
0020
0000
,
1000
0000
0130
0001
0100
0000
0010
1000
0010
0100
0010
0000
1000
0000
0001
0000
,
0100
0000
0000
0001
0000
0000
0010
0000
0000
0100
0000
0000
0010
0000
0000
0001
0000
0000
1000
0000
0000
0010
0000
0000
0100
0000
0000
0010
0000
0000
1000
0000
0000
0001
0000
0000
1000
0000
0100
0000
0010
0000
0001
0000
1000
0000
0001
0000
,
0010
0000
0000
0000
1001
0000
0000
0000
0001
1000
0010
0000
0100
0000
0001
1000
,
0100
0010
0001
0000
1000
0010
0100
0000
0001
0000
0010
0000
1000
0000
0020
0000
,
0001
0000
0130
0000
0010
0000
0100
1000
0001
0100
0010
0000
1000
0000
0001
0000
,
0100
0000
0000
0001
0000
0000
0010
0000
0000
0100
0000
0000
1000
0000
0000
0010
0000
0000
0100
0000
0000
0001
0000
0000
0010
0000
0000
0100
0000
0000
1000
0000
0000
0010
0000
0000
0100
0000
0010
0000
1000
0000
0001
0000
1000
0000
0001
0000
,
0010
0000
0000
0000
1001
0000
1000
0010
0100
0010
1000
0000
0100
0010
0001
0010
,
0100
1000
0100
0000
1000
0001
0200
0000
0010
0000
0301
0000
0100
0000
0010
0000
,
1000
0000
0000
0010
0000
0000
0100
0000
0000
0001
0000
0000
0100
0000
0000
0010
0000
0000
1000
0000
0000
0001
0000
0000
0010
0000
0000
0100
0000
0000
0010
0000
0000
0001
0000
0000
1000
0000
0001
0000
1000
0000
0001
0000
1000
0000
0001
0000
,
0200
0010
0310
0110
,
1001
0000
0001
0000
0000
0000
1000
0010
0000
0000
0002
0000
0000
0003
2000
0000
,
0000
3000
0100
0001
0000
0000
0010
1000
0000
0001
0100
0001
0000
1000
0010
0001
,
0000
0000
1000
0010
0000
0000
0100
0001
0000
0000
0010
1000
0000
0001
2000
0000
,
0000
3000
0010
0100
0000
1000
0010
0001
0000
1000
0100
0001
0000
0010
0100
0000
,
1001
0000
0002
0000
0000
0003
0010
1000
0000
0000
0020
0000
0000
0130
2000
0000
,
0000
3000
0010
0001
0000
1000
0100
1000
0000
0001
0000
0001
0000
0010
1000
0001
,
0000
0000
0020
0000
0000
0000
2030
0000
0000
3001
0100
1000
0001
0000
0020
0000
,
0000
0030
0010
0001
0101
0000
0010
1000
1100
0000
0110
0000
1001
0000
0000
0000
,
0110
1000
0002
0203
,
0320
0000
0001
0000
2030
0000
0010
0010
,
0010
0001
0001
0100
,
3010
0000
1000
0000
0100
0000
0010
0001
,
1000
1000
0100
0100
0010
0010
0001
0001
,
0100
0100
0010
0010
1000
1000
0001
0001
,
0010
0000
0000
0100
0000
0000
1000
0000
0000
0010
0000
0000
0100
0000
0000
0010
0000
0000
1000
0000
0000
0001
0000
0000
0010
0000
0100
0000
1000
0000
0001
0000
1000
0000
0001
0000
0100
0000
0010
0000
1000
0000
0001
0000
1000
0000
0001
0000
,
0020
0000
0000
0030
,
0001
0100
1000
0100
0001
0100
0010
1000
0001
0000
0000
0000
0010
0100
1000
0001
,
1000
0100
0001
0100
0010
0001
1000
0010
0100
0000
0000
0000
0101
0000
1100
0000
,
0001
0010
1000
0010
0001
1000
0010
0100
0001
0000
0000
0000
0010
0100
1000
0001
,
1000
0100
0001
0100
0010
0001
1000
0001
0100
0000
0010
0100
1001
0000
0000
0000
,
1000
0000
0000
0001
0000
0000
0010
0000
0000
0100
0000
0000
1000
0000
0100
0000
1000
0000
0100
0000
0000
0010
0000
0000
0001
0000
0000
0000
0000
0000
0000
0000
0000
0000
0000
0000
1000
0000
0000
0010
0000
0000
0001
0000
0000
0010
0000
0000
,
1000
0000
0000
0010
0000
0000
0100
0000
0000
0001
0000
0000
0010
0000
0100
0000
0010
0000
0100
0000
1000
0000
0100
0000
1000
0000
0000
0000
0000
0000
1001
0000
0000
0000
0000
0000
1100
0000
0000
0000
0000
0000
0101
0000
0000
0000
0000
0000
,
1000
0000
0000
0000
0000
0000
0010
0000
0000
0000
0000
0000
0001
0000
0000
0000
0000
0000
0010
0000
0000
0000
0000
0000
1000
0000
0000
0100
0000
0000
1000
0000
0000
0000
0000
0000
0001
0000
0100
0000
0001
0000
0100
0000
0001
0000
0100
0000
,
0010
0000
0100
0010
1001
0000
0000
0000
1100
0000
0101
0000
1010
0000
0011
0000
,
1000
0100
0001
0100
1000
0100
0010
0001
1000
0000
0100
1000
0010
0100
0001
1000
,
0001
0100
1000
0100
0010
1000
0001
0010
0100
0000
0010
0001
0101
0000
1100
0000
,
1000
0010
0001
0010
1000
0001
0010
0100
1000
0000
0001
0100
0010
0100
0001
1000
,
0001
0100
1000
0100
0010
1000
0001
1000
0100
0000
0010
0100
1001
0000
1000
0001
,
0100
0000
0000
0001
0000
0000
0010
0000
0000
0100
0000
0000
1000
0000
0010
0000
1000
0000
0010
0000
0000
0100
0000
0000
0001
0000
0000
0000
0000
0000
1000
0000
0000
0001
0000
0000
1000
0000
0000
0100
0000
0000
0001
0000
0000
0100
0000
0000
,
1000
0000
0000
0100
0000
0000
0010
0000
0000
0001
0000
0000
0100
0000
0010
0000
0100
0000
0010
0000
1000
0000
0010
0000
1000
0000
0000
0000
0000
0000
1001
0000
0000
0000
0000
0000
0101
0000
0000
0000
0000
0000
1100
0000
0000
0000
0000
0000
,
1000
0000
0000
0010
0000
0000
0001
0000
0000
0010
0000
0000
0100
0000
0000
1000
0000
0000
0100
0000
0000
0001
0000
0000
0010
0000
0000
0000
0000
0000
0100
0000
0000
0000
0000
0000
1000
0000
0001
0000
1000
0000
0001
0000
1000
0000
0001
0000
,
0200
0000
0000
0000
0000
0300
0110
0000
,
1001
0000
0000
0000
,
0000
0000
0000
0110
,
1001
0000
1000
0000
0001
0000
0100
0010
0100
0001
1000
0000
0010
0000
0001
0000
,
0010
0000
1000
0000
0010
0000
0100
0000
0001
0000
1000
0000
0001
0100
0010
1000
,
0001
0000
0000
0000
0110
0000
1000
0100
1000
0001
1000
0000
0010
0100
0010
1000
,
0010
0100
0010
0000
0100
0001
2000
0000
0100
0000
3001
0000
1000
0000
0200
0000
,
1000
0000
0310
0001
0010
0000
0100
1000
0100
0010
0100
0000
1000
0000
0001
0000
,
0010
0000
0000
0001
0000
0000
0100
0000
0000
0010
0000
0000
0100
0000
0000
0001
0000
0000
1000
0000
0000
0100
0000
0000
0010
0000
0000
0100
0000
0000
1000
0000
0000
0001
0000
0000
1000
0000
0010
0000
1000
0000
0010
0000
0100
0000
0001
0000
,
1000
0000
0000
0000
1001
0000
0000
0000
1000
0001
0100
0000
0010
0000
1000
0001
,
0010
0100
1000
0000
0001
0100
0010
0000
1000
0000
0100
0000
0001
0000
0200
0000
,
1000
0000
0310
0000
0100
0000
0010
0001
1000
0010
0100
0000
0001
0000
1000
0000
,
0100
0000
0000
1000
0000
0000
0010
0000
0000
0100
0000
0000
0001
0000
0000
0010
0000
0000
0100
0000
0000
1000
0000
0000
0010
0000
0000
0100
0000
0000
0001
0000
0000
0010
0000
0000
0100
0000
0010
0000
0001
0000
1000
0000
0001
0000
1000
0000
,
0010
0000
0000
0000
1001
0000
0001
0100
0010
0100
0001
0000
0010
0100
1000
0100
,
0010
0001
0010
0000
0001
1000
0020
0000
0100
0000
1030
0000
0010
0000
0100
0000
,
0001
0000
1000
0100
0001
0000
1000
0010
0001
0010
0100
0000
1000
0000
0001
0000
,
1000
0000
0000
0100
0000
0000
0010
0000
0000
0001
0000
0000
0100
0000
0000
0010
0000
0000
1000
0000
0000
0001
0000
0000
0010
0000
0000
0100
0000
0000
1000
0000
0000
0010
0000
0000
0100
0000
0001
0000
0010
0000
0100
0000
1000
0000
0002
0000
,
2000
0000
0000
0000
,
0000
0000
0000
0000
,
0000
0000
0000
0000
,
0000
0000
0000
3003
,
0001
0000
0010
0000
1000
0000
0010
0000
0100
0000
0001
0000
0100
0000
1000
0000
0001
1000
0001
0000
0100
0000
1000
0000
0100
0000
0010
0000
0001
0000
0010
0000
,
2002
3003
0000
0000
;

//---------------dance-double - Kekkle-BDP----------------
#NOTES:
     dance-double:
     Kekkle:
     Easy:
     13:
     0.639927,0.703550,0.286433,0.278476,0.003978,563,527,36,35,0,0,0.639927,0.703550,0.286433,0.278476,0.003978,563,527,36,35,0,0:
00000000
00000000
00000000
00000000
,
00000000
00000000
00000000
00000000
,
00000000
00000000
00000000
00000000
,
00022000
00033000
00000000
00000000
,
00000000
00000000
00000000
00011000
,
00001000
01000000
00100000
00000000
10000000
00010000
00100000
00000000
,
00001000
00010000
00000010
00001000
00000100
00000010
00000001
00000000
,
00001000
00000010
00010000
00000000
00001000
01000000
00010000
00000000
,
00100000
00010000
10000000
00100000
01000000
00001000
00010000
00000000
,
00010010
00000100
00001001
00000001
,
00001100
00000010
00010100
00010000
,
00001000
01000000
00010000
01000000
10000000
01000000
00010000
00100000
,
00002000
00010000
00013000
00011000
,
00001000
00010000
00000010
00001000
00000100
00000010
00000001
00000000
,
00001000
00000010
00010000
00000200
00000000
00001000
00000000
00010300
,
00000000
00001000
01000000
00010000
01000000
00100000
10000000
00000000
,
00010000
00100000
00001000
00100000
00010000
00100000
00001000
00010000
,
00000010
00000000
00000100
00000001
00001000
00000100
00010000
00000100
,
00001000
00000010
00010000
00001000
01000000
00010000
10000000
00000000
,
00010000
00100000
00001000
01000000
00010000
00000000
01000000
00000000
,
02001000
00000000
03002000
00000000
00023000
00000000
00030100
00000010
,
00000100
00000000
00001000
00000000
00000001
00000100
00000010
00010000
,
00000200
00001000
00002300
00003100
,
00010000
00001000
00100000
00010000
01000000
00001000
01000000
00010000
,
20000000
00000000
00000000
30010000
,
00100000
00001000
00010000
00000000
00000010
00010000
00001000
00000000
,
01000000
00001000
00010000
00000000
00000100
00010000
00001000
00000000
,
01000000
00010000
01000000
00001000
00010000
00000100
00001000
00000010
,
00000200
00000010
00000310
00000110
,
00000100
00000000
00000001
00000000
00001000
00000100
00010000
00001000
,
01000000
00010000
00100000
02000000
00000000
13000000
00010000
02000000
,
00000000
03001000
00100000
00001000
00010000
00000010
00000000
00001010
,
00000000
00001001
00000000
00001100
00000000
00010100
00000000
00010000
,
00001000
01000000
00100000
00000000
00010000
00001000
00010000
00100000
,
01000000
00010000
01000000
00002000
00000000
00013000
00000100
00000020
,
00000000
00000031
00001000
00000010
00001000
00000100
00010000
00000000
,
00001000
01000000
00010000
00100000
00001000
00010000
00001000
01000000
,
00020000
00000000
10030000
00000000
01000000
00100000
00010000
01000000
,
00001000
00010000
00001000
00000100
00000001
00001000
00000100
00002000
,
00000000
00003001
00000100
00000010
00010000
00000100
00010000
00001000
,
02000000
03020000
20030000
31000000
,
00100000
00001000
00010000
00000000
00000010
00010000
00001000
00000000
,
01000000
00001000
00010000
00000000
00000100
00010000
00001000
00000000
,
01000000
00001000
01000000
00010000
00100000
00001000
00010000
00000100
,
00000020
00000001
00000031
00001001
,
00001000
00000010
00010000
00000000
00000100
00010000
00001000
00000000
,
00100000
00001000
00100000
00010000
01000000
00100000
10000000
00000000
,
00010000
00100000
01000000
00000000
00100000
00001000
00010000
00000000
,
00000010
00001000
00000010
00000001
00000010
00001000
00000100
00000000
,
00010000
00001000
01000000
00000000
00010000
00100000
01000000
00000000
,
00100000
00001000
00010000
00100000
01000000
00010000
10000000
00000000
,
01000000
00100000
00001000
00000000
00010000
00000100
00001000
00000020
,
00000000
00000130
00000001
00001000
00000001
00000000
00001001
00000000
,
00002000
00000100
00000001
00000100
,
00003020
00000000
00020030
00000000
,
00031000
01000000
00100000
00100000
,
10000000
00000000
00010000
00000000
00100000
00001000
00010000
00000000
,
00000100
00010000
00001000
00000000
01000000
00001000
00010000
00000000
,
00000010
00010000
00001000
00000000
00100000
00001000
00010000
00000000
,
00000010
00001000
00000100
00000010
00000100
00010000
00001000
00000000
,
00022000
00000000
00000000
00033000
,
00001000
01000000
00010000
01000000
01100000
00000000
00100000
00000000
,
10000000
00010000
00100000
00001000
00011000
00000000
00010000
00000000
,
00000010
00001000
00000100
00001000
00001001
00000000
00000001
00000000
,
00000100
00000010
00010000
00000100
00010100
00000000
00010000
00001000
,
00100000
00010000
01000000
00001000
01001000
00000000
01000000
00000000
,
00010000
10000000
01000000
10000000
10100000
00000000
00100000
00000000
,
01000000
00001000
00010000
00000000
00000010
00001000
00000100
00000000
,
00000010
00000000
00000010
00000000
00000001
00001000
00000001
00001000
,
00000010
00010000
00001000
00010000
00010100
00000000
00000100
00010000
,
00001000
00100000
00010000
01000000
01001000
00000000
00001000
00000000
,
00100000
00010000
01000000
00001000
00011000
00000000
00010000
00000010
,
00001000
00000100
00000010
00000100
00001100
00000000
00002000
00000000
,
00003001
00000100
00000010
00001000
00001001
00000000
00000001
00001000
,
00000010
00001000
00000100
00010000
00011000
00000000
00001000
01000000
,
00010000
00100000
00001000
00010000
00000010
00001000
00000010
00000001
,
00000020
00000000
00000000
00000130
,
00000110
00000000
00000000
00000000
,
00000000
00000000
00000000
00001001
,
00000001
00000100
00000010
00010000
00000100
00010000
00001000
01000000
,
00000000
01010000
00000000
10010000
00000000
00110000
00000000
00100000
,
00002000
00000000
00013000
00000010
00000100
00000010
00001000
00000100
,
00010000
00000010
00001000
00000100
00000010
00000001
00001000
00000020
,
00000000
00010030
00001000
01000000
00010000
01000000
00100000
10000000
,
00020000
01000000
01030000
01010000
,
00010000
10000000
01000000
00000000
00010000
00001000
00000010
00000000
,
00000001
00001000
00000010
00001000
00000100
00000010
00000001
00000000
,
00001000
00000010
00010000
00000000
00001000
01000000
00100000
00000000
,
10000000
01000000
00010000
01000000
10000000
00000000
10010000
00000000
,
00010000
00010000
01000000
01000000
,
00001000
00001000
00010000
00010000
,
00000010
00001000
00000100
00000000
00000010
00000001
00001000
00000000
,
00000010
00010000
00001000
01000000
00010000
00100000
10000000
00100000
,
00020000
00000000
00000000
00000000
,
00000000
00000000
00000000
00000000
,
00000000
00000000
00000000
00000000
,
00000000
00000000
00000000
00000000
,
10030000
00000000
00010000
00000000
10000000
00000000
00010000
00000000
10000000
00000000
00010000
00000000
10000000
00010000
10000000
00000000
,
20020000
30030000
00000000
00000000
;

//---------------dance-double - Kekkle-DDP----------------
#NOTES:
     dance-double:
     Kekkle:
     Medium:
     15:
     0.799056,0.977153,0.310302,0.318258,0.314280,703,664,39,40,0,0,0.799056,0.977153,0.310302,0.318258,0.314280,703,664,39,40,0,0:
00000000
00000000
00000000
00000000
,
00000000
00000000
00000000
00000000
,
00000000
00000000
00000000
00000000
,
00022000
00033000
00000000
00000000
,
00000000
00000000
00000000
00011000
,
00001000
01000000
00010000
01000000
00100000
10000000
00010000
00000000
,
00100000
00001000
00010000
00000010
00001000
00000000
00001001
00000000
,
00000011
00000000
00001100
00000000
00000100
00010000
00001000
01000000
,
00010000
00000000
10000000
01000000
10000000
00000000
00010000
00000000
01000000
00010000
01000000
00010000
01000000
00000000
00000000
00000000
,
01002000
00013000
00020100
00031000
,
00102000
00013000
00020010
00031000
,
01001000
00000000
01100000
00000000
01000000
00010000
00001000
00000010
,
00000200
00000000
00000000
00000000
00000301
00000000
00001000
00000100
00001000
00000100
00001000
00000000
00001001
00000000
00000000
00000000
,
00000001
00000100
00001000
00010000
00000100
00010000
00001000
00000000
,
01000000
00010000
00100000
01000000
00000000
11000000
00000000
01010000
,
00000000
00010000
01000000
00010000
00001000
00000100
00000010
00000100
,
00001000
00000100
00001000
00000000
00000001
00000100
00000001
00000000
00001000
00000100
00001000
00000100
00020000
00000000
00000000
00000000
,
00031000
01000000
00100000
00010000
00001000
00100000
00010000
00000000
,
10000000
01000000
00000000
01100000
00000000
00101000
00000000
00001000
,
00010000
00000010
00001000
00000100
00010000
00001000
00000100
00000001
,
00001001
00000000
00001100
00000000
00010100
00010000
00001000
01000000
,
02010000
00000000
03100000
00000000
10000000
01000000
00010000
00001000
,
00000020
00001000
00000002
00000033
,
00000001
00000100
00001000
00010000
00000100
00000010
00000100
00001000
,
00020000
10000000
01030000
01010000
,
00010000
01000000
00010000
10000000
00010000
00100000
00010000
00001000
,
00000100
00001000
00000001
00001000
00000010
00001000
00000100
00010000
,
00001000
01000000
00001000
00000000
00100000
00010000
00100000
00000000
00010000
10000000
00010000
10000000
00010000
10000000
00010000
10000000
,
00020000
00000000
00000000
00000000
10030000
00000000
00000000
00000000
00100000
01000000
00100000
00000000
01000000
00000000
00010000
00000000
,
20000000
00000000
32000000
00000000
03010000
00001000
00010000
01000000
,
10000000
01000000
00010000
00001000
00000010
00000001
00001000
00000020
,
00000000
00001030
00010000
00001000
00000010
00010000
00000100
00010100
,
00000000
00000000
00011000
00000000
00000000
00000000
01001000
00000000
00000000
00000000
01010000
00000000
00000000
00000000
00010000
10000000
,
00020000
00000000
00130000
01000000
00010000
01000000
10000000
00100000
,
00010000
00001000
00000100
00000001
00001000
00000100
00010000
00000020
,
00000000
00001030
00000010
00001000
00010000
01000000
00100000
10000000
,
00010000
00100000
00010000
00000000
01000000
00000000
00001000
00000000
00010000
00000010
00010000
00000000
00000100
00001000
00000100
00001000
,
00000100
00000010
00000002
00000000
00001003
00000010
00001000
00010000
,
00001000
00000100
00010000
00001000
01000000
00100000
00010000
00200000
,
00000000
10300000
00010000
00100000
00001000
00010000
00000100
00010000
,
00001000
01000000
00001000
00010000
00000010
00000100
00000002
00000000
,
00001003
00000100
00001000
00000001
00001000
00000010
00001000
00010000
,
01000000
00010000
10000000
00010000
00100000
00010000
01000000
00001000
,
00010000
00001000
00010000
00000000
00000010
00001000
00000010
00000000
00001000
00000001
00001000
00000001
00001000
00000001
00001000
00000001
,
00002000
00000001
00003001
00001001
,
00001000
00000000
00000100
00010000
00001000
01000000
00100000
00000000
,
00010000
00001000
00010000
01000000
10000000
01000000
00010000
00000000
,
00001000
00000000
00010000
00000010
00000100
00001000
00010000
00000000
,
00000100
00000001
00000100
00010000
00001000
00000100
00000010
00000000
,
00001000
00000000
00000100
00010000
00001000
00100000
01000000
00000000
,
00010000
01000000
10000000
00100000
00010000
00001000
00010000
00000000
,
00000100
00000010
00001000
00010000
01000000
00100000
00010000
20000000
,
00000000
30010000
01010000
01000000
00001000
00010000
00010020
00000000
,
00000130
00000100
00000001
00000001
,
00002000
00010000
00000100
00013000
,
01000000
01000000
00100000
00100000
,
00020000
00000000
00001000
00000000
00100000
00000000
00031000
01000000
,
00010000
00100000
00010000
10000000
00010000
01000000
00010000
00001000
,
00000010
00001000
00000001
00001000
00000100
00001000
00000010
00010000
,
00001000
01000000
00010000
00000000
00100000
00010000
00100000
00000000
00010000
10000000
00010000
10000000
00010000
10000000
00010000
10000000
,
00200000
00000000
00000000
00300000
,
10000000
00000000
00100000
00000000
01000000
00010000
01000000
00010000
02000000
00000000
00000000
00000000
03100000
00000000
10000000
00000000
,
00010000
00000000
00100000
00000000
00001000
00010000
00001000
00010000
00002000
00000000
00000000
00000000
00013000
00000000
00000000
00000000
,
00000100
00000000
00001000
00000000
00000001
00000100
00000001
00000100
00000002
00000000
00000000
00000000
00001003
00000000
00000010
00000000
,
00010000
00000000
00000100
00000000
00010000
00001000
00010000
00001000
00100000
00000000
00010000
00000000
01010000
00000000
00000000
00000000
,
01000000
00000000
00010000
00000000
10000000
00010000
10000000
00010000
20000000
00000000
00000000
00000000
31000000
00000000
00100000
00000000
,
00001000
00000000
00010000
00000000
00000010
00001000
00000010
00001000
00000020
00000000
00000000
00000000
00001030
00000000
00001000
00000000
,
00000100
00010000
00001000
01000000
00100000
00010000
00001000
00000000
,
00011000
00000000
00010010
00000000
00000010
00000100
00000010
00000010
,
00000100
00000000
00000001
00000000
00001000
00000100
00001000
00000100
00010000
00000000
00001000
00000000
01000000
00000000
00010000
00000000
,
00100000
00000000
00010000
00000000
10000000
00100000
10000000
00100000
10000000
00000000
00010000
00000000
01000000
00000000
00010000
00000000
,
10000000
00000000
01000000
00000000
00100000
00010000
00100000
00010000
10000000
00000000
00010000
00000000
00100000
00000000
00001000
00000000
,
00010000
00000000
00000010
00000000
00001000
00000100
00001000
00000100
00000010
00000000
00000001
00000000
00001001
00000000
00000000
00000000
,
00001000
00000000
00000010
00000000
00001000
00000001
00001000
00000001
00000010
00000000
00000100
00000000
00010000
00000000
00001000
00000000
,
00100000
00000000
00010000
00000000
10000000
00010000
10000000
00010000
10000000
00000000
00010000
00000000
01000000
00000000
00100000
00000000
,
10000000
00010000
10000000
00000000
00010000
00000000
00100000
00000000
00001000
00000000
00010000
00000000
00000010
00001000
00000010
00001000
,
00000020
00000000
00000000
00001030
,
00001001
00000000
00000000
00000000
,
00000000
00000000
00000000
00000110
,
00001001
00000000
00000001
00000100
00001000
00010000
01000000
11000000
,
00000000
10010000
00000000
01001000
00000000
00011000
00010000
00000010
,
00002000
00000000
00003100
00000001
00000100
00010000
00000010
00001000
,
00000100
00010000
00001000
01000000
00010000
00100000
10000000
00200000
,
00000000
00310000
01000000
00001000
00010000
00000010
00001000
00010000
,
00000100
00000000
00001000
00000000
00010000
00000000
00100000
00000000
01000000
00000000
00010000
00000000
10000000
01000000
10000000
01000000
,
00200000
00000000
00302000
00000000
00013000
00000010
00000100
00000100
,
00001000
00010000
00000100
00010000
00000010
00001000
00000100
00020000
,
00000000
00031000
00000100
00000001
00000100
00001000
00010000
00001000
,
00100000
00010000
00100000
00000000
00010000
10000000
00010000
00000000
10000000
00100000
10000000
00100000
10000000
00100000
10000000
00000000
,
00010000
01000000
00010000
10000000
00010000
00100000
00010000
00001000
,
00000100
00001000
00000001
00001000
00000010
00001000
00000100
00010000
,
00001000
01000000
00001000
00000000
00100000
00010000
00100000
00000000
00010000
10000000
00010000
00000000
10000000
01000000
10000000
00000000
,
00010000
00000000
01000000
00000000
00001000
00000000
00010000
00000000
00000010
00000100
00000010
00000100
00000010
00000100
00000010
00000100
,
00000020
00000000
00000000
00000000
,
00000000
00000000
00000000
00000000
,
00000000
00000000
00000000
00000000
,
00000000
00000000
00000000
00000000
,
00001030
00000000
00000001
00000000
00001000
00000000
00000001
00000000
00001000
00000001
00001000
00000001
00001000
00000001
00001000
00000001
,
00002000
00003000
00000000
00000000
;

//---------------dance-double - Kekkle-EDP----------------
#NOTES:
     dance-double:
     Kekkle:
     Hard:
     18:
     0.977508,1.169600,0.326215,0.334171,0.954776,860,819,41,42,0,0,0.977508,1.169600,0.326215,0.334171,0.954776,860,819,41,42,0,0:
00000000
00000000
00000000
00000000
,
00000000
00000000
00000000
00000000
,
00000000
00000000
00000000
00000000
,
00022000
00033000
00000000
00000000
,
00000000
00000000
00000000
00011000
,
01001000
00000000
01000000
10000000
01000000
00010000
00100000
00001000
,
00010000
00001000
00000010
00000001
00001000
00000010
00010010
00000000
,
00010100
00000000
00001100
00000000
00001000
00000100
00010000
01000000
,
00100000
00000000
00010000
01000000
00010000
01000000
00100000
00000000
10000000
01000000
10000000
01000000
00100000
00000000
00000000
00000000
,
00101000
00000000
00001000
00010000
00010010
00000000
00001000
00100000
,
00110000
00000000
00001000
00010000
00010100
00000000
00010000
00001000
,
01000000
00010000
01000000
00010000
10000000
01000000
10000000
01000000
00100000
00001000
00100000
00001000
00010000
00001000
00010000
00001000
,
00020000
00000000
00000000
00000000
00030010
00000000
00001000
00000001
00001000
00000100
00001000
00000000
00002200
00000000
00003300
00000000
,
00000100
00010000
00001000
01000000
00100000
00010000
00001000
00000010
,
00000001
00000011
00000000
00001100
00000000
00010100
00000000
00011000
,
00001000
01000000
00100000
10000000
00010000
00001000
00000010
00000100
,
00000001
00001000
00000001
00001000
00000100
00001000
00000100
00010000
00001000
00010000
00001000
00010000
00000200
00000000
00000000
00000000
,
00010300
00001000
01000000
00100000
00010000
00100000
10000000
01000000
,
00100000
00101000
00000000
00011000
00000000
00010010
00000000
00000110
,
00000000
00000100
00000000
00000001
00000000
00001000
00000000
00000100
,
00010100
00000000
01001000
00000000
00010100
00000000
00000100
00010000
,
00011000
00000000
00001000
01000000
10000000
00010000
00100000
10000000
,
02000000
00010000
00100000
13000000
,
00010000
01000000
00100000
00010000
00000010
00001000
00000100
00000010
,
00000012
00000000
00000000
00000000
00001000
00000000
00000000
00000000
00000103
00000000
00000010
00000100
00000010
00000000
00000000
00000000
,
00010010
00000000
00010000
00000100
00000001
00001000
00000010
00000001
,
00000200
00001000
00000010
00000301
,
00001000
00000100
00001000
00000100
00010000
00001000
00010000
00001000
01000000
00010000
01000000
00100000
10000000
00010000
10000000
00010000
,
00200000
00000000
00000000
00000000
00301000
00000000
00010000
00000010
00010000
00000010
00000100
00000000
00000001
00001000
00000100
00001000
,
00000002
00000000
00000000
00000000
00000203
00000000
00000000
00000000
00000310
00010000
00000010
00000000
00001000
00000000
00000100
00010000
,
00001000
00010000
00001000
00000000
01000000
00000000
00200000
00000000
00000000
00000000
10300000
00000000
00010000
00000000
00200000
00000000
,
00000000
00000000
00301000
00000000
00010000
00000000
00000010
00001000
00000010
00001000
00000100
00000000
00000010
00000000
00000011
00000000
,
00000000
00000000
00001100
00000000
00000000
00000000
00010010
00000000
00000000
00000000
00011000
00000000
00000000
00000000
00001000
01000000
,
00200000
00000000
00000000
00000000
10300000
00000000
00010000
00100000
00010000
00100000
00001000
00000000
01000000
00010000
01000000
00010000
,
01000000
00001000
01000000
00000000
00010000
00000000
00200000
00000000
00000000
00000000
00301000
00000000
00010000
00000000
00000020
00000000
,
00000000
00000000
00000130
00000001
00000100
00000000
00000010
00001000
00000001
00001000
00000010
00000000
00001000
00000000
00000100
00000000
,
00010000
00001000
00010000
00001000
00100000
00010000
00100000
00010000
01000000
00001000
01000000
00010000
01000000
00100000
01000000
00010000
,
20000000
00000000
00000000
00000000
30020000
00000000
00000000
00000000
00130000
00001000
00010000
00000000
00000010
00000000
00001000
00000010
,
00001000
00000100
00000010
00000000
00000001
00000000
00002000
00000000
00000010
00000000
00003020
00000000
00020030
00030000
00002000
00000000
,
00000000
00000000
01003000
00000000
00010000
00000000
10000000
01000000
10000000
00010000
10000000
00000000
00100000
00000000
01000000
00000000
,
00010000
01000000
00001000
01000000
00001000
00010000
00001000
00010000
00000010
00001000
00000100
00000010
00000100
00000010
00000001
00001000
,
00000001
00000001
00001000
00001000
00000010
00000010
00010000
00010000
,
00000100
00000100
00010000
00010000
00001000
00001000
00100000
00100000
,
00010000
01000000
00010000
01000000
00100000
10000000
00010000
00100000
00010000
00100000
00001000
00010000
00000010
00010000
00000010
00001000
,
00000200
00000010
00000310
00000110
,
00001001
00000000
00001000
00000000
00000000
00000000
00000100
00010000
00000000
00000000
00002000
00000000
00000000
00000000
02003000
00000000
,
00000000
00000000
03010000
00100000
00000000
00000000
00100000
00010000
00000000
10000000
00100000
01000000
00000000
00010000
01000000
00010000
,
00000000
00000000
00100000
00001000
00000000
00000000
00001000
00010000
00000000
00000000
00010000
00000100
00000000
00000100
00002000
00000000
,
00000000
00000000
00003010
00000100
00000000
00000001
00001000
00000010
00000000
00001000
00000100
00000010
00000000
00000100
00010000
00000000
,
00002000
00000000
02003000
00000000
00000000
00000000
03010000
00100000
00000000
00000000
00020000
00000000
00000000
10030000
02000000
00000000
,
00000000
00000000
03100000
00010000
00000000
01000000
00001000
01000000
00000000
00001000
00000000
00010000
00000000
00000010
00001000
00000001
,
00000000
00000000
00000020
00000000
00000000
00000000
00000031
00000000
00000000
00001000
00000100
00000010
00000001
00000000
00000200
00000000
,
00000000
00000000
00000310
00010000
00001000
00000000
00100000
00010000
01000000
00000000
00010000
00000000
10010000
00000000
00000000
00000000
,
12000000
00010000
00100000
13000000
,
00020000
01000000
00032000
00000010
,
00003100
00010000
00001000
00100000
,
00010000
00000000
00001000
00000000
00000100
00000000
00000010
00000001
,
00000100
00000100
00010000
00010000
00001000
00001000
00000010
00000010
,
00010000
00010000
00001000
00001000
00100000
00100000
01000000
01000000
,
10000000
01000000
10000000
01000000
10000000
00010000
10000000
00010000
01000000
00010000
01000000
00001000
00010000
00001000
00010000
00000010
,
00002000
00000000
00000000
00003000
,
00000001
00001000
00000010
00001000
00000010
00010000
00000100
00010000
00001000
00000000
00000000
00000000
01000000
00010000
01000000
00010000
,
10000000
00010000
00100000
00010000
00100000
00001000
00010000
00001000
01000000
00000000
00000000
00000000
00001000
00000000
00010000
00000000
,
00000010
00001000
00000010
00001000
00000001
00000010
00000001
00001000
00000010
00000000
00000000
00000000
00001000
00000100
00010000
00000100
,
00010000
00001000
00100000
00001000
00100000
00010000
01000000
00010000
01000000
00000000
00100000
10000000
01000000
00000000
00000000
00000000
,
00100000
00001000
00100000
00001000
00010000
00000010
00001000
00000100
00001000
00000000
00000000
00000000
00000001
00000010
00000001
00001000
,
00000010
00001000
00000100
00010000
00001000
00010000
00000100
00010000
00001000
00000000
01000000
00000000
01001000
00000000
01010000
00000000
,
00010000
10000000
01000000
00010000
00001000
00000100
00000001
00001000
,
00001100
00000000
00010100
00000000
01001000
01000000
00010000
00010000
,
10000000
01000000
10000000
00010000
01000000
00010000
01000000
00001000
00010000
00000000
00000010
00001000
00000010
00001000
00000100
00000010
,
00000100
00001000
00000001
00001000
00000001
00000100
00000010
00010000
00001000
00000000
01000000
00010000
01000000
00000000
00100000
00000000
,
10000000
00010000
10000000
01000000
00100000
00010000
00100000
01000000
10000000
00000000
00010000
01000000
00001000
00010000
00001000
00010000
,
00000010
00001000
00000010
00001000
00000001
00000010
00000100
00000010
00000001
00000000
00001000
00000010
00001000
00000000
00000010
00010000
,
00000100
00010000
00000100
00010000
00001000
00100000
00010000
01000000
00010000
00000000
10000000
01000000
00100000
01000000
10000000
00010000
,
01000000
00010000
01000000
00001000
00010000
00000100
00010000
00001000
00010000
00000000
00000010
00000000
00001000
00000000
00001000
00000000
,
00000001
00000000
00000000
00000010
00000000
00000000
00000001
00000000
00000000
00001000
00000000
00000000
00000010
00000000
00000000
00010000
00000000
00000000
00000100
00000000
00000000
00010000
00000000
00000000
00001000
00000000
00000000
00000000
00000000
00000000
01000000
00000000
00000000
00000000
00000000
00000000
00010000
00000000
10000000
00000000
00010000
00000000
10000000
00000000
00010000
00000000
10000000
00000000
,
00020000
00000000
00000000
10030000
,
10010000
00000000
00000000
00000000
,
00000000
00000000
00000000
01100000
,
10010000
00000000
00010000
00000000
01000000
00000000
00010000
10000000
01000000
10000000
00010000
00000000
01000000
00000000
00010000
00000000
,
00001000
00000010
00000100
00000001
00001000
00000100
00001000
00010000
,
00100000
00000000
01000000
00000000
10000000
00000000
01000000
10000000
00010000
10000000
01000000
00000000
00100000
00001000
00010000
00001000
,
01000000
00001000
00010000
00000000
00001000
00010000
00000020
00000000
00000000
00000000
00001030
00000000
00000100
00000000
00000001
00000000
,
00000100
00000000
00001000
00000100
00010000
00000000
00001000
01000000
00001000
01000000
00010000
00000000
00100000
00000000
00010000
00000000
,
10000000
01000000
10000000
01000000
00100000
00010000
00100000
00010000
00001000
00000100
00001000
00000100
00000010
00000001
00000010
00000001
,
00002000
00000000
00000000
00000000
00003010
00000000
00010000
00000000
00000100
00010000
00000100
00000000
00010000
00000000
00001000
00100000
,
00001000
00100000
00010000
00000000
01000000
00000000
10000000
00000000
01000000
00000000
00010000
00000000
00100000
00000000
00002000
00000000
,
00000000
00000000
00013000
00000000
00000010
00000000
00001000
00000100
00000010
00000001
00001000
00000000
00000010
00000000
00010000
00000000
,
00000100
00010000
00001000
00100000
00001000
00100000
00010000
01000000
00010000
10000000
01000000
10000000
01000000
00100000
00010000
01000000
,
00010000
00010000
00100000
00100000
00001000
00001000
00010000
00010000
,
00000010
00000010
00001000
00001000
00000100
00000100
00010000
00010000
,
00001000
00000000
00100000
00010000
00100000
00000000
00010000
10000000
00100000
10000000
01000000
00000000
00100000
00000000
00001000
00000000
,
00010000
00000010
00010000
00000010
00001000
00000100
00001000
00000100
00000010
00000001
00001000
00000010
00010000
00000100
00010000
00001000
,
00020000
00000000
00000000
00000000
,
00000000
00000000
00000000
00000000
,
00000000
00000000
00000000
00000000
,
00000000
00000000
00000000
00000000
,
00031000
01000000
00010000
10000000
01000000
10000000
00010000
01000000
00001000
00010000
00000010
00001000
00000001
00000010
00000001
00001000
,
00000010
00000000
00000000
00000000
;

//---------------dance-double - Kekkle-CDP----------------
#NOTES:
     dance-double:
     Kekkle:
     Challenge:
     19:
     1.024110,1.289842,0.286433,0.421692,0.982623,901,865,36,53,0,0,1.024110,1.289842,0.286433,0.421692,0.982623,901,865,36,53,0,0:
00000000
00000000
00000000
00000000
,
00000000
00000000
00000000
00000000
,
00000000
00000000
00000000
00000000
,
00022000
00033000
00000000
00000000
,
00000000
00000000
00000000
01001000
,
01010000
01000000
10000000
00010000
00001000
00010000
00100000
00010000
,
00000100
00000010
00000100
00001000
00000001
00000100
00000110
00000000
,
00010010
00000000
00011000
00010000
00100000
10000000
00100000
01000000
,
00001000
00000000
00100000
00001000
00010000
00000010
00001000
00000000
00000100
00000001
00000100
00001000
00000010
00000000
00000000
00000000
,
00001010
00001000
00010000
01000000
01010000
00010000
00001000
00000100
,
00001100
00001000
00010000
00100000
00110000
00010000
00001000
00000010
,
00001000
00000001
00000010
00000100
00010000
00001000
01000000
00001000
00100000
00010000
10000000
00010000
01000000
00010000
00100000
00002000
,
00020000
00000000
00003000
00000000
00031000
00000000
00010000
00000010
00001000
00000100
00000010
00000000
00000220
00000000
00000330
00000000
,
00000010
00000001
00001000
00010000
00001000
00000010
00001000
00000100
,
00010000
00000000
00001000
01000000
00000000
00000000
01000000
00100000
00000000
00000000
00100000
00001000
00000000
00000000
00001000
00000010
,
00000100
00000001
00001000
00000100
00010000
01000000
10000000
00010000
,
01000000
00100000
00010000
00100000
01000000
00001000
00010000
00000100
00001000
00000100
00000010
00000001
00000200
00000000
00000000
00000000
,
00000310
00010000
00100000
00010000
00000100
00001000
00010000
00100000
,
10000000
00010000
00001000
00010000
00100000
00010000
00000100
00000010
,
00001000
00000010
00000001
00001000
00000010
00010000
00001000
01000000
,
01010000
00000000
00011000
00000000
00001010
00000000
00001001
00000110
,
00000010
00001000
00000100
00000001
00000100
00010000
01000000
00010000
,
00000200
00000001
00010000
00001300
,
00000010
00001000
00100000
01000000
00001000
00010000
01000000
00100000
,
00002000
00000000
00000000
00000000
00010000
00000000
00000000
00000000
00003100
00000000
00000001
00001000
00000200
00000000
00000000
00000000
,
00010300
00001000
01000000
00100000
00010000
00000100
00000001
00000100
,
00020000
10000000
01000000
00031000
,
01000000
00001000
00100000
00001000
00010000
00000010
00001000
00000100
00000001
00000100
00001000
00000001
00000100
00000010
00001000
00000100
,
00020000
00000000
00000000
00000000
00031000
00000000
00010000
00100000
10000000
00100000
00010000
00000000
00001000
01000000
00010000
01000000
,
00200000
00000000
00000000
00000000
10300000
00000000
00010000
00000000
00100000
00001000
00010000
00000000
00000010
00000000
00001000
00010000
,
00001000
00000010
00001000
00000000
00000100
00000000
00000001
00000000
00000100
00000000
00010000
00000000
00001000
00000000
01000000
00000000
,
00100000
00000000
00010000
00000000
00000100
00000000
00000010
00000100
00010000
00000010
00001000
00000000
00000010
00000000
00010010
00000000
,
00000000
00101000
00000000
00010100
00000000
01001000
01000000
00100000
,
10000000
00000000
00010000
00000000
00100000
00000000
00001000
01000000
00100000
00010000
00001000
00000000
00000100
00000010
00001000
00000001
,
00000010
00001000
00010000
00000100
00010000
00001000
01000000
00000000
00010000
00000000
00100000
00000000
10000000
00000000
00100000
00000000
,
01000000
00010000
00001000
00000001
00000100
00001000
00000010
00000010
,
00001000
00000100
00010000
00001000
01000000
00100000
10000000
00010000
00100000
00001000
00000010
00000100
00001000
00000001
00000100
00000010
,
00001000
00000000
00000100
00010000
00001000
00000000
01000000
00001000
00010000
01000000
00010000
00000000
01000000
00000000
10000000
00010000
,
01000000
00100000
00010000
00000000
00002000
00000000
01000000
00000000
00023000
00000000
00000100
00000000
00032000
00000000
01000000
00000000
,
00013000
00000000
00000010
00001000
00000100
00000000
00000001
00000100
00000010
00000001
00001000
00000000
00010010
00000000
00010000
00000000
,
00001000
01000000
00100000
10000000
00010000
00100000
00001000
00010000
00000100
00000010
00000001
00001000
00000010
00010000
00001000
01000000
,
00010000
00010000
10000000
10000000
01000000
01000000
00001000
00001000
,
00010000
00010000
00000010
00000010
00000001
00000001
00000100
00000100
,
00000010
00000000
00000000
00010000
00000000
00000000
00000100
00000000
00000000
00010000
00000000
00000000
00001000
00000000
00000000
00100000
00000000
00000000
01000000
00000000
00000000
00100000
00000000
00000000
00001000
00000000
00000000
00010000
00000000
00000000
00001000
00000000
00000000
01000000
00000000
00000000
00100000
00000000
10000000
00000000
00100000
00000000
10000000
00000000
00000000
00100000
00000000
00000000
,
02000000
00000000
10000000
00000000
03001000
00000000
00022000
00033000
,
00010010
00000000
00000010
00000000
00000000
00000000
00001000
00000001
00000000
00000000
00000020
00000000
00000000
00000000
00002030
00000000
,
00000000
00000000
00013000
01000000
00000000
00000000
10000000
00100000
00000000
00010000
00100000
00010000
00000000
00100000
10000000
00010000
,
00000000
00000000
01000000
00001000
00000000
00000000
00010000
00000010
00000000
00000000
00000100
00001000
00000000
00000100
00000002
00000000
,
00000000
00000000
00000013
00001000
00000000
00010000
00001000
00000100
00000000
00001000
00010000
00100000
00000000
01000000
00010000
00000000
,
10010000
00000000
20000000
00000000
00000000
00000000
31000000
00010000
00000000
00000000
00002000
00000000
00000000
00013000
00200000
00000000
,
00000000
00000000
00310000
00000100
00000000
00001000
00000010
00000100
00000000
00000001
00000000
00000001
00000000
00001000
00000100
00010000
,
00000000
00000000
02000000
00000000
00000000
00000000
03100000
00000000
00000000
00010000
10000000
01000000
00100000
00000000
00002000
00000000
,
00000000
00000000
00013000
00000010
00000100
00000000
00000001
00001000
00001001
00000000
00000110
00000000
00002002
00000000
00003003
00000000
,
00001100
00001000
00000010
00001000
00100000
00010000
00000100
00010000
,
02000000
00001000
00010000
13000000
,
00100000
00010000
00000010
00001000
00010000
00001000
00000010
00010000
,
00001000
00001000
01000000
10000000
01000000
00001000
00011000
00010000
,
00000010
00000010
00001000
00001000
00010000
00010000
01000000
01000000
,
00001000
00001000
00010000
00010000
00000100
00000100
00000010
00000010
,
00000001
00001000
00000100
00000010
00001000
00010000
00001000
01000000
00010000
00100000
01000000
00100000
00001000
01000000
00100000
10000000
,
00200000
00000000
00000000
00300000
,
10000000
00010000
00100000
00001000
00010000
00000010
00001000
00000001
00000020
00000000
00000000
00000000
00000031
00000100
00000010
00010000
,
00000100
00010000
00001000
01000000
00010000
00100000
01000000
10000000
00020000
00000000
00000000
00000000
10030000
00000000
10000000
00000000
,
00100000
10000000
01000000
00100000
00001000
00010000
00000100
00001000
00000020
00000000
00000000
00000000
00000130
00000001
00001000
00000100
,
00000010
00000100
00010000
00001000
01000000
00010000
00100000
01000000
10000000
00000000
00010000
10000000
02000000
00000000
00000000
00000000
,
13000000
00100000
10000000
01000000
00010000
00001000
00000010
00000001
00000200
00000000
00000000
00000000
00000301
00001000
00000001
00000010
,
00001000
00010000
01000000
10000000
00010000
01000000
00100000
10000000
00020000
00000000
20030000
00000000
01000000
00000000
31000000
00000000
,
00010000
00001000
00000010
00000001
00001000
00000010
00001000
00010000
,
01010000
01000000
10100000
10000000
20010000
00010000
00010000
30010000
,
10000000
00010000
00100000
00001000
00010000
00000100
00000010
00000001
00000200
00000000
00000301
00001000
00000010
00001000
00010000
00001000
,
00000010
00010000
00001000
00100000
00010000
10000000
01000000
10000000
00100000
00000000
10000000
00010000
00200000
00000000
00310000
00000000
,
01000000
00010000
10000000
01000000
00100000
00001000
00010000
00000100
00000020
00000000
00000031
00000100
00000010
00001000
00000100
00010000
,
01000000
00100000
00010000
10000000
00100000
01000000
00001000
01000000
00010000
00000000
10000000
00010000
00200000
00000000
00310000
10000000
,
01000000
00010000
00001000
00000010
00000001
00001000
00000010
00001000
00000200
00000000
00001300
00000010
00010000
00000010
00000100
00001000
,
00010000
00100000
10000000
00010000
00100000
01000000
00100000
00010000
01000000
00000000
00200000
00000000
10000000
00000000
10300000
00000000
,
00010000
00000000
00000000
00100000
00000000
00000000
01000000
00000000
00000000
00010000
00000000
00000000
00001000
00000000
00000000
00000010
00000000
00000000
00000001
00000000
00000000
00001000
00000000
00000000
00000010
00000000
00000000
00000000
00000000
00000000
00000100
00000000
00000000
00000000
00000000
00000000
00000001
00000000
00001000
00000000
00000001
00000000
00001000
00000000
00000001
00000000
00001000
00000000
,
00000002
00000000
00000000
00001003
,
00001001
00000000
00000000
00000000
,
00000000
00000000
00000000
00000000
00000000
00000000
00000220
00000330
,
00010010
00000000
00010000
00000000
00001000
00000000
00100000
00010000
01000000
00001000
01000000
00000000
00010000
00000000
00100000
00000000
,
00001000
00000010
00001000
01000000
00010000
00000100
00010000
01000000
,
00100000
00000000
10000000
00000000
00010000
00000000
00100000
00001000
00010000
00000010
00000100
00000000
00000001
00001000
00000100
00010000
,
00000010
00010000
00001000
01000000
00010000
10000000
01000000
00000000
00100000
00000000
00001000
00000000
00000010
00000000
00000100
00000000
,
00010000
00000000
00001000
00000100
00001000
00000000
00000100
00000001
00001000
00000100
00010000
00000000
00001000
00000000
00001000
00000000
,
01000000
00010000
10000000
01000000
10000000
00010000
01000000
00001000
00010000
00000100
00000010
00000100
00001000
00000001
00000100
00000010
,
00002000
00000000
00003100
00010000
01000000
00100000
00001000
00000010
,
00000001
00001000
00000010
00000010
00001000
00010000
01000000
00200000
,
00000000
10300000
00010000
00001000
00000001
00000010
00000100
00001000
,
00000001
00001000
00000100
00010000
00001000
01000000
00010000
01000000
10000000
01000000
00001000
00100000
00001000
00010000
00000010
00001000
,
00000100
00000100
00000001
00000001
00000100
00000100
00010000
00010000
,
01000000
01000000
10000000
10000000
00010000
00010000
01000000
01000000
,
00100000
10000000
00010000
00100000
00001000
00010000
00000010
00000100
00001000
00000100
00000001
00001000
00000100
00001000
00010000
00100000
,
01000000
00100000
00010000
01000000
00001000
01000000
00100000
10000000
00010000
00100000
01000000
00010000
00001000
00000010
00000001
00000100
,
00002000
00000000
00000000
00000000
,
00000000
00000000
00000000
00000000
,
00000000
00000000
00000000
00000000
,
00000000
00000000
00000000
00000000
,
00013000
00100000
10000000
00010000
00100000
00010000
10000000
01000000
00010000
00001000
00000010
00000001
00000100
00001000
00010000
00001000
,
00022000
00033000
00000000
00000000
;
