#TITLE:Onwards;
#ARTIST:Vective;
#BANNER:Onwards.png;
#BACKGROUND:Onwards-bg.png;
#MUSIC:Onwards.ogg;
#SAMPLESTART:69.296;
#SAMPLELENGTH:15;
#BPMS:0=142,36=71,68=142;

//---------------dance-single - NewbStepper-bSP----------------
#NOTES:
     dance-single:
     NewbStepper:
     Beginner:
     2:
     :
0000
0000
0000
0000
,
0000
0000
0000
0000
,
0000
0000
0000
0000
,
0000
0000
0000
0000
,
0000
0000
0000
0000
,
0001
0000
0000
0000
,
0001
0000
0000
0000
,
1000
0000
0000
0000
,
1000
0000
0000
0000
,
1001
0000
0000
0000
,
0000
0000
0000
0000
,
0000
0000
0000
0000
,
0000
0000
0000
0000
,
0001
0000
0001
0000
,
1000
0000
1000
0000
,
0010
0000
0010
0000
,
0100
0000
0100
0000
,
0001
0000
0000
0000
,
0001
0000
0000
0000
,
1000
0000
0000
0000
,
1000
0000
0000
0000
,
0100
0000
0000
0000
,
0100
0000
0000
0000
,
0010
0000
0000
0000
,
0010
0000
0000
0000
,
0001
0000
0001
0000
,
1000
0000
1000
0000
,
1001
0000
0000
0000
,
0000
0000
0000
0000
,
0002
0000
0000
0000
0000
0003
0000
0000
,
2000
0000
0000
0000
0000
3000
0000
0000
,
0020
0000
0000
0000
,
0000
0000
0030
0000
,
1000
0000
1000
0000
,
0100
0000
0100
0000
,
0010
0000
0010
0000
,
0001
0000
0001
0000
,
1000
0000
1000
0000
,
0010
0000
0010
0000
,
0100
0000
0100
0000
,
0001
0000
0001
0000
,
2000
0000
3000
0000
,
0002
0000
0003
0000
,
0100
0000
0100
0000
,
0200
0000
0300
0000
,
0002
0000
0003
0000
,
2000
0000
3000
0000
,
0100
0000
0100
0000
,
0200
0000
0300
0000
,
1000
1000
1000
0000
,
0001
0001
0001
0000
,
0100
0100
0100
0000
,
0010
0010
0010
0000
,
1000
1000
1000
0000
,
0001
0001
0001
0000
,
0010
0010
0010
0000
,
1001
0000
0000
0000
;

//---------------dance-single - NewbStepper-BSP----------------
#NOTES:
     dance-single:
     NewbStepper:
     Easy:
     5:
     :
0000
0000
0000
0000
,
0000
0000
0000
0000
,
0000
0000
0000
0000
,
0000
0000
0000
0000
,
0000
0000
0000
0000
,
1000
1000
0001
0001
,
1000
1000
0001
0001
,
0100
0100
0010
0010
,
0100
0000
0000
0000
,
1001
0000
0000
0000
,
0000
0000
0000
0000
,
0001
1000
0001
1000
,
0010
0100
0010
0100
,
0001
0100
1000
0010
,
0001
1001
1000
1001
,
1000
0100
0001
0010
,
1000
1001
0001
1001
,
1000
0100
0000
0100
,
0000
0100
0000
0100
,
0010
0001
0000
0001
,
0000
0001
0000
0001
,
1000
0100
1000
0000
,
0001
0100
0001
0000
,
0100
0010
0100
0010
,
0100
0010
0110
0000
,
1000
1000
1000
1000
,
1000
1000
1000
1000
,
0002
0000
0000
0000
,
0000
0000
0003
0000
,
2002
0000
0000
0000
0000
3003
0000
0000
,
0220
0000
0000
0000
0000
0330
0000
0000
,
2002
0000
0000
0000
,
0000
0000
3003
0000
,
1000
0100
0001
0100
,
1000
0100
0001
0100
,
1000
1000
0001
0001
,
0100
0010
0110
0000
,
0001
0100
1000
0100
,
0001
0100
1000
0100
,
0001
0001
1000
1000
,
0100
0010
0110
0000
,
0001
1000
0001
1000
,
0010
0100
0010
0100
,
0002
0003
2000
3000
,
0020
0030
0100
0001
,
1000
0001
1000
0001
,
0010
0100
0010
0100
,
2000
3000
0002
0003
,
0020
0000
0000
0030
,
0001
0001
0001
0001
,
1000
1000
1000
1000
,
0001
0010
1000
0010
,
0001
0100
1000
0100
,
0001
0100
0010
1000
,
0100
0010
0001
0100
,
1000
0001
0010
1000
,
0200
0000
0000
0000
,
0000
0000
0000
0300
;

//---------------dance-single - NewbStepper-DSP----------------
#NOTES:
     dance-single:
     NewbStepper:
     Medium:
     10:
     :
0000
0000
0000
0000
,
0000
0000
0000
0000
,
0000
0000
0000
0000
,
0000
0000
0000
0000
,
0000
0000
0000
0000
,
0001
0000
0000
0001
0000
0000
0001
0000
1000
0000
0000
1000
0000
0000
1000
0000
,
0010
0000
0000
0010
0000
0000
0010
0000
0000
0000
1000
0000
0000
0001
0000
0000
,
1000
0000
0000
1000
0000
0000
1000
0000
0001
0000
0000
0001
0000
0000
0001
0000
,
0010
0000
0000
0010
0000
0000
0010
0000
1001
0000
0000
0000
0110
0000
0000
0000
,
1001
0000
0000
0000
,
0000
0000
0000
0000
,
1000
0001
1000
0001
1000
0001
1000
0001
,
0010
0100
0010
0100
0010
0100
0010
0100
,
1000
0000
0000
1000
0000
0000
1000
0000
0000
0000
0010
0000
0000
0000
0100
0000
0001
0000
0000
0001
0000
0000
0001
0000
0000
0000
0010
0000
0000
0000
0100
0000
,
1000
1100
0001
0101
0010
0110
0100
1001
,
0001
0000
0000
0001
0000
0000
0001
0000
0000
0000
0010
0000
0000
0000
0100
0000
1000
0000
0000
1000
0000
0000
1000
0000
0000
0000
0010
0000
0000
0000
0100
0000
,
0001
0101
1000
1100
0010
0110
0100
1001
,
0001
0101
1000
1100
,
0001
0011
1000
1010
,
0001
0100
1000
0000
1000
0100
0001
0000
,
0001
0100
1000
0100
0001
0100
0010
0000
,
1000
1100
0001
0101
,
1000
1010
0001
0011
,
1000
0100
0001
0000
0001
0100
1000
0000
,
1000
0100
0001
0100
1000
0100
0010
0000
,
0001
0001
0001
0001
,
1000
1000
1000
1000
,
0001
1000
0000
0001
0000
0000
1000
0000
0001
0000
0100
0000
0001
0000
0100
0000
,
0010
1000
0010
1000
0001
0010
0000
0000
,
0001
0100
0001
0100
0001
0101
0000
0000
,
1000
0100
1000
0100
1000
1100
0000
0000
,
0010
0100
0010
0100
0010
0100
0010
0100
,
0020
0000
0000
0030
,
1001
0000
0001
0100
0010
1000
0100
0000
,
1001
0000
1000
0100
0010
0001
0100
0000
,
1000
0100
0001
0000
0010
0001
1000
0000
,
0100
0010
1000
0010
0001
0100
0010
0000
,
1001
0000
1000
0100
0010
0001
0100
0000
,
1001
0000
0001
0100
0010
1000
0100
0000
,
0001
0100
1000
0000
0010
1000
0001
0000
,
0100
0010
0001
0010
1000
0100
0010
0000
,
0002
0000
0203
0000
1300
0100
0001
0100
,
0020
0000
2030
0000
3100
0010
0001
0100
,
0020
0000
0000
1000
0000
0000
1000
0000
0000
0000
0000
0001
0000
0000
0031
0000
,
0010
0110
1001
0110
,
2000
0000
3200
0000
0301
0100
1000
0100
,
0020
0000
0032
0000
0103
0010
1000
0100
,
0010
0000
0000
0010
0000
0000
0010
0000
0001
0000
0000
0001
0000
0000
0001
0000
,
1000
0000
0000
1000
0000
0000
2000
0000
0000
0000
3002
0000
0000
0000
0103
0000
,
0101
1001
1100
1001
,
0011
1001
1010
1001
,
1000
0100
0010
0100
1000
0100
0001
0100
,
0010
0001
0100
0010
1000
0100
0010
0000
,
0001
0100
0001
0000
0100
1000
0100
0000
,
1000
0010
1000
0000
0010
0001
0010
0000
,
0001
0100
1000
0100
0001
1000
0100
0001
,
0200
0000
0000
0000
,
0000
0000
0000
0300
;

//---------------dance-single - NewbStepper-ESP----------------
#NOTES:
     dance-single:
     NewbStepper:
     Hard:
     12:
     :
0000
0000
0000
0000
,
0000
0000
0000
0000
,
0000
0000
0000
0000
,
0000
0000
0000
0000
,
0000
0000
0000
0000
,
1000
0000
0001
0010
0000
0000
0100
0000
1000
0000
0001
0010
0000
0000
0100
0000
,
1000
0000
0001
0100
0000
0000
0110
0000
0000
0000
0101
0000
0000
1001
0000
0000
,
0001
0000
1000
0010
0000
0000
0100
0000
0001
0000
1000
0010
0000
0000
0100
0000
,
0001
0000
1000
0100
0000
0000
0110
0000
0010
0001
0010
0000
0100
1000
0100
0000
,
0010
0000
0000
0000
,
0000
0000
0000
0000
,
0002
0010
2003
0010
3002
0010
2003
0010
,
3002
0100
2003
0100
3002
0010
2003
0010
,
3001
0100
0000
0001
0000
0000
0020
0000
0000
0000
0100
0000
0000
0000
0031
0000
1000
0100
0000
1000
0000
0000
0020
0000
0000
0000
0100
0000
0000
0000
1030
0000
,
0001
0100
0000
0100
0000
0000
0010
0000
1000
0100
0000
0100
0000
0000
0010
0000
0001
0100
0000
0100
0000
0000
0002
0000
0000
0000
2003
0000
0000
0000
3010
0000
,
1000
0100
0000
1000
0000
0000
0020
0000
0000
0000
0100
0000
0000
0000
1030
0000
0001
0100
0000
0001
0000
0000
0020
0000
0000
0000
0100
0000
0000
0000
0031
0000
,
1000
0001
0000
0010
0000
0000
0100
0000
1000
0001
0000
0010
0000
0000
0100
0000
1000
0001
0000
0010
0000
0000
0002
0000
0000
0000
0203
0000
0000
0000
0310
0000
,
1000
0011
0100
1010
,
0001
1010
0100
0011
,
0010
0001
0000
0001
0000
0000
0100
0000
0010
1000
0000
1000
0000
0000
0100
0000
,
0010
0001
0000
0001
0000
0000
0010
0000
0100
0000
1000
0000
1001
0000
0000
0000
,
0001
0010
0011
0000
0100
0000
1001
0000
,
1000
0010
1010
0000
0100
0000
1001
0000
,
0010
1000
0000
0100
0000
0000
0100
0000
0010
0001
0000
0100
0000
0000
0100
0000
,
0010
1000
0000
0001
0000
0000
0020
0000
0000
0000
0230
0000
0000
0000
1300
0000
,
1001
1000
1000
1000
,
0001
0001
0001
0001
,
0010
0100
0000
0110
0000
0000
0001
0000
1000
0000
1000
0000
1000
0000
1000
0000
,
0001
0001
0001
0001
0100
0100
0000
0000
,
0010
1000
0010
1000
0010
1000
0010
1000
0010
1000
0010
0000
0000
0000
0000
0000
,
0100
0001
0100
0001
0100
0001
0100
0001
0100
0001
0100
0000
0000
0000
0000
0000
,
0001
1000
0001
1000
0001
1000
0001
1000
0001
1000
0001
1000
0001
1000
0001
2000
,
0002
0000
0000
3003
,
0001
0010
0000
1000
0000
0000
0002
0000
0000
0000
0203
0000
0000
0000
0310
0000
,
0001
1000
0000
0010
0000
0000
0002
0000
0000
0000
2003
0000
0000
0000
3100
0000
,
0001
0100
0000
0020
0000
0000
0130
0000
0010
1000
0000
0200
0000
0000
0310
0000
,
0100
1000
0000
0010
0000
0000
0002
0000
0000
0000
2003
0000
0000
0000
3100
0000
,
0001
0100
0000
1000
0000
0000
0002
0000
0000
0000
0023
0000
0000
0000
0130
0000
,
0001
1000
0000
0100
0000
0000
0002
0000
0000
0000
2003
0000
0000
0000
3010
0000
,
0001
1000
0000
0020
0000
0000
0130
0000
0010
1000
0000
0200
0000
0000
0310
0000
,
0001
1000
0000
0100
0000
0000
0002
0000
0000
0000
2003
0000
0000
0000
3010
0000
,
0001
0000
0000
0001
0100
0000
2000
0000
0000
0000
3200
0000
0000
0000
0310
0000
,
1000
0100
0000
0100
0001
0000
2000
0000
0000
0000
3020
0000
0000
0000
0031
0000
,
1001
0000
0000
1100
0000
0000
0022
0000
0033
0000
0000
0101
0000
0000
1010
0000
,
1000
0100
0000
0010
0001
0000
0100
0000
0010
0000
1000
0000
0100
0000
0010
0000
,
0001
0000
0001
0100
0000
0100
0010
0000
1000
0000
0010
0000
0100
0000
0001
0000
,
1000
0000
1000
0100
0000
0100
0010
0000
0001
0000
0010
0000
0100
0000
1000
0000
,
0010
2000
0000
0100
0000
0000
3100
0000
0010
0002
0000
0100
0000
0000
0103
0000
,
0010
2000
0000
0100
0000
0000
3002
0000
0000
0000
0023
0000
0000
0000
0130
0000
,
1000
0000
1000
0001
0000
0001
0010
0000
0001
0000
0010
0000
0100
0000
1000
0000
,
0001
0000
0001
1000
0000
1000
0010
0000
0100
0000
0010
0000
0100
0000
0001
0000
,
0010
0001
0000
0001
0000
0001
0100
0000
0010
1000
0000
1000
0000
1000
0100
0000
,
0010
0001
0000
0001
0100
0000
0010
0000
1000
0000
0100
0000
0010
0000
0001
0000
,
1000
0100
0001
0100
1000
0100
0010
0001
,
0100
1000
0100
0001
0100
0010
1000
0100
,
1000
0001
1000
0001
1000
0001
1000
0001
1000
0001
1000
0001
1000
0001
1000
0001
,
0200
0000
0000
0000
0000
0000
2000
3000
0000
0000
0020
0030
0000
0000
0002
0003
,
0000
0300
0000
0000
0000
0000
0000
0000
;

//---------------dance-double - NewbStepper-BDP----------------
#NOTES:
     dance-double:
     NewbStepper:
     Easy:
     5:
     :
00000000
00000000
00000000
00000000
,
00000000
00000000
00000000
00000000
,
00000000
00000000
00000000
00000000
,
00000000
00000000
00000000
00000000
,
00000000
00000000
00000000
00000000
,
10000000
00000000
00100000
00000000
,
01000000
00000000
00010000
00000000
,
00100000
00000000
00001000
00000000
,
00010000
00000000
00000000
00000000
,
00011000
00000000
00000000
00000000
,
00000000
00000000
00000000
00000000
,
00000001
00000100
00000001
00000100
,
00000010
00001000
00000010
00001000
,
00000001
00000100
00001000
00010000
,
01000000
01100000
00100000
01100000
,
10000000
01000000
00010000
00001000
,
00000100
00000110
00000010
00000110
,
00000001
00001000
00000000
00001000
,
00000000
00001000
00000000
00001000
,
00000100
00010000
00000000
00010000
,
00000000
00010000
00000000
00010000
,
00001000
00100000
00001000
00000000
,
00010000
00000010
00010000
00000000
,
00100000
01000000
00100000
01000000
,
00100000
01000000
01100000
00000000
,
10000000
10000000
00010000
00010000
,
00100000
00100000
00001000
00001000
,
00020000
00000000
00000000
00000000
,
00000000
00000000
00030000
00000000
,
00000200
00000000
00000000
00000000
00000000
00000300
00000000
00000000
,
00002000
00000000
00000000
00000000
00000000
00003000
00000000
00000000
,
00000002
00000000
00000000
00000000
,
00000000
00000000
00000003
00000000
,
00000010
00000001
00000100
00000000
,
00000010
00001000
00000100
00000000
,
00010000
00000000
00001000
00000000
,
00010000
00100000
10000000
00000000
,
00100000
10000000
01000000
00000000
,
00100000
00010000
01000000
00000000
,
00001000
00000000
00010000
00000000
,
00001000
00000010
00000001
00000000
,
00001000
00000001
00001000
00000000
,
00000100
00010000
00000100
00000000
,
00020000
00030000
00002000
00003000
,
00200000
00300000
01000000
10000000
,
00010000
10000000
00010000
00000000
,
01000000
00001000
01000000
00000000
,
00002000
00003000
00020000
00030000
,
00000020
00000000
00000000
00000030
,
00001000
00001000
00000001
00000001
,
00000100
00000100
00000010
00000010
,
00010000
00000100
00001000
00000010
,
00010000
00001000
00000010
00000100
,
00010000
00001000
00100000
00010000
,
10000000
00100000
01000000
00010000
,
10000000
01000000
00010000
00001000
,
00000200
00000000
00000000
00000000
,
00000000
00000000
00000000
00000300
;

//---------------dance-double - NewbStepper-DDP----------------
#NOTES:
     dance-double:
     NewbStepper:
     Medium:
     10:
     :
00000000
00000000
00000000
00000000
,
00000000
00000000
00000000
00000000
,
00000000
00000000
00000000
00000000
,
00000000
00000000
00000000
00000000
,
00000000
00000000
00000000
00000000
,
00000100
00000000
00000000
00000100
00000000
00000000
00000100
00000000
00001000
00000000
00000000
00001000
00000000
00000000
00001000
00000000
,
00000010
00000000
00000000
00000010
00000000
00000000
00000010
00000000
00000000
00000000
00010000
00000000
00000000
00001000
00000000
00000000
,
01000000
00000000
00000000
01000000
00000000
00000000
01000000
00000000
00010000
00000000
00000000
00010000
00000000
00000000
00010000
00000000
,
00100000
00000000
00000000
00100000
00000000
00000000
00100000
00000000
01100000
00000000
00000000
00000000
10010000
00000000
00000000
00000000
,
01100000
00000000
00000000
00000000
,
00000000
00000000
00000000
00000000
,
10000000
01000000
10000000
01000000
10000000
01000000
10000000
01000000
,
00100000
00010000
00100000
00010000
00100000
00010000
00100000
00010000
,
01000000
00000000
00000000
01000000
00000000
00000000
01000000
00000000
00000000
00000000
00001000
00000000
00000000
00000000
00010000
00000000
00000100
00000000
00000000
00000100
00000000
00000000
00000100
00000000
00000000
00000000
00010000
00000000
00000000
00000000
00001000
00000000
,
00000010
00001000
00100000
00001000
00000010
00001000
00010000
00000000
,
00000100
00000000
00000000
00000100
00000000
00000000
00000100
00000000
00000000
00000000
00010000
00000000
00000000
00000000
00001000
00000000
01000000
00000000
00000000
01000000
00000000
00000000
01000000
00000000
00000000
00000000
00001000
00000000
00000000
00000000
00010000
00000000
,
00100000
00010000
00000010
00010000
00100000
00010000
00001000
00000000
,
10000000
01000000
00001000
00000001
,
00000100
00010000
10000000
00100000
,
10000000
01000000
00010000
00000000
00001000
00000100
00000001
00000000
,
00000010
00000001
00000100
00001000
00010000
00000010
00000100
00000000
,
00000001
00000100
00010000
10000000
,
01000000
00001000
00000001
00000010
,
00000001
00000100
00001000
00000000
00010000
01000000
10000000
00000000
,
00100000
10000000
01000000
00010000
00001000
00100000
01000000
00000000
,
00010000
00010000
00010000
00010000
,
00001000
00001000
00001000
00001000
,
00100000
00010000
00000000
00100000
00000000
00000000
00010000
00000000
10000000
00000000
00100000
00000000
10000000
00000000
00100000
00000000
,
01000000
00010000
01000000
00010000
00100000
00001000
00000000
00000000
,
01000000
00001000
01000000
00001000
01000000
01001000
00000000
00000000
,
00000100
00010000
00000100
00010000
00000100
00010100
00000000
00000000
,
00001000
00010000
00001000
00010000
00001000
00010000
00001000
00010000
,
00002000
00000000
00000000
00003000
,
00011000
00000000
00010000
00001000
00000100
00000001
00001000
00000000
,
00001001
00000000
00000001
00001000
00000100
00000010
00000100
00000000
,
00010000
00001000
00000100
00000000
00000010
00001000
00000100
00000000
,
00000010
00001000
00010000
00100000
00010000
00001000
00010000
00000000
,
00011000
00000000
00001000
00010000
01000000
10000000
00010000
00000000
,
10010000
00000000
10000000
00010000
01000000
00100000
01000000
00000000
,
00001000
00010000
01000000
00000000
00100000
00010000
01000000
00000000
,
00100000
00010000
00001000
00000010
00001000
00010000
00001000
00000000
,
00000200
00000000
00000302
00000000
00001003
00000010
00000100
00001000
,
00020000
00000000
00032000
00000000
00103000
00010000
01000000
00100000
,
00020000
00000000
00000000
00001000
00000000
00000000
00001000
00000000
00000000
00000000
00000000
00000010
00000000
00000000
00030010
00000000
,
00010000
00011000
01010000
11000000
,
02000000
00000000
23000000
00000000
30010000
00100000
01000000
00010000
,
00002000
00000000
00023000
00000000
00030010
00001000
00000100
00000010
,
00001000
00000000
00000000
00001000
00000000
00000000
00001000
00000000
00010000
00000000
00000000
00010000
00000000
00000000
00010000
00000000
,
00002000
00000000
00000000
01000000
00000000
01000000
00000000
01003000
,
00010000
10000000
00100000
00001000
,
00000001
00000010
00001000
10000000
,
00100000
10000000
00010000
10000000
01000000
00010000
00001000
00000010
,
00000001
00001000
00000010
00000100
00000001
00000010
00000100
00000000
,
00010000
00001000
00010000
00000000
00100000
00010000
00100000
00000000
,
10000000
00100000
10000000
00000000
01000000
10000000
01000000
00000000
,
10000000
01000000
00100000
00010000
01000000
00100000
00010000
00001000
,
00000200
00000000
00000000
00000000
,
00000000
00000000
00000000
00000300
;

//---------------dance-double - NewbStepper-EDP----------------
#NOTES:
     dance-double:
     NewbStepper:
     Hard:
     13:
     :
00000000
00000000
00000000
00000000
,
00000000
00000000
00000000
00000000
,
00000000
00000000
00000000
00000000
,
00000000
00000000
00000000
00000000
,
00000000
00000000
00000000
00000000
,
00001000
00000000
00100000
00010000
00000000
00000000
01000000
00000000
00001000
00000000
00100000
00010000
00000000
00000000
01000000
00000000
,
00010000
00000000
10000000
01000000
00000000
00000000
00010000
00000000
00000000
00000000
00001000
00000000
00000000
00011000
00000000
00000000
,
00010000
00000000
00000010
00001000
00000000
00000000
00000100
00000000
00010000
00000000
00000010
00001000
00000000
00000000
00000100
00000000
,
00001000
00000000
00000001
00000100
00000000
00000000
00001000
00000000
00010000
00001000
00100000
00000000
00001000
00010000
00000010
00000000
,
00000100
00000000
00000000
00000000
,
00000000
00000000
00000000
00000000
,
00000001
00000100
00000001
00000100
00000010
00001000
00000010
00001000
,
00010000
01000000
00010000
01000000
00100000
10000000
00100000
10000000
,
01000000
10000000
00000000
01000000
00000000
00000000
00200000
00000000
00000000
00000000
01000000
00000000
00000000
00000000
00301000
00000000
00010000
00001000
00000000
00010000
00000000
00000000
00000020
00000000
00000000
00000000
00001000
00000000
00000000
00000000
00010030
00000000
,
00000100
00001000
00000000
00001000
00000000
00000000
00000010
00000000
00000100
00000001
00000000
00000001
00000000
00000000
00000010
00000000
00000100
00001000
00000000
00001000
00000000
00000000
00000002
00000000
00000000
00000000
00002003
00000000
00000000
00000000
00003010
00000000
,
00000100
00000001
00000000
00000100
00000000
00000000
00000020
00000000
00000000
00000000
00000100
00000000
00000000
00000000
00010030
00000000
00001000
00010000
00000000
00001000
00000000
00000000
00200000
00000000
00000000
00000000
00010000
00000000
00000000
00000000
00301000
00000000
,
01000000
00010000
00000000
10000000
00000000
00000000
00100000
00000000
01000000
00010000
00000000
10000000
00000000
00000000
00100000
00000000
01000000
00010000
00000000
10000000
00000000
00000000
00200000
00000000
00000000
00000000
00320000
00000000
00000000
00000000
00031000
00000000
,
00000010
00000100
00000110
00000000
00000001
00000000
00001001
00000000
,
00010000
00001000
00011000
00000000
00100000
00000000
01100000
00000000
,
10000000
00100000
00000000
10000000
00000000
00000000
01000000
00000000
00010000
00001000
00000000
00010000
00000000
00000000
00000010
00000000
,
00000100
00000001
00000000
00000100
00000010
00000000
00001000
00000000
00010000
00000000
01000000
00000000
00100000
00000000
10000000
00000000
,
00100000
01000000
01100000
00000000
10000000
00000000
10010000
00000000
,
00001000
00010000
00011000
00000000
00000010
00000000
00000110
00000000
,
00000001
00000010
00000000
00000001
00000000
00000000
00000100
00000000
00001000
00010000
00000000
00001000
00000000
00000000
00100000
00000000
,
01000000
10000000
00000000
01000000
00100000
00000000
00010000
00000000
00001000
00000000
00000100
00000000
00000010
00000000
00000001
00000000
,
00001000
00001000
00001000
00001000
,
00000001
00000001
00000001
00000001
,
00000100
00000010
00000000
00001000
00000000
00000000
00000100
00000000
00010000
00000000
00010000
00000000
00010000
00000000
00010000
00000000
,
00001000
00001000
00001000
00001000
00100000
00100000
00000000
00000000
,
01000000
10000000
01000000
10000000
01000000
10000000
01000000
10000000
01000000
10000000
01000000
00000000
00000000
00000000
00000000
00000000
,
00010000
00001000
00010000
00001000
00010000
00001000
00010000
00001000
00010000
00001000
00010000
00000000
00000000
00000000
00000000
00000000
,
00000010
00001000
00000010
00001000
00000010
00001000
00000010
00001000
00000010
00001000
00000010
00001000
00000010
00001000
00000010
00002000
,
00000020
00000000
00000000
00003030
,
00010000
00001000
00000000
00000100
00000000
00000000
00000020
00000000
00000000
00000000
00002030
00000000
00000000
00000000
00003001
00000000
,
00000100
00000010
00000000
00001000
00000000
00000000
00000002
00000000
00000000
00000000
00000023
00000000
00000000
00000000
00001030
00000000
,
00010000
00001000
00000000
00200000
00000000
00000000
00301000
00000000
01000000
00010000
00000000
00200000
00000000
00000000
00301000
00000000
,
01000000
00010000
00000000
00100000
00000000
00010000
20000000
00000000
00000000
00000000
32000000
00000000
00000000
00000000
03100000
00000000
,
00001000
00010000
00000000
01000000
00000000
00000000
00200000
00000000
00000000
00000000
00320000
00000000
00000000
00000000
10030000
00000000
,
01000000
00100000
00000000
00010000
00000000
00000000
20000000
00000000
00000000
00000000
30200000
00000000
00000000
00000000
00310000
00000000
,
00001000
00010000
00000000
00000020
00000000
00000000
00010030
00000000
00000100
00001000
00000000
00000020
00000000
00000000
00001030
00000000
,
00000100
00001000
00000000
00000010
00000000
00001000
00000002
00000000
00000000
00000000
00000203
00000000
00000000
00000000
00000310
00000000
,
00001000
00000001
00000000
00000100
00000000
00000000
00002000
00000000
00000000
00000000
00023000
00000000
00000000
00000000
00130000
00000000
,
10000000
01000000
00000000
00010000
00000000
00000000
00002000
00000000
00000000
00000000
00003020
00000000
00000000
00000000
00000031
00000000
,
00000100
00000000
00000000
00001100
00000000
00000000
00022000
00000000
00033000
00000000
00000000
01010000
00000000
00000000
00011000
00000000
,
00001000
00100000
00000000
00001000
00010000
00000000
00100000
00000000
10000000
00000000
01000000
00000000
00100000
00000000
00010000
00000000
,
01000000
00001000
00000000
00001000
00010000
00000000
00010000
00000200
00000000
00000000
00000301
00000000
00000100
00000000
00001000
00000000
,
00000100
00010000
00000000
00010000
00001000
00000000
00001000
02000000
00000000
00000000
13000000
00000000
01000000
00000000
00010000
00000000
,
01000000
00002000
00000000
00010000
00000000
00000000
00013000
00000000
00000100
00020000
00000000
00001000
00000000
00000000
00031000
00000000
,
01000000
00002000
00000000
00010000
00000000
00000000
00003020
00000000
00000000
00000000
00000032
00000000
00000000
00000000
00001003
00000000
,
00000001
00001000
00000001
00000100
00000000
00000100
00000010
00000000
00001000
00000000
00010000
00000000
01000000
00000000
00100000
00000000
,
10000000
00010000
10000000
01000000
00000000
01000000
00100000
00000000
00010000
00000000
00001000
00000000
00000100
00000000
00000010
00000000
,
00000001
00000100
00000000
00010000
00000000
00000100
00001000
00000000
00010000
00001000
00000000
00000010
00000000
00001000
00100000
00000000
,
01000000
00010000
00000000
00000100
00000000
00010000
00001000
00000000
00100000
00000000
10000000
00000000
00100000
00000000
00010000
00000000
,
10000000
01000000
00010000
01000000
00100000
00001000
00000010
00000100
,
00010000
00000010
00001000
00010000
00001000
00000010
00000100
00000001
,
00000010
00000100
00000010
00000100
00000010
00000100
00000010
00000100
00000010
00000100
00000010
00000100
00000010
00000100
00000010
00000100
,
00000020
00000000
00000000
00002030
00000000
00023000
00000000
00230000
,
00000000
00000000
00000000
00300000
;
