#TITLE:鬼天;
#ARTIST:兎々;
#TITLETRANSLIT:Onigami;
#ARTISTTRANSLIT:Usagi;
#BANNER:Onigami.png;
#BACKGROUND:Onigami-bg.png;
#MUSIC:Onigami.ogg;
#OFFSET:0.661;
#SAMPLESTART:73.869316;
#SAMPLELENGTH:15;
#BPMS:0=161;
#STOPS:36=2.6087;

//---------------dance-single - NewbStepper-ESP----------------
#NOTES:
     dance-single:
     NewbStepper:
     Hard:
     16:
     0.746200,0.918148,0.236630,0.297979,0.863263,596,569,27,34,0,0,0.746200,0.918148,0.236630,0.297979,0.863263,596,569,27,34,0,0:
// measure 0
0000
0000
0000
0000
,  // measure 1
0000
0000
0000
0000
,  // measure 2
0000
0000
0000
0000
,  // measure 3
0000
0000
0000
0000
,  // measure 4
0000
0000
0000
0000
,  // measure 5
0102
0000
0000
0020
0003
0000
0100
0000
,  // measure 6
2030
3020
0032
0203
,  // measure 7
0310
1000
0100
0001
1000
0010
0001
0100
,  // measure 8
0001
0100
0010
1000
0100
0010
0001
0100
0010
1000
0100
0010
0001
0100
0010
1000
,  // measure 9
0002
0003
0000
0000
0000
0000
0000
0000
0000
0000
0000
0000
0000
0000
0000
0000
0100
0000
0000
0000
0000
0000
0000
0000
0000
0000
0000
0000
1010
0000
0000
0000
0000
0000
0000
0000
0000
0000
0000
0000
0010
0000
0000
0000
0100
0000
0000
0000
0010
0000
0000
0000
0000
0000
0000
0000
0000
0000
0000
0000
0101
0000
0000
0000
,  // measure 10
0000
0000
0010
0001
1000
0000
0000
1100
0000
0000
0010
0000
0001
0100
0010
1000
,  // measure 11
0001
0010
0100
1000
0010
0000
0000
0101
0000
0000
0100
0010
0100
0000
0000
1010
,  // measure 12
0000
0000
0100
1000
0001
0000
0000
0011
0000
0000
0100
0000
1000
0001
0010
0100
,  // measure 13
1000
0010
0100
0001
0100
0000
0000
0011
0000
0000
0010
0100
0010
0000
0000
1100
,  // measure 14
0000
0000
0010
1000
0001
0000
0000
0101
0000
0000
0010
0000
1000
0100
0010
0001
,  // measure 15
1000
0010
0100
0001
0010
0000
0000
1100
0000
0000
0100
0010
0100
0000
0000
0011
,  // measure 16
0000
0000
0100
0000
0001
0100
0001
0000
1000
0100
1000
0000
0010
0100
0010
0100
,  // measure 17
0001
0100
0001
0100
0010
0000
1000
0001
1000
0000
0001
0100
0001
0000
0100
0000
,  // measure 18
0010
0000
1000
0000
0001
0000
0000
0010
0001
0000
0000
0010
1000
0000
0010
0001
,  // measure 19
0100
0000
0001
0000
0010
0000
0001
1000
0001
0000
1000
0100
1000
0000
0100
0000
,  // measure 20
0010
0000
0001
0000
1000
0000
0000
0100
0001
0000
0000
0100
1000
0000
0010
0100
,  // measure 21
0001
0000
0010
0000
0001
0000
0000
0100
0001
0000
1000
0000
0100
0000
0001
0100
,  // measure 22
0001
0000
0100
0000
1000
0000
0000
0100
1000
0000
0001
0000
0100
0000
0010
1000
,  // measure 23
0010
1000
0100
0000
0020
0000
0030
0001
0200
0000
0300
0010
2000
0000
3000
0100
,  // measure 24
0002
0000
0003
0100
1000
0000
0010
1000
0020
0000
0000
0000
0001
0000
0000
0000
,  // measure 25
1030
0000
0000
0000
0001
0000
0100
0001
0100
0000
0010
1000
0010
0000
1000
0000
,  // measure 26
0100
0000
0001
0000
0100
0000
0000
0100
1000
0000
0000
1000
0010
0000
1000
0010
,  // measure 27
0100
0000
0001
0000
1000
0000
0100
1000
0100
0000
0010
0001
0010
0000
0001
0000
,  // measure 28
0100
0000
1000
0000
0100
0000
0000
0100
0001
0000
0000
0001
0010
0000
0001
0010
,  // measure 29
0100
0000
1000
0000
0001
0000
0000
0001
0100
0000
1000
0000
0100
0000
0100
0010
,  // measure 30
0100
0000
0001
0000
1000
0000
0000
1000
0100
0000
0001
0000
0100
0010
0001
1000
,  // measure 31
0010
0000
1000
0000
0002
0000
0003
0010
0100
0000
0010
0001
1000
0000
0010
0000
,  // measure 32
0100
0000
0001
0000
0010
0000
0001
0100
0010
0000
1000
0100
0010
0000
0001
0100
,  // measure 33
0020
0000
0000
0000
1000
0000
0000
1000
0000
0000
0130
0001
0200
0000
0000
0010
,  // measure 34
0000
0000
0310
1000
0200
0000
0000
0001
0000
0000
0310
0000
0001
0100
0001
0000
,  // measure 35
1000
0100
1000
0000
1010
0000
0000
0110
0000
0000
0101
0000
0011
0000
0000
0110
,  // measure 36
0000
0000
1100
0000
1001
0000
0000
1001
0000
0000
0100
0000
0001
0100
0010
1000
,  // measure 37
0100
0010
0001
1000
0010
0000
0000
1010
0000
0000
0010
0100
0010
0000
0000
0101
,  // measure 38
0000
0000
0010
0001
1000
0000
0000
1100
0000
0000
0010
0000
0001
0100
0010
1000
,  // measure 39
0001
0010
0100
1000
0010
0000
0000
1010
0000
0000
1000
0001
0100
0000
0000
0101
,  // measure 40
0000
0000
0010
1000
0001
1000
0010
0100
0001
1000
0100
0010
0001
0100
1000
0100
,  // measure 41
0001
0010
0100
1000
0020
0000
0000
0000
0000
0000
0001
0000
0000
0000
0000
0000
,  // measure 42
1000
0230
0000
1000
,  // measure 43
0302
0000
0023
0000
0000
1000
0000
0000
,  // measure 44
0001
0200
0000
0000
,  // measure 45
0330
0000
2100
0000
0000
3020
0000
0000
,  // measure 46
0100
0032
0023
2030
,  // measure 47
3200
0000
0000
0000
1300
0100
1000
0001
0100
0010
1000
0100
0001
0100
1000
0010
,  // measure 48
0100
0001
0010
0100
1000
0000
0000
0011
0000
0000
0001
0000
1000
0010
0100
0001
,  // measure 49
2000
0000
0000
0000
3001
0000
0000
0001
0100
0000
0000
0100
1000
0000
0000
1000
,  // measure 50
0100
0000
0000
0100
0010
0000
0000
0010
1000
0000
0010
1000
0001
0010
0100
1000
,  // measure 51
0001
0000
1000
0001
1000
0000
0000
1000
0010
0000
0000
0010
0100
0000
0000
0100
,  // measure 52
0001
0000
0000
0001
1000
0000
0000
1000
0001
0000
0000
0001
1000
0010
0100
0001
,  // measure 53
0010
0100
1000
0010
0100
0000
0000
0100
0001
0000
0000
0001
0010
0000
0000
0010
,  // measure 54
1000
0000
0000
1000
0010
0000
0000
0010
0001
0000
0000
0001
0100
0000
0000
0100
,  // measure 55
0010
0000
0000
0010
1000
0000
0001
0100
0001
0000
1000
0100
1000
0000
0001
0100
,  // measure 56
0010
1000
0100
0010
0001
0100
0020
0000
,  // measure 57
1030
0100
1000
0100
0010
0000
0001
0100
0010
0000
1000
0100
0010
0000
0001
0100
,  // measure 58
0001
0000
1000
0100
1000
0000
0010
1000
0001
0000
0010
0001
1000
0000
0010
1000
,  // measure 59
0001
0010
0100
1000
0010
0000
1000
0100
0010
0000
0001
0100
1000
0000
0100
0010
,  // measure 60
1000
0000
0100
0010
0001
0000
0100
0001
1000
0000
0100
1000
0001
0000
1000
0100
,  // measure 61
0001
0000
0100
0000
1000
0000
0010
1000
0100
0000
0010
0001
0100
0000
0010
1000
,  // measure 62
0010
0100
0001
1000
0010
0000
1000
0100
0001
0000
0100
1000
0010
0000
0100
0001
,  // measure 63
1000
0100
0010
0001
0100
0000
0010
1000
0001
0100
0001
1000
0100
0010
0001
0100
,  // measure 64
0010
1000
0001
0100
2000
0000
0000
0000
0000
0000
0000
0000
3200
0000
0000
0000
,  // measure 65
0000
0302
0010
1000
,  // measure 66
0100
0000
0013
0001
0100
0010
1000
0100
,  // measure 67
0001
0100
2000
0000
0010
0000
0001
0000
,  // measure 68
0100
0000
3010
1000
0100
0010
0001
0100
,  // measure 69
0010
1000
0001
0100
0020
0000
0000
0000
0000
0000
0000
0000
0000
0000
0000
0000
,  // measure 70
0000
0000
0000
0000
,  // measure 71
0000
0000
0000
0000
,  // measure 72
0000
0030
0000
0000
;

//---------------dance-single - NewbStepper-DSP----------------
#NOTES:
     dance-single:
     NewbStepper:
     Medium:
     11:
     0.464497,0.538225,0.140225,0.438204,0.210338,371,355,16,50,0,0,0.464497,0.538225,0.140225,0.438204,0.210338,371,355,16,50,0,0:
// measure 0
0000
0000
0000
0000
,  // measure 1
0000
0000
0000
0000
,  // measure 2
0000
0000
0000
0000
,  // measure 3
0000
0000
0000
0000
,  // measure 4
0000
0000
0000
0000
,  // measure 5
1010
0000
0000
2000
0000
0000
3001
0000
,  // measure 6
0100
0010
1000
0001
,  // measure 7
0011
0000
0000
0002
0000
0000
1003
0000
,  // measure 8
0100
0010
0001
0100
1000
0100
0001
0010
,  // measure 9
0220
0330
0000
0000
0000
0000
0000
0000
0000
0000
0000
0000
0000
0000
0000
0000
1000
0000
0000
0000
0000
0000
0000
0000
0000
0000
0000
0000
0100
0000
0000
0000
0000
0000
0000
0000
0000
0000
0000
0000
0010
0000
0000
0000
0000
0000
0000
0000
0001
0000
0000
0000
0000
0000
0000
0000
0000
0000
0000
0000
0100
0000
0000
0000
,  // measure 10
0000
0000
0010
0000
1000
0000
0000
0100
0000
0000
0001
0000
0200
0000
0000
0000
,  // measure 11
0320
0000
0000
0000
0031
0000
0000
0001
0000
0000
0001
0000
0100
0000
0000
0100
,  // measure 12
0000
0000
0100
0000
0010
0000
0000
0010
0000
0000
0010
0000
1000
0000
0100
0000
,  // measure 13
0010
0000
0001
0000
0100
0000
0000
0100
0000
0000
1000
0000
0100
0000
0000
0100
,  // measure 14
0000
0000
0001
0000
0100
0000
0000
0100
0000
0000
0010
0000
2000
0000
0000
0000
,  // measure 15
3002
0000
0000
0000
0013
0000
0000
0011
0000
0000
0001
0000
1000
0000
0000
1010
,  // measure 16
0000
0010
0200
0000
0302
0000
0023
0000
,  // measure 17
0130
1000
0001
0100
1000
0100
0001
0010
,  // measure 18
0100
0000
1000
0010
0100
0001
1000
0001
,  // measure 19
0010
0000
0100
1000
0001
0100
1000
0100
,  // measure 20
0001
0000
0100
0010
1000
0100
0010
0001
,  // measure 21
1000
0000
0002
0000
0203
0000
0310
1000
,  // measure 22
0100
0000
2000
0000
3200
0000
0310
0001
,  // measure 23
0100
1000
0100
0010
0020
0000
1030
0000
,  // measure 24
1001
0000
0100
0001
0011
0000
1100
0000
,  // measure 25
0110
0000
1000
0100
0001
0100
1000
0001
,  // measure 26
0100
0010
1000
0001
0100
1000
0100
0001
,  // measure 27
1000
0000
0001
0100
1000
0100
0001
1000
,  // measure 28
0100
0010
0001
1000
0100
0001
0100
1000
,  // measure 29
0001
0000
0000
0000
0100
0000
0000
0100
0010
0000
0000
0010
1000
0000
0100
0000
,  // measure 30
0001
0000
0000
0000
0100
0000
0000
0100
0010
0000
0000
0010
0001
0000
0100
0000
,  // measure 31
1000
0000
0000
0000
0100
0000
0000
0100
0001
0000
0000
0001
0010
0000
0000
0010
,  // measure 32
0100
1000
0002
0000
0203
0000
2300
0000
,  // measure 33
3020
0032
0000
0100
,  // measure 34
0100
2003
0000
0010
,  // measure 35
0010
0000
0000
0000
3001
0000
0000
0001
0000
0000
0001
0000
0100
0000
0000
0100
,  // measure 36
0000
0000
0100
0000
0010
0000
0000
0010
0000
0000
0010
0000
2000
0000
0000
0000
,  // measure 37
3002
0000
0000
0000
1003
0000
0000
1100
0000
0000
0010
0000
0001
0000
0000
0101
,  // measure 38
0000
0000
0010
0000
1000
0000
0000
1001
0000
0000
0100
0000
0002
0000
0000
0000
,  // measure 39
0023
0000
0000
0000
0130
0000
0000
0100
0000
0000
1000
0000
0001
0000
0000
0001
,  // measure 40
0000
0100
0010
1000
0100
0010
0001
0100
,  // measure 41
0010
1000
0002
0000
0000
0000
0100
0000
,  // measure 42
0000
0100
0000
0203
,  // measure 43
0320
2030
0000
0100
,  // measure 44
0000
0100
0000
3200
,  // measure 45
0320
0000
0032
0000
0000
1000
0000
0000
,  // measure 46
0203
0320
2030
3200
,  // measure 47
0320
0000
0031
0100
1000
0100
0001
0100
,  // measure 48
1000
0000
0100
0000
0001
0000
0000
0010
0000
0000
0100
0000
1000
0000
0000
0000
,  // measure 49
1001
0000
0010
0000
0001
0000
0100
0010
,  // measure 50
1000
0010
0100
0000
0010
0000
1000
0100
,  // measure 51
0010
0001
0200
0000
0010
0000
1000
0000
,  // measure 52
0010
0000
0301
0100
0010
1000
0100
0001
,  // measure 53
0100
1000
0010
0000
1000
0000
0100
0010
,  // measure 54
0001
0010
0100
0000
0010
0000
0001
0100
,  // measure 55
0010
1000
0200
0000
0010
0000
0001
0000
,  // measure 56
0010
0000
1300
0001
0100
0000
0010
0000
,  // measure 57
1001
0000
0000
0000
1000
0000
0000
1000
0100
0000
0000
0100
0010
0000
0000
0010
,  // measure 58
0001
0000
0000
0001
0100
0000
0000
0100
1000
0000
0000
1000
0100
0000
0000
0100
,  // measure 59
0001
0000
0000
0001
0010
0000
0000
0010
0001
0000
0000
0001
0100
0000
0000
0100
,  // measure 60
0010
0000
0000
0010
1000
0000
0000
1000
0100
0000
0000
0100
0010
0000
0000
0010
,  // measure 61
0001
0000
0000
0001
0200
0000
0000
0000
1000
0000
0000
0000
0301
0000
0000
0001
,  // measure 62
0020
1000
0001
0130
,  // measure 63
0110
0000
0000
0000
0001
0000
0000
0001
1000
0000
0000
1000
0100
0000
0000
0100
,  // measure 64
0010
0000
0000
0010
0002
0000
0000
0000
0000
0000
0000
0000
2003
0000
0000
0000
,  // measure 65
0000
3020
1000
0100
,  // measure 66
1030
0200
0001
0010
,  // measure 67
0301
0020
1000
0100
,  // measure 68
1030
0200
0001
0010
,  // measure 69
0301
2002
0000
0000
,  // measure 70
0000
0000
0000
0000
,  // measure 71
0000
0000
0000
0000
,  // measure 72
0000
3003
0000
0000
;

//---------------dance-single - NewbStepper-BSP----------------
#NOTES:
     dance-single:
     NewbStepper:
     Easy:
     8:
     0.344303,0.474904,0.157754,0.341799,0,275,257,18,39,0,0,0.344303,0.474904,0.157754,0.341799,0,275,257,18,39,0,0:
// measure 0
0000
0000
0000
0000
,  // measure 1
0000
0000
0000
0000
,  // measure 2
0000
0000
0000
0000
,  // measure 3
0000
0000
0000
0000
,  // measure 4
0000
0000
0000
0000
,  // measure 5
0022
0000
0000
0000
,  // measure 6
0030
0000
2000
0003
,  // measure 7
0200
0000
0000
3300
,  // measure 8
2002
0000
0000
0000
,  // measure 9
3003
0000
0010
0000
0001
0100
0001
0000
,  // measure 10
1000
0100
1000
0000
0010
0000
0100
0000
,  // measure 11
0001
0000
0100
0000
0001
0010
0001
0000
,  // measure 12
1000
0010
1000
0000
0100
0000
2002
0000
,  // measure 13
3003
0000
0010
0000
1000
0100
1000
0000
,  // measure 14
0001
0100
0001
0000
0010
0000
0100
0000
,  // measure 15
1000
0100
1010
0100
,  // measure 16
0011
0000
1000
0100
1000
0001
1000
0010
,  // measure 17
1000
0100
0100
0100
,  // measure 18
1000
0100
0001
0000
0001
0100
1000
0000
,  // measure 19
0010
0100
0100
0100
,  // measure 20
0001
0100
1000
0000
1000
0100
0001
0000
,  // measure 21
0010
0000
0001
0000
1000
0100
0010
0000
,  // measure 22
0001
0000
1000
0000
0001
0100
0010
0000
,  // measure 23
1000
0100
1010
0100
,  // measure 24
0011
0100
2000
3002
,  // measure 25
0203
0310
0010
0010
,  // measure 26
1000
0010
0001
0000
0001
0010
1000
0000
,  // measure 27
0100
0010
0010
0010
,  // measure 28
0001
0010
1000
0000
1000
0010
0001
0000
,  // measure 29
0100
0000
0001
0000
1000
0010
0100
0000
,  // measure 30
0001
0000
1000
0000
0001
0010
0100
0000
,  // measure 31
1000
0010
1100
0010
,  // measure 32
0101
0010
2000
3002
,  // measure 33
0203
0000
0310
0000
1000
0100
1000
0000
,  // measure 34
0001
0100
0001
0000
0010
0000
0100
0000
,  // measure 35
1000
0000
0100
0000
1000
0010
1000
0000
,  // measure 36
0001
0010
0001
0000
0100
0000
2002
0000
,  // measure 37
3003
0000
0010
0000
0001
0100
0001
0000
,  // measure 38
1000
0100
1000
0000
0010
0000
0100
0000
,  // measure 39
0001
0100
0011
0100
,  // measure 40
1010
0000
0001
0100
0001
1000
0001
0010
,  // measure 41
0001
0202
0000
0000
,  // measure 42
0000
0003
0000
0320
,  // measure 43
0000
2000
0000
0030
,  // measure 44
0000
0200
0000
3000
,  // measure 45
0000
0301
0100
1000
,  // measure 46
0010
0001
0010
1000
,  // measure 47
0100
0000
0010
0001
0010
0000
0100
1000
,  // measure 48
0100
0110
0000
0000
,  // measure 49
0000
0000
0001
0000
1000
0010
1000
0000
,  // measure 50
0001
0000
0010
0000
0100
1000
0100
0000
,  // measure 51
0010
0002
0100
2003
,  // measure 52
0100
3020
1000
0001
,  // measure 53
0100
0000
1030
0000
0001
0010
0001
0000
,  // measure 54
1000
0000
0010
0000
0100
0001
0100
0000
,  // measure 55
0010
2000
0100
3002
,  // measure 56
0100
0023
0000
0130
,  // measure 57
1001
0000
1000
0000
0001
0000
0100
0010
,  // measure 58
1000
0000
0010
0000
0100
0000
0001
0010
,  // measure 59
0100
2000
3100
0002
,  // measure 60
0103
2000
3020
0230
,  // measure 61
0302
0000
0013
0000
0001
0100
0010
0000
,  // measure 62
1000
0100
0010
0000
0001
0000
0100
0000
,  // measure 63
1000
0020
0001
1000
,  // measure 64
0031
0200
0000
0310
,  // measure 65
0000
2001
0000
0010
,  // measure 66
0000
0001
0000
3010
,  // measure 67
0000
1002
0000
0010
,  // measure 68
0000
1000
0000
0013
,  // measure 69
0000
0220
0000
0000
,  // measure 70
0000
0000
0000
0000
,  // measure 71
0000
0000
0000
0000
,  // measure 72
0000
0330
0000
0000
;

//---------------dance-single - NewbStepper-bSP----------------
#NOTES:
     dance-single:
     NewbStepper:
     Beginner:
     3:
     0.136469,0.221622,0.026292,0.262923,0,109,106,3,30,0,0,0.136469,0.221622,0.026292,0.262923,0,109,106,3,30,0,0:
// measure 0
0000
0000
0000
0000
,  // measure 1
0000
0000
0000
0000
,  // measure 2
0000
0000
0000
0000
,  // measure 3
0000
0000
0000
0000
,  // measure 4
0000
0000
0000
0000
,  // measure 5
2000
0000
0000
0000
,  // measure 6
0000
0000
0000
3000
,  // measure 7
0002
0000
0000
0003
,  // measure 8
0200
0000
0000
0300
,  // measure 9
0000
0010
0000
1000
,  // measure 10
1000
1000
0000
0100
,  // measure 11
0000
0010
0000
0001
,  // measure 12
0001
0001
0000
0100
,  // measure 13
0000
0010
0000
1000
,  // measure 14
0000
0100
0100
0100
,  // measure 15
0000
0010
0000
0001
,  // measure 16
0000
0100
0100
0010
,  // measure 17
0010
1000
0000
0100
,  // measure 18
0000
2000
0000
3000
,  // measure 19
0000
0001
0000
0100
,  // measure 20
0000
0002
0000
0003
,  // measure 21
0000
0100
0000
0100
,  // measure 22
0000
0010
0000
0010
,  // measure 23
0000
2002
0000
0000
,  // measure 24
0000
0000
0000
3003
,  // measure 25
0000
1000
0000
0100
,  // measure 26
0000
2000
0000
3000
,  // measure 27
0000
0001
0000
0100
,  // measure 28
0000
0002
0000
0003
,  // measure 29
0000
0100
0000
0100
,  // measure 30
0000
0010
0000
0010
,  // measure 31
0000
1000
0000
1000
,  // measure 32
0000
0001
0001
0001
,  // measure 33
0001
2000
0000
0000
,  // measure 34
3000
0200
0000
0000
,  // measure 35
0300
0002
0000
0000
,  // measure 36
0003
0020
0000
0000
,  // measure 37
0030
2000
0000
0000
,  // measure 38
3000
0200
0000
0000
,  // measure 39
0300
0002
0000
0000
,  // measure 40
0003
0020
0000
0000
,  // measure 41
0030
2000
0000
0000
,  // measure 42
0000
0000
0000
0000
,  // measure 43
3000
0002
0000
0000
,  // measure 44
0003
0200
0000
0000
,  // measure 45
0300
0002
0000
0000
,  // measure 46
0000
0000
0000
0000
,  // measure 47
0003
2000
0000
0000
,  // measure 48
3000
1001
0000
0000
,  // measure 49
0000
0010
0000
0010
,  // measure 50
0000
1000
0000
1000
,  // measure 51
0000
0100
0100
0100
,  // measure 52
0100
0020
0000
0030
,  // measure 53
0001
0010
0000
0010
,  // measure 54
0000
0001
0000
0001
,  // measure 55
0000
0100
0100
0100
,  // measure 56
0100
0020
0000
0130
,  // measure 57
0000
1000
1000
1000
,  // measure 58
0000
0001
0001
0001
,  // measure 59
0000
1000
0000
0100
,  // measure 60
0000
0001
0000
0100
,  // measure 61
0000
1000
0000
0001
,  // measure 62
0000
0010
0010
0100
,  // measure 63
0100
2000
0000
0000
,  // measure 64
3000
0002
0000
0000
,  // measure 65
0003
0200
0000
0000
,  // measure 66
0000
0000
0000
0300
,  // measure 67
0000
0020
0000
0000
,  // measure 68
0000
0000
0000
0030
,  // measure 69
0000
2002
0000
0000
,  // measure 70
0000
0000
0000
0000
,  // measure 71
0000
0000
0000
0000
,  // measure 72
0000
3003
0000
0000
;

//---------------dance-double - NewbStepper-EDP----------------
#NOTES:
     dance-double:
     NewbStepper:
     Hard:
     16:
     0.718655,0.918148,0.184046,0.271687,0.828206,574,553,21,31,0,0,0.718655,0.918148,0.184046,0.271687,0.828206,574,553,21,31,0,0:
00000000
00000000
00000000
00000000
,
00000000
00000000
00000000
00000000
,
00000000
00000000
00000000
00000000
,
00000000
00000000
00000000
00000000
,
00000000
00000000
00000000
00000000
,
00000102
00000000
00000000
00000020
00000003
00000000
00000100
00000000
,
00002030
00023000
00230000
20300000
,
30100000
10000000
01000000
00010000
00001000
00000010
00000001
00001000
,
00000100
00001000
00000100
00001000
00000001
00000100
00000001
00000100
00000010
00001000
00000010
00001000
00000100
00010000
00000100
00010000
,
00002000
00003000
00000000
00000000
00000000
00000000
00000000
00000000
00000000
00000000
00000000
00000000
00000000
00000000
00000000
00000000
00100000
00000000
00000000
00000000
00000000
00000000
00000000
00000000
00000000
00000000
00000000
00000000
00100000
00000000
00000000
00000000
00000000
00000000
00000000
00000000
00000000
00000000
00000000
00000000
00010000
00000000
00000000
00000000
01000000
00000000
00000000
00000000
00010000
00000000
00000000
00000000
00000000
00000000
00000000
00000000
00000000
00000000
00000000
00000000
10000000
00000000
00000000
00000000
,
00000000
00000000
01000000
00100000
00010000
00000000
00000000
00010000
00000000
00000000
00001000
00000000
00000100
00000010
00000100
00000000
,
00001000
00000001
00001000
00000000
00000100
00000000
00000000
00000100
00000000
00000000
00001000
00000010
00001000
00000000
00000000
00000100
,
00000000
00000000
00010000
00001000
00100000
00000000
00000000
00010000
00000000
00000000
10000000
00000000
01000000
00100000
00010000
00100000
,
00001000
00010000
00000010
00000100
00000010
00000000
00000000
00000010
00000000
00000000
00001000
00000100
00001000
00000000
00000000
00000001
,
00000000
00000000
00000100
00000010
00001000
00000000
00000000
00001000
00000000
00000000
00010000
00000000
01000000
00100000
01000000
00000000
,
00010000
10000000
00010000
00000000
01000000
00000000
00000000
01000000
00000000
00000000
00010000
00100000
00010000
00000000
00000000
10000000
,
00000000
00000000
00010000
00100000
00001000
00100000
00001000
00000000
00010000
00000100
00010000
00000000
00000010
00001000
00000010
00000000
,
00000100
00000001
00000100
00000000
00000010
00000000
00001000
00000001
00001000
00000000
00000001
00000100
00000001
00000000
00000100
00000000
,
00001000
00000000
00010000
00000000
01000000
00000000
00000000
10000000
00100000
00000000
00000000
01000000
00010000
00000000
10000000
00100000
,
01000000
00000000
00010000
00000000
00100000
00000000
00010000
01000000
00010000
00000000
10000000
01000000
10000000
00000000
01000000
00000000
,
00010000
00000000
00001000
00000000
00000100
00000000
00000000
00000001
00000010
00000000
00000000
00000100
00001000
00000000
00000001
00001000
,
00000010
00000000
00010000
00000000
00011000
00000000
00000000
00001000
00000100
00000000
00000000
00000100
00000001
00000000
00000001
00000010
,
00001000
00000000
00010000
00000000
00011000
00000000
00000000
00010000
01000000
00000000
00000000
01000000
10000000
00000000
10000000
00100000
,
00010000
00001000
00000010
00001000
00000010
00000000
00001000
00010000
,
00001000
00000000
00000000
00000000
00100000
00000000
00010000
10000000
00010000
00000000
01000000
00000000
00100000
00000000
10000000
00000000
,
10010000
00000000
00000000
00000000
00100000
00000000
00010000
10000000
00010000
00000000
10000000
01000000
10000000
00000000
01000000
00000000
,
00010000
00000000
00001000
00000000
00000100
00000000
00000000
00000001
00000010
00000000
00000000
00000100
00001000
00000000
00000001
00000010
,
00000100
00000000
00001000
00000000
00000010
00000000
00001000
00000100
00001000
00000000
00000001
00000100
00000001
00000000
00000100
00000000
,
00001000
00000000
00010000
00000000
01000000
00000000
00000000
10000000
00100000
00000000
00000000
01000000
00010000
00000000
10000000
00100000
,
01000000
00000000
00001000
00000000
00011000
00000000
00000000
00010000
01000000
00000000
00000000
01000000
10000000
00000000
10000000
00100000
,
00010000
00000000
00001000
00000000
00011000
00000000
00000000
00001000
00000100
00000000
00000000
00000100
00000001
00001000
00000001
00000010
,
00000100
00000000
00010000
00000000
00001000
00000000
00000000
00001000
00010000
00000000
00000000
00010000
00100000
00000000
10000000
00000000
,
01000000
00000000
00010000
00000000
00001000
00000000
00000100
00000010
00000100
00000000
00000001
00000000
00001000
00000000
00000100
00010000
,
00000200
00000000
00000000
00000000
00010000
00000000
00000000
00010000
00000000
00000000
00000310
00000001
00000020
00000000
00000000
00001000
,
00000030
00000000
00001000
00010000
00200000
00000000
00000000
10000000
00000000
00000000
01300000
00000000
00010000
01000000
00010000
00000000
,
10000000
01000000
10000000
00000000
10100000
00000000
00000000
10100000
00000000
00000000
00110000
00000000
00011000
00000000
00000000
00011000
,
00000000
00000000
00001010
00000000
00000011
00000000
00000000
00000011
00000000
00000000
00001000
00000000
00000100
00000010
00000001
00000100
,
00000010
00001000
00000100
00020000
00001000
00000000
00000000
00001000
00000000
00000000
00130000
10000000
00200000
00000000
00000000
00310000
,
00000000
00000000
00010000
00001000
00000020
00000000
00000000
00000001
00000000
00000000
00000130
00000000
00001000
00000100
00001000
00000000
,
00000001
00000100
00000001
00000000
00000011
00000000
00000000
00000011
00000000
00000000
00001010
00000000
00011000
00000000
00000000
00011000
,
00000000
00000000
00100000
10000000
00100000
01000000
00010000
01000000
00100000
01000000
00001000
00010000
00000100
00001000
00000100
00001000
,
00000001
00000100
00000001
00000100
00000020
00000000
00000000
00000000
00000000
00000000
00000001
00000000
00000000
00000000
00000000
00000000
,
00001000
00000230
00000000
00000001
,
00002300
00000000
00023000
00000000
00000000
00100000
00000000
00000000
,
00001000
02000000
00000000
00000000
,
03030000
00000000
21000000
00000000
00000000
00200000
30000000
00000000
,
01000000
00320000
00032000
00003020
,
00000032
00000000
00000000
00000000
00001003
00000100
00001000
00000001
00000100
00000010
00010000
00001000
00010000
00001000
01000000
00100000
,
01000000
00010000
10000000
01000000
00100000
00000000
00000000
01010000
00000000
00000000
00100000
00000000
10000000
00100000
01000000
00010000
,
20000000
00000000
00000000
00000000
30100000
00000000
00000000
00100000
10000000
00000000
00000000
10000000
01000000
00000000
00000000
01000000
,
00010000
00000000
00000000
00010000
00001000
00000000
00000000
00001000
00000100
00000000
00000010
00001000
00000001
00000010
00000100
00001000
,
00000001
00000000
00000000
00000001
00000100
00000000
00000000
00000100
00001000
00000000
00000000
00001000
00010000
00000000
00000000
00010000
,
00100000
00000000
00000000
00100000
10000000
00000000
00000000
10000000
00010000
00000000
00000000
00010000
00100000
00010000
01000000
00100000
,
10000000
00010000
00100000
00001000
00010000
00000000
00000000
00010000
01000000
00000000
00000000
01000000
00010000
00000000
00000000
00010000
,
00001000
00000000
00000000
00001000
00000100
00000000
00000000
00000100
00000001
00000000
00000000
00000001
00000010
00000000
00000000
00000010
,
00000001
00000000
00000000
00000001
00000100
00000000
00000000
00000100
00000010
00000000
00000000
00000010
00001000
00000000
00000000
00001000
,
00010000
00000000
00000000
00010000
01000000
00000000
00000000
01000000
00100000
00000000
00000000
00100000
20000000
00000000
00000000
00000000
,
30010000
00100000
01000000
10000000
01000000
00000000
10000000
00100000
01000000
00000000
00010000
00100000
00001000
00000000
00010000
00000100
,
00000010
00000000
00000001
00001000
00000010
00000000
00001000
00000001
00000010
00000000
00000001
00000100
00000010
00001000
00000100
00000010
,
00000001
00000000
00000100
00000010
00001000
00000000
00000001
00000100
00000010
00000000
00001000
00000100
00010000
00000000
00001000
00010000
,
00100000
00000000
10000000
00010000
10000000
00000000
01000000
00100000
00010000
00000000
01000000
00100000
10000000
00000000
01000000
00010000
,
00001000
00000000
00000100
00000000
00000001
00000000
00000010
00000001
00000100
00000000
00000010
00001000
00000100
00000000
00000010
00000001
,
00001000
00000010
00010000
00001000
00100000
00000000
00010000
01000000
00100000
00000000
10000000
01000000
00010000
00000000
00001000
00100000
,
00010000
00000000
00001000
00000100
00000010
00000000
00000001
00000100
00000010
00000100
00000001
00000100
00001000
00010000
00000100
00010000
,
00001000
00010000
00000100
00010000
00002000
00000000
00000000
00000000
00000000
00000000
00000000
00000000
02003000
00000000
00000000
00000000
,
00000000
03020000
00100000
10000000
,
01000000
00000000
00031000
00000010
00000100
00000001
00001000
00000100
,
00000001
00000100
00002000
00000000
00000010
00000000
00000001
00000000
,
00000100
00000000
00013000
00100000
01000000
10000000
00100000
01000000
,
00010000
00100000
00001000
00010000
00000200
00000000
00000000
00000000
00000000
00000000
00000000
00000000
00000000
00000000
00000000
00000000
,
00000000
00000000
00000000
00000000
,
00000000
00000000
00000000
00000000
,
00000000
00000300
00000000
00000000
;

//---------------dance-double - NewbStepper-DDP----------------
#NOTES:
     dance-double:
     NewbStepper:
     Medium:
     11:
     0.451977,0.538225,0.105169,0.376856,0.210338,361,349,12,43,0,0,0.451977,0.538225,0.105169,0.376856,0.210338,361,349,12,43,0,0:
00000000
00000000
00000000
00000000
,
00000000
00000000
00000000
00000000
,
00000000
00000000
00000000
00000000
,
00000000
00000000
00000000
00000000
,
00000000
00000000
00000000
00000000
,
10100000
00000000
00000000
20000000
00000000
00000000
31000000
00000000
,
00010000
00001000
00000100
00000001
,
00000011
00000000
00000000
00000002
00000000
00000000
00001003
00000000
,
00000100
00000010
00000001
00000100
00001000
00010000
01000000
10000000
,
00200000
00300000
00000000
00000000
00000000
00000000
00000000
00000000
00000000
00000000
00000000
00000000
00000000
00000000
00000000
00000000
10000000
00000000
00000000
00000000
00000000
00000000
00000000
00000000
00000000
00000000
00000000
00000000
01000000
00000000
00000000
00000000
00000000
00000000
00000000
00000000
00000000
00000000
00000000
00000000
00100000
00000000
00000000
00000000
00000000
00000000
00000000
00000000
00010000
00000000
00000000
00000000
00000000
00000000
00000000
00000000
00000000
00000000
00000000
00000000
01000000
00000000
00000000
00000000
,
00000000
00000000
00100000
00000000
10000000
00000000
00000000
01000000
00000000
00000000
00010000
00000000
00002000
00000000
00000000
00000000
,
00003020
00000000
00000000
00000000
00000031
00000000
00000000
00000100
00000000
00000000
00000010
00000000
00001000
00000000
00000000
00000100
,
00000000
00000000
00000010
00000000
00000001
00000000
00000000
00000100
00000000
00000000
00001000
00000000
00010000
00000000
00100000
00000000
,
10000000
00000000
00010000
00000000
01000000
00000000
00000000
01000000
00000000
00000000
10000000
00000000
01000000
00000000
00000000
01000000
,
00000000
00000000
00010000
00000000
00100000
00000000
00000000
00001000
00000000
00000000
00010000
00000000
00002000
00000000
00000000
00000000
,
00003200
00000000
00000000
00000000
00000301
00000000
00000000
00000101
00000000
00000000
00001000
00000000
00010000
00000000
00000000
00011000
,
00000000
00100000
02000000
00000000
23000000
00000000
30200000
00000000
,
00320000
00000000
00031000
00000100
00000001
00000010
00000001
00000100
,
00001000
00010000
01000000
00000000
10000000
00100000
01000000
00010000
,
10000000
01000000
00010000
01000000
10000000
00100000
10000000
01000000
,
00010000
00001000
00000100
00000000
00000001
00000010
00000100
00001000
,
00000001
00000000
00000200
00000000
00002300
00000000
00013000
00001000
,
00010000
00000000
02000000
00000000
03020000
00000000
00031000
00010000
,
00001000
00000000
00100000
00010000
00020000
00000000
10030000
00000000
,
10010000
00000000
00010000
10000000
00100000
00010000
00001000
00000100
,
00000001
00000000
00000010
00000001
00000100
00000010
00001000
00000001
,
00000100
00001000
00010000
01000000
10000000
00010000
01000000
00100000
,
10000000
00000000
00100000
10000000
01000000
00100000
00010000
10000000
,
01000000
00010000
00001000
00000100
00000001
00001000
00000100
00000010
,
00000001
00000000
00000000
00000000
00000100
00000000
00000000
00000100
00000010
00000000
00000000
00000010
00010000
00000000
00001000
00000000
,
00100000
00000000
00000000
00000000
01000000
00000000
00000000
01000000
00100000
00000000
00000000
00100000
00001000
00000000
00010000
00000000
,
00000010
00000000
00000000
00000000
00001000
00000000
00000000
00001000
00000001
00000000
00000000
00000001
00000100
00000000
00000000
00000100
,
00001000
00010000
02000000
00000000
23000000
00000000
30200000
00000000
,
00320000
00032000
00000000
01000000
,
01000000
00023000
00000000
00000010
,
00000010
00000000
00000000
00000000
00031000
00000000
00000000
00001000
00000000
00000000
00001000
00000000
00000100
00000000
00000000
00000100
,
00000000
00000000
00000100
00000000
00000001
00000000
00000000
00000001
00000000
00000000
00000001
00000000
00000020
00000000
00000000
00000000
,
00002030
00000000
00000000
00000000
00013000
00000000
00000000
00011000
00000000
00000000
00100000
00000000
01000000
00000000
00000000
11000000
,
00000000
00000000
00100000
00000000
00010000
00000000
00000000
10010000
00000000
00000000
01000000
00000000
00020000
00000000
00000000
00000000
,
00032000
00000000
00000000
00000000
00003010
00000000
00000000
00000010
00000000
00000000
00000100
00000000
00000001
00000000
00000000
00000001
,
00000000
00001000
00000100
00010000
00001000
00100000
00010000
01000000
,
00100000
10000000
00020000
00000000
00000000
00000000
01000000
00000000
,
00000000
10000000
00000000
00100000
,
00000000
00032000
00000000
00000100
,
00000000
00000001
00000000
00000010
,
00000000
00023000
01000000
10000000
,
00100000
00032000
00000100
00000001
,
00000010
00000000
00013000
01000000
10000000
01000000
00010000
00100000
,
00001000
00000000
00010000
00000000
00000010
00000000
00000000
00000010
00000000
00000000
00000100
00000000
00000001
00000000
00000000
00000000
,
00001001
00000000
00000010
00000000
00000001
00000000
00001000
00000100
,
00010000
00000100
00001000
00000000
00010000
00000000
00100000
00010000
,
10000000
02000000
00010000
00100000
,
03010000
00002000
00100000
00010000
,
00003100
00000001
00000010
00000000
00001000
00000000
00010000
00001000
,
00000100
00001000
00010000
00000000
01000000
00000000
10000000
00000000
,
00100000
00020000
00001000
00000100
,
00001000
00000000
00130000
00010000
00001000
00000000
00000010
00000000
,
00001001
00000000
00000000
00000000
00001000
00000000
00000000
00001000
00000100
00000000
00000000
00000100
00000010
00000000
00000000
00000010
,
00000001
00000000
00000000
00000001
00000100
00000000
00000000
00000100
00001000
00000000
00000000
00001000
00010000
00000000
00000000
00010000
,
01000000
00000000
00000000
01000000
10000000
00000000
00000000
10000000
00100000
00000000
00000000
00100000
01000000
00000000
00000000
01000000
,
00010000
00000000
00000000
00010000
10000000
00000000
00000000
10000000
01000000
00000000
00000000
01000000
00010000
00000000
00000000
00010000
,
00001000
00000000
00000000
00001000
00000200
00000000
00000000
00000000
00000001
00000000
00000000
00000000
00000310
00000000
00000000
00000010
,
00000200
00001000
00000001
00000010
,
00001300
00000000
00000000
00000000
00011000
00000000
00000000
00010000
01000000
00000000
00000000
01000000
10000000
00000000
00000000
10000000
,
00100000
00000000
00000000
00100000
00020000
00000000
00000000
00000000
00000000
00000000
00000000
00000000
00032000
00000000
00000000
00000000
,
00000000
00003020
00000001
00000100
,
00000031
00000200
00000010
00001000
,
00000310
00020000
00000100
00001000
,
00030100
00002000
00010000
01000000
,
00013000
00022000
00000000
00000000
,
00000000
00000000
00000000
00000000
,
00000000
00000000
00000000
00000000
,
00000000
00033000
00000000
00000000
;

//---------------dance-double - NewbStepper-BDP----------------
#NOTES:
     dance-double:
     NewbStepper:
     Easy:
     8:
     0.343051,0.474904,0.148989,0.341799,0,274,257,17,39,0,0,0.343051,0.474904,0.148989,0.341799,0,274,257,17,39,0,0:
00000000
00000000
00000000
00000000
,
00000000
00000000
00000000
00000000
,
00000000
00000000
00000000
00000000
,
00000000
00000000
00000000
00000000
,
00000000
00000000
00000000
00000000
,
00000022
00000000
00000000
00000000
,
00000030
00000000
00000200
00000003
,
00002000
00000000
00000000
00003300
,
00022000
00000000
00000000
00000000
,
00033000
00000000
00100000
00000000
00010000
01000000
00010000
00000000
,
10000000
01000000
10000000
00000000
00100000
00000000
00010000
00000000
,
00001000
00000000
00000100
00000000
00000001
00000010
00000001
00000000
,
00001000
00000010
00001000
00000000
00000100
00000000
00002002
00000000
,
00003003
00000000
00000010
00000000
00001000
00000100
00001000
00000000
,
00000001
00000100
00000001
00000000
00000010
00000000
00001000
00000000
,
00010000
01000000
10100000
01000000
,
00110000
00000000
10000000
01000000
10000000
00010000
10000000
00100000
,
10000000
01000000
01000000
01000000
,
10000000
01000000
00010000
00000000
00001000
00000100
00000001
00000000
,
00000001
00000100
00000100
00000100
,
00000001
00000100
00001000
00000000
00010000
01000000
10000000
00000000
,
00100000
00000000
10000000
00000000
00010000
01000000
00100000
00000000
,
00010000
00000000
00001000
00000000
00000010
00000100
00001000
00000000
,
00000001
00000100
00000011
00000100
,
00001010
00000100
00000002
00002003
,
00003200
00000310
00000010
00000010
,
00000001
00000010
00001000
00000000
00010000
00100000
10000000
00000000
,
10000000
00100000
00100000
00100000
,
10000000
00100000
00010000
00000000
00001000
00000010
00000001
00000000
,
00000100
00000000
00000001
00000000
00001000
00000010
00000100
00000000
,
00001000
00000000
00010000
00000000
01000000
00100000
00010000
00000000
,
10000000
00100000
11000000
00100000
,
01010000
20000000
30020000
02030000
,
03100000
00000000
01000000
00000000
00010000
00100000
00010000
00000000
,
10000000
00100000
10000000
00000000
01000000
00000000
00010000
00000000
,
00001000
00000000
00000010
00000000
00000001
00000100
00000001
00000000
,
00001000
00000100
00001000
00000000
00000010
00000000
00002002
00000000
,
00003003
00000000
00000100
00000000
00001000
00000010
00001000
00000000
,
00000001
00000010
00000001
00000000
00000100
00000000
00001000
00000000
,
00010000
00100000
11000000
00100000
,
01010000
00000000
10000000
00100000
10000000
00010000
10000000
01000000
,
10000000
22000000
00000000
00000000
,
00000000
03000000
00000000
30200000
,
00000000
00020000
00000000
00300000
,
00000000
00002000
00030000
00000000
,
00000000
00003010
00000001
00000100
,
00001000
00010000
00100000
10000000
,
01000000
00000000
00100000
00010000
00100000
00000000
00001000
00010000
,
00001000
00011000
00000000
00000000
,
00000000
00000000
00000100
00000000
00000001
00000010
00000001
00000000
,
00000100
00000000
00001000
00000000
00010000
00001000
00010000
00000000
,
00100000
20000000
01000000
30020000
,
01000000
00230000
00010000
10000000
,
01000000
00000000
00310000
00000000
01000000
00100000
01000000
00000000
,
00001000
00000000
00010000
00000000
00000100
00001000
00000100
00000000
,
00000010
00000002
00000100
00002003
,
00000100
00003020
00000000
00000130
,
00001001
00000000
00001000
00000000
00000001
00000000
00000100
00000010
,
00001000
00000000
00000100
00000000
00010000
00000000
00001000
01000000
,
00010000
20000000
31000000
00020000
,
01030000
20000000
30200000
00320000
,
00032000
00000000
00003010
00000000
00000001
00000100
00000010
00000000
,
00001000
00000100
00000010
00000000
00000001
00000000
00000100
00000000
,
00001000
00020000
00100000
00001000
,
00130000
02000000
00000000
03100000
,
00000000
10020000
00000000
01000000
,
00000000
10000000
00000000
00100000
,
00000000
00032000
00000000
00000100
,
00000000
00000001
00000000
00000010
,
00003000
00022000
00000000
00000000
,
00000000
00000000
00000000
00000000
,
00000000
00000000
00000000
00000000
,
00000000
00033000
00000000
00000000
;
