#VERSION:0.83;
#TITLE:On The Break(XX-Special);
#ARTIST:Darwin;
#BANNER:On The Break(XX-Special).png;
#BACKGROUND:On The Break(XX-Special)-bg.png;
#JACKET:On The Break(XX-Special)-jacket.png;
#MUSIC:On The Break(XX-Special).ogg;
#SAMPLESTART:70.59;
#SAMPLELENGTH:15;
#BPMS:0=170;
#STOPS:96=1.059;
#TIMESIGNATURES:0=4=4,96=1=4,97=4=4;
#SPEEDS:0=1=0=0,195=2=2=0;
#SCROLLS:0=1,161=0.5;

//---------------dance-single - Kekkle-CSP----------------
#NOTEDATA:;
#CHARTNAME:Kekkle-CSP;
#STEPSTYPE:dance-single;
#DESCRIPTION:Kekkle-CSP;
#DIFFICULTY:Challenge;
#METER:15;
#CREDIT:Kekkle;
#NOTES:
0000
0000
0000
0000
,
0000
0000
0000
0000
,
0000
0000
0000
0000
,
0000
0000
0000
0000
,
0000
0000
0000
0000
,
1001
0001
0100
0010
0001
0010
1000
0001
,
1001
1000
0100
0010
1000
0010
0001
1000
,
1001
0001
0100
0010
1001
1000
0100
0010
,
2002
0000
0000
3003
,
1002
0000
0203
0000
,
2300
0000
0000
0000
3001
0010
1000
0000
,
0002
0000
0023
0000
,
2030
0000
0000
0000
3001
0100
1000
0000
,
0001
0000
0000
0001
0000
0001
0000
0000
0100
0000
0000
0100
0000
0000
0100
0000
,
1000
0000
0000
1000
0000
1000
0000
0000
0001
0000
0010
0000
1000
0000
0000
0000
,
0001
0000
0000
0001
0000
0001
0000
0000
0010
0000
0000
0010
0000
0000
0010
0000
,
1000
0000
0000
1000
0000
1000
0000
0000
0001
0000
0100
0000
1000
0000
0000
0000
,
0001
0100
0101
1000
0100
0010
0110
0000
,
1000
0100
1100
0001
0100
0010
0110
0000
,
1000
0010
1010
0001
0010
0100
0110
0000
,
0001
0010
0011
1000
0010
0100
0110
0000
,
1001
0000
0000
0001
0000
0001
0000
0010
0100
0000
0000
1000
0000
1000
0000
0000
,
1001
0000
0000
1000
0000
1000
0000
0010
0100
0000
0001
0000
1000
0000
0000
0000
,
1001
0000
0000
0001
0000
0001
0000
0010
0100
0000
0000
1000
0000
0001
1000
0001
,
1000
0000
0000
0000
0001
0000
0100
0010
0000
1000
0000
0001
0010
0000
0100
0010
,
0000
0001
1000
0010
0100
0000
0010
1000
0000
0010
0000
0100
1000
0000
0100
0000
,
0001
0000
1000
0100
0010
0000
0001
0010
0000
0100
0000
1000
0001
0000
0100
0010
,
0000
1000
0010
0100
0001
0000
1000
0100
0000
0010
0000
0100
0001
0000
0100
0000
,
1000
0000
0001
0100
0010
0000
0100
1000
0000
0100
0000
0010
0100
0000
0001
1000
,
0000
0100
0010
0001
0010
0000
0100
0001
0000
0100
0000
0010
1000
0000
0010
0000
,
0001
0000
1000
0010
0100
0000
0010
0001
0000
0010
0000
0100
0010
0000
1000
0001
,
0000
1000
0100
0010
0200
0000
0000
0000
1000
0000
0000
0000
0310
0001
1000
0010
,
0100
0001
1000
0100
0020
0000
0000
0000
0100
0000
0000
0000
0031
0000
1000
0010
,
0000
0100
0010
0100
1000
0000
0100
0010
0000
0100
0000
0010
0001
0000
0010
0000
,
1000
0000
0001
0010
0200
0000
0000
0000
1000
0000
0000
0000
0310
0000
0001
1000
,
0000
0010
0100
0010
0001
0000
0010
1000
0000
0010
0000
0100
1000
0000
0100
0000
,
0001
0000
1000
0100
0020
0000
0000
0000
0100
0000
0000
0000
0031
0000
1000
0010
,
0000
0100
0001
0100
0020
0000
0000
0000
1000
0000
0000
0000
0130
0000
0001
1000
,
0000
0100
0010
0001
0010
0000
0100
1000
0010
0000
0100
0001
0010
0000
0100
1000
,
0010
0000
0100
0001
0020
0000
0000
0000
0000
0000
0000
0000
0000
0000
0000
0000
,
0000
0000
0000
0000
0031
0000
0000
0000
1000
0000
0010
0100
0010
0000
0200
0000
,
1000
0000
0000
0000
0010
0000
0000
0000
0301
0000
1000
0001
1000
0000
0100
0000
,
0110
0000
0010
0000
0100
0001
0100
1000
,
0010
0000
0002
0000
0010
0000
0000
0000
1003
0000
0100
0010
0100
0000
0001
0000
,
1001
0000
0000
0000
1200
0000
0000
0000
0310
0000
0001
1000
0001
0000
0100
0000
,
0110
0000
0000
0000
0201
0000
0000
0000
0310
0000
1000
0001
1000
0000
0100
0000
,
0110
2100
3010
0102
,
0013
0000
0000
0000
2100
0000
0000
0000
0000
0000
0000
0000
3001
0100
0001
0100
,
0010
1000
0010
1000
0002
0000
0000
0000
0000
0000
0000
0000
0000
0000
0000
0000
,
0000
0000
0000
0000
1003
0000
0100
0000
0010
0000
0002
0100
0000
2003
0010
0000
,
3001
0000
0010
0000
0200
0000
1000
0000
0310
0000
0001
1000
0000
0010
0100
0000
,
1001
0000
1000
0000
0001
0000
0010
0000
0100
0000
2000
0010
0000
3002
0100
0000
,
1003
0000
0100
0000
0020
0000
0001
0000
0130
0000
1000
0001
0000
0000
0110
0000
,
1001
0000
0001
0100
0010
0000
0100
0000
1000
0000
0200
0010
0000
0302
1000
0000
,
0013
0000
0100
0000
0020
0000
0001
0000
0130
0000
1000
0001
0000
0100
0010
0000
,
1001
0000
1000
0000
0100
0000
0010
0000
1000
0000
0020
0100
0000
0032
1000
0000
,
0103
0010
0200
0001
0310
1000
1001
0100
,
0110
0000
0000
0000
1001
0000
1000
0000
0100
0000
0010
0001
1000
0010
0100
0000
,
1000
0000
0100
0000
0020
0000
0001
0000
0130
0000
0001
1000
0000
0100
0010
0000
,
0110
0000
0001
0000
1000
0000
0001
0000
0010
0000
0100
1000
0001
0100
0010
0000
,
0001
0000
0010
0000
0200
0000
1000
0000
0310
0000
1000
0001
0000
0000
1001
0000
,
0110
0000
0001
1000
0100
0000
0010
0000
0001
0000
1000
0010
0100
0001
0010
0000
,
1000
0000
0010
0000
0200
0000
0001
0000
0310
0000
0001
1000
0000
0010
0100
0000
,
0110
0000
0001
0000
0010
0000
0100
0000
1000
0000
0001
0100
0010
1000
0100
0000
,
0001
0000
0100
0000
1001
0000
1000
0000
0010
0000
0100
0000
0001
1000
0100
0010
,
0001
0100
0010
1000
0002
0000
0000
0000
0000
0000
0000
0000
0000
0000
0000
0000
,
0000
0000
0000
0000
,
0000
0003
0000
0000
;

//---------------dance-double - Kekkle-CDP----------------
#NOTEDATA:;
#CHARTNAME:Kekkle-CDP;
#STEPSTYPE:dance-double;
#DESCRIPTION:Kekkle-CDP;
#DIFFICULTY:Challenge;
#METER:15;
#CREDIT:Kekkle;
#NOTES:
00000000
00000000
00000000
00000000
,
00000000
00000000
00000000
00000000
,
00000000
00000000
00000000
00000000
,
00000000
00000000
00000000
00000000
,
00000000
00000000
00000000
00000000
,
10000000
01000000
00100000
01000000
00010000
00001000
00100000
00001000
,
00010000
00000100
00001000
00000100
00000001
00000100
00000010
00000001
,
00001001
00001000
00010010
00010000
,
00022000
00000000
00000000
00033000
,
00021000
00000000
00230000
00000000
,
20300000
00000000
00000000
00000000
30010000
00100000
10000000
00000000
,
00200000
00000000
00302000
00000000
,
00023000
00000000
00000000
00000000
00031000
00000100
00000001
00000000
,
00001000
00000000
00000000
00001000
00000000
00001000
00000000
00000000
00000100
00000000
00000000
00000100
00000000
00000000
00000100
00000000
,
00000010
00000000
00000000
00000010
00000000
00000010
00000000
00000000
00001000
00000000
00010000
00000000
01000000
00000000
00000000
00000000
,
00100000
00000000
00000000
00100000
00000000
00100000
00000000
00000000
00010000
00000000
00000000
00010000
00000000
00000000
00010000
00000000
,
10000000
00000000
00000000
10000000
00000000
10000000
00000000
00000000
00100000
00000000
00010000
00000000
00001000
00000000
00000000
00000000
,
00010000
01000000
00010000
01000000
00100000
00001000
00010000
00000000
,
00001000
00000100
00001000
00000100
00000010
00010000
00001000
00000000
,
00010000
00100000
00010000
00100000
01000000
00001000
00010000
00000000
,
00001000
00000010
00001000
00000010
00000100
00010000
00001000
00000000
,
00010000
00000000
00000000
00100000
00000000
00100000
00000000
01000000
00010000
00000000
00000000
10000000
00000000
10000000
00000000
00000000
,
10010000
00000000
00000000
00010000
00000000
00010000
00000000
00100000
01000000
00000000
00010000
00000000
00001000
00000000
00000000
00000000
,
00011000
00000000
00000000
00010000
00000000
00010000
00000000
00001000
00000010
00000000
00000000
00000001
00000000
00001000
00000001
00001000
,
00000001
00000000
00000000
00000000
00001000
00000000
00000010
00000100
00000000
00001000
00000000
00010000
00001000
00000000
00010000
00100000
,
00000000
01000000
00010000
10000000
01000000
00000000
00100000
01000000
00000000
00100000
00000000
01000000
00010000
00000000
00001000
00000000
,
00100000
00000000
00001000
00010000
00000100
00000000
00000010
00000001
00000000
00001000
00000000
00000010
00000100
00000000
00000001
00000100
,
00000000
00000010
00010000
00001000
00100000
00000000
00001000
00010000
00000000
01000000
00000000
00100000
10000000
00000000
00100000
00000000
,
00010000
00000000
10000000
00100000
00010000
00000000
00001000
00010000
00000000
00001000
00000000
00100000
00001000
00000000
00010000
00001000
,
00000000
00000010
00000100
00001000
00000001
00000000
00001000
00000010
00000000
00000100
00000000
00000010
00000001
00000000
00000010
00000000
,
00001000
00000000
00000001
00000010
00001000
00000000
00010000
00001000
00000000
00100000
00000000
00001000
00010000
00000000
00100000
01000000
,
00000000
00010000
10000000
01000000
00200000
00000000
00000000
00000000
00000000
00000000
00000000
00000000
00310000
10000000
01000000
00100000
,
00001000
00010000
00000010
00000100
00000002
00000000
00000000
00000000
00001000
00000000
00000000
00000000
00000013
00000000
00000100
00000010
,
00000000
00000001
00001000
00000010
00000100
00000000
00001000
00010000
00000000
00001000
00000000
00010000
00100000
00000000
01000000
00000000
,
00010000
00000000
00000000
00000000
20000000
00000000
00000000
00000000
00010000
00000000
00000000
00000000
31000000
00000000
00100000
01000000
,
00000000
10000000
00010000
01000000
00100000
00000000
00010000
00001000
00000000
00010000
00000000
00001000
00000100
00000000
00000010
00000000
,
00001000
00000000
00000000
00000000
00000002
00000000
00000000
00000000
00001000
00000000
00000000
00000000
00000013
00000000
00001000
00010000
,
00000000
01000000
00100000
01000000
20000000
00000000
00000000
00000000
00010000
00000000
00000000
00000000
30100000
00000000
00010000
00001000
,
00000000
00000100
00000010
00000100
00000001
00000000
00001000
00000100
00000010
00000000
00000100
00010000
00001000
00000000
00010000
00100000
,
01000000
00000000
00010000
10000000
02000000
00000000
00000000
00000000
00000000
00000000
00000000
00000000
00000000
00000000
00000000
00000000
,
00000000
00000000
00000000
00000000
13000000
00000000
00000000
00000000
00010000
00000000
00100000
01000000
00100000
00000000
02000000
00000000
,
10000000
00000000
00000000
00000000
00100000
00000000
00000000
00000000
03010000
00000000
00001000
00010000
00001000
00000000
00100000
00000000
,
00001000
00000000
00020000
00000000
00031000
00000100
00000001
00000010
,
00001000
00000000
00000002
00000000
00001000
00000000
00000000
00000000
00000103
00000000
00000010
00000100
00000010
00000000
00000001
00000000
,
00001000
00000000
00020010
00000000
00130000
01000000
00010000
10000000
,
01000000
00000000
00102000
00000000
00003010
00000001
00001000
00000010
,
00000100
00020010
00031000
00102000
,
00013000
00000000
00000000
00000000
00021000
00000000
00000000
00000000
00000000
00000000
00000000
00000000
00130000
01000000
00100000
01000000
,
00010000
10000000
00010000
10000000
02000000
00000000
00000000
00000000
00000000
00000000
00000000
00000000
00000000
00000000
00000000
00000000
,
00000000
00000000
00000000
00000000
03100000
00000000
00010000
00000000
10000000
00000000
00100000
00010000
00000000
00001000
00100000
00000000
,
00001000
00000000
00000010
00000000
00000200
00000000
00001000
00000000
00000310
00000000
00000001
00001000
00000000
00000010
00000100
00000000
,
00001001
00000000
00001000
00000000
00000100
00000000
00001000
00000000
00000001
00000000
00000100
00001000
00000000
00010000
00000100
00000000
,
00010000
00000000
01000000
00000000
00200000
00000000
00010000
00000000
01300000
00000000
10000000
00010000
00000000
00000000
01100000
00000000
,
10010000
00000000
10000000
00010000
00100000
00000000
01000000
00000000
00010000
00000000
00001000
00010000
00000000
00001000
01000000
00000000
,
00001000
00000000
00000100
00000000
00000020
00000000
00001000
00000000
00000130
00000000
00000001
00001000
00000000
00000100
00000010
00000000
,
00001001
00000000
00001000
00000000
00000100
00000000
00000010
00000000
00001000
00000000
00010000
00001000
00000000
00010000
00000010
00000000
,
00010000
00100000
02000000
00010000
03100000
10000000
10010000
01000000
,
01100000
00000000
00000000
00000000
10000000
00000000
01000000
00000000
00010000
00000000
00001000
00000010
00000000
00001000
00010000
00000000
,
00100000
00000000
00010000
00000000
00002000
00000000
00000100
00000000
00013000
00000000
00001000
00010000
00000000
00000100
00000010
00000000
,
00000110
00000000
00001000
00000000
00000001
00000000
00000100
00000000
00001000
00000000
00010000
00100000
00000000
00010000
00001000
00000000
,
00000010
00000000
00001000
00000000
00020000
00000000
01000000
00000000
00031000
00000000
00010000
00001000
00000000
00000000
01001000
00000000
,
01100000
00000000
00100000
10000000
00010000
00000000
00100000
00000000
01000000
00000000
00010000
00001000
00000000
00000010
00001000
00000000
,
00010000
00000000
00100000
00000000
00020000
00000000
00001000
00000000
00030100
00000000
00001000
00000001
00000000
00000010
00000100
00000000
,
00000110
00000000
00000001
00000000
00001000
00000000
00000010
00000000
00000100
00000000
00001000
00010000
00000000
00100000
00010000
00000000
,
00001000
00000000
00000010
00000000
00001000
00000000
00010000
00000000
00100000
00000000
10000000
00000000
00010000
10000000
01000000
00100000
,
00001000
00010000
00000010
00000100
00000002
00000000
00000000
00000000
00000000
00000000
00000000
00000000
00000000
00000000
00000000
00000000
,
00000000
00000000
00000000
00000000
,
00000000
00000003
00000000
00000000
;
