#TITLE:Oboro Cybernetics;
#ARTIST:Tanchiky;
#BANNER:Oboro Cybernetics.png;
#BACKGROUND:Oboro Cybernetics-bg.png;
#MUSIC:Oboro Cybernetics.ogg;
#OFFSET:-3.42;
#SAMPLESTART:27.222;
#SAMPLELENGTH:15;
#BPMS:0=121,80=242,112=121,192=242,224=121;
#STOPS:239=0.124,239.25=0.124;

//---------------dance-single - Marten-bSP----------------
#NOTES:
     dance-single:
     Marten:
     Beginner:
     4:
     0.161869,0.214027,0.075539,0.151078,0,135,126,9,18,0,0,0.161869,0.214027,0.075539,0.151078,0,135,126,9,18,0,0:
0000
0000
0000
0000
,
0000
0000
0000
0000
,
0000
0000
0000
0000
,
0000
0000
0000
0000
,
1000
0000
1000
0000
,
1000
0000
1000
0000
,
0001
0000
0001
0000
,
0001
0000
0001
0000
,
1001
0000
0100
0000
,
1001
0000
0100
0000
,
1001
0000
1001
0000
,
0010
0010
0020
0000
,
0130
0000
0100
0000
,
0100
0000
0100
0100
,
0010
0000
0010
0000
,
0010
0000
0010
0000
,
1000
0000
1000
0000
,
1000
0000
1000
1000
,
0001
0000
0001
0000
,
0001
0000
0001
0000
,
1000
0000
1000
0000
,
0100
0000
0100
0000
,
0010
0000
0010
0000
,
0001
0000
0001
0000
,
1000
0000
0010
0000
,
0100
0000
0001
0000
,
1000
0000
0100
0000
,
0010
0000
0001
0000
,
2000
0000
3100
0000
,
0020
0000
0031
0001
,
0002
0000
0103
0000
,
0100
0000
0010
0000
,
2000
0000
0000
3000
,
0002
0000
0000
0003
,
0020
0000
0000
0030
,
0200
0000
0000
0300
,
2000
0000
3100
0000
,
0200
0000
0310
0000
,
0020
0000
0031
0000
,
0002
0000
1003
0000
,
1001
0000
0001
0000
,
1001
0000
1000
0000
,
0110
0000
0110
0000
,
0010
0010
0020
0000
,
0130
0000
0100
0100
,
0100
0000
0001
0001
,
0001
0000
1000
1000
,
1000
0000
0001
0000
,
1000
0000
0010
0000
,
0100
0000
0001
0000
,
1000
0000
0001
0000
,
0010
0000
0100
0000
,
0010
0000
0001
0000
,
1000
0000
0010
0000
,
0100
0000
0010
0000
,
1000
0000
0001
0000
,
2000
0000
3001
0000
,
0002
0000
1000
1003
,
2000
0000
3002
0000
,
1003
0000
0000
0000
0010
0000
0000
0100
,
0000
0000
0000
0100
0000
0000
0000
0001
,
0000
0000
0000
0001
0000
0001
0000
1000
,
0000
0000
0000
0001
0000
0000
0000
0200
,
0000
0000
0300
0110
;

//---------------dance-single - Marten-ESP----------------
#NOTES:
     dance-single:
     Marten:
     Hard:
     15:
     0.661864,0.882860,0.637884,0.528772,0.402874,552,476,76,63,0,0,0.661864,0.882860,0.637884,0.528772,0.402874,552,476,76,63,0,0:
0000
0000
0000
0000
,
0000
0000
0000
0000
,
0000
0000
0000
0000
,
0000
0000
0000
0000
,
1100
0000
0101
0000
0110
0000
1000
1000
,
1010
0000
0000
0000
0011
0000
0000
0000
1001
0000
0000
0000
0010
0000
0010
1000
,
0100
0000
1100
0000
0101
0000
0001
0001
,
0011
0000
1010
0000
1000
0010
0001
0010
,
1000
0000
0100
1000
0100
0000
0010
0000
0001
0000
0100
0000
0001
0000
0001
0000
,
1000
0000
0010
1000
0010
0000
0100
0000
0001
0000
0010
0000
0100
0000
0100
1000
,
0001
0100
1000
0001
1000
0100
0001
0010
,
0100
1000
0100
1000
0001
0010
0001
0010
0200
0000
0000
0000
0010
0000
0310
0000
,
0012
0000
0000
0000
0013
0001
0100
0001
0010
0001
0100
0001
0100
0000
0110
0000
,
2010
0000
0000
0000
3010
1000
0100
1000
0010
1000
0100
0000
1100
0000
1001
0000
,
0101
0000
0001
0010
0100
0000
1000
0010
0100
0000
0001
0010
0100
1000
0001
0000
,
1000
0000
0010
1000
0000
0010
0100
0001
0100
0010
1000
0000
0200
0000
0310
0000
,
0011
0000
0001
0100
0001
0100
0010
1000
0100
1000
0001
0010
0001
0100
0010
0000
,
1010
0000
1000
0100
1000
0010
0100
0001
0010
0001
1000
0100
0010
0100
1000
0000
,
1002
0000
0013
0100
2000
0000
3010
0100
0010
0100
0010
1000
0100
0010
0100
0000
,
0110
0000
0010
0001
0000
0001
0010
0100
1000
0000
0001
0000
0100
0000
0100
0000
,
1010
0000
1001
0000
1000
0100
1100
0000
,
0011
0000
0100
0001
0100
0000
0101
0000
,
0001
0010
0100
0010
0001
0100
0010
0000
,
1000
0100
1000
0010
0110
0000
0110
0000
,
0101
0000
1100
0000
1000
0100
1000
0000
,
0001
0100
0001
0010
0001
1000
0100
0000
,
1000
0010
1010
0000
0001
0010
0011
0000
,
1000
0100
0010
1000
0010
0100
1000
0000
,
1020
0000
0000
0000
1030
0010
0100
0000
0102
0000
0000
0000
0013
0000
0001
0010
,
0110
0000
0100
1100
0000
1000
0010
1000
0100
0010
0001
0000
0101
0000
0101
0000
,
0012
0000
0000
0013
0100
0000
1100
0000
0201
0000
0000
0000
0310
0000
0010
0000
,
0110
0000
1000
0010
0000
0100
0010
0000
1000
0100
0010
0001
1000
0001
1000
0000
,
0020
2030
3200
0302
,
0203
0000
2300
0000
3002
0203
0320
2030
,
3002
0000
0023
0230
2300
0000
3020
0230
,
0302
0000
0000
0000
0000
0000
2003
3020
,
0230
0301
0002
0013
,
0020
0000
1030
0000
2000
3200
0302
0023
,
0032
0000
0203
0320
2030
0000
3200
0320
,
0032
0000
0000
0000
0000
0000
1000
1003
,
1001
1001
0101
0101
0110
0110
1010
1010
,
1100
0110
0101
0110
0011
1001
1010
1001
,
1000
0010
1000
0010
0100
0001
0100
0001
0010
0001
0010
0001
1000
0100
1000
0100
,
0020
0000
0031
0100
0020
0000
1030
0100
0020
0000
0000
0000
0100
0000
0130
0000
,
0210
0000
0000
0310
0001
0000
0100
0001
0100
0000
0010
0000
1010
0000
0010
0000
,
0210
0000
0000
0301
1000
0000
0100
1000
0100
0000
0010
0001
0010
0100
0000
0100
,
2000
0000
0000
3001
0100
0000
0100
0000
0010
0000
1000
0001
1000
0000
0010
0000
,
1010
0000
0010
0000
0011
0000
0010
0000
1000
0100
0010
0001
1000
0000
1001
0000
,
1000
0100
1000
0000
0001
0100
0001
0000
,
1000
0010
0001
0010
1000
0100
0010
0000
,
0001
0010
0001
0000
1000
0010
1000
0000
,
0001
0100
1000
0100
0110
0000
0110
0000
,
0010
1000
1100
0000
0010
0001
0101
0000
,
0001
0100
0010
0001
0010
0100
0001
0000
,
1000
0100
1000
0010
0100
0001
0010
0001
,
1000
0010
0001
0010
1000
0100
0010
0000
,
0012
0000
0000
0000
1003
0000
0000
0000
2010
0000
0000
0001
3001
0000
0000
0000
,
0102
0000
0000
0000
1003
0000
0000
0000
2100
0000
3100
0010
0001
1000
0000
1000
,
0020
0000
0000
0000
0130
0000
0001
0000
0020
0000
0000
0130
1000
0000
0001
0000
,
0100
0000
0100
0001
0000
0001
1000
0100
1000
0001
1000
0000
0020
0230
0320
0000
,
0000
2030
0000
3200
0000
0302
0000
0023
,
0000
0000
2030
0000
0000
0000
3001
0100
0001
0010
0001
1000
0100
0000
0011
0000
,
0000
0001
0010
0000
0100
0000
1100
0000
0000
1000
0010
0000
0100
0000
0101
0000
,
0001
1000
0000
1000
0100
0010
0001
0100
0010
0100
0101
0000
1100
0000
0000
0000
;

//---------------dance-double - NewbStepper-EDP----------------
#NOTES:
     dance-double:
     NewbStepper-EDP:
     Hard:
     15:
     0.641481,0.882860,0.503592,0.444840,0.381891,535,475,60,53,0,0,0.641481,0.882860,0.503592,0.444840,0.381891,535,475,60,53,0,0:
// measure 0
00000000
00000000
00000000
00000000
,  // measure 1
00000000
00000000
00000000
00000000
,  // measure 2
00000000
00000000
00000000
00000000
,  // measure 3
00000000
00000000
00000000
00000000
,  // measure 4
11000000
00000000
01010000
00000000
00011000
00000000
00000010
00000001
,  // measure 5
00000101
00000000
00000000
00000000
00001100
00000000
00000000
00000000
00011000
00000000
00000000
00000000
00100000
00000000
00100000
10000000
,  // measure 6
01000000
00000000
11000000
00000000
01010000
00000000
00010000
00010000
,  // measure 7
00011000
00000000
00001010
00000000
00000001
00000010
00001000
00010000
,  // measure 8
00100000
00000000
10000000
00010000
10000000
00000000
00100000
00000000
01000000
00000000
00010000
00000000
00100000
00000000
10000000
00000000
,  // measure 9
00100000
00000000
00010000
01000000
00010000
00000000
00001000
00000000
00000010
00000000
00000100
00000000
00000001
00000000
00000001
00001000
,  // measure 10
00000100
00000010
00000001
00000100
00001000
00010000
01000000
10000000
,  // measure 11
00100000
10000000
00100000
10000000
00010000
00100000
00010000
00100000
00002000
00000000
00000000
00000000
00010000
00000000
00013000
00000000
,  // measure 12
00021000
00000000
00000000
00000000
00030010
00001000
00000100
00001000
00000010
00001000
00000100
00001000
00000100
00000000
00000010
00000000
,  // measure 13
00000011
00000000
00000001
00000100
00000000
00001000
00010000
00001000
00000000
00000000
00000010
00000100
00000000
00000000
00001010
00000000
,  // measure 14
00012000
00000000
00000000
00000000
00103000
00010000
01000000
00010000
00100000
00010000
01000000
00010000
01000000
00000000
00100000
00000000
,  // measure 15
10100000
00000000
10000000
00000000
01000000
00000000
00010000
00001000
00000100
00000000
00000001
00000000
00000010
00000100
00001000
00000000
,  // measure 16
00000101
00000000
00000001
00000100
00000001
00000100
00000010
00001000
00000100
00010000
00001000
00100000
00010000
01000000
00100000
00000000
,  // measure 17
10100000
00000000
10000000
01000000
10000000
01000000
00100000
00010000
01000000
00001000
00010000
00000010
00001000
00000100
00000010
00000000
,  // measure 18
00000011
00000000
00000001
00000100
00000020
00000000
00001030
00000100
00010000
00000100
00010000
00001000
00100000
00010000
00100000
00000000
,  // measure 19
01100000
00000000
01000000
10000000
01000000
00000000
00100000
00010000
10000000
00100000
01000000
00010000
00100000
00000000
00001000
00000000
,  // measure 20
00011000
00000000
01010000
00000000
01000000
10000000
01000000
00000000
,  // measure 21
00010000
00000000
00001000
00000100
00000001
00000000
00000011
00000000
,  // measure 22
00000001
00001000
00000100
00000010
00000001
00000100
00001000
00000000
,  // measure 23
00010000
01000000
10000000
00010000
10000000
00100000
01000000
00000000
,  // measure 24
00011000
00000000
00001100
00000000
00000100
00000001
00000100
00000000
,  // measure 25
00001000
00000000
00010000
01000000
10000000
00000000
10100000
00000000
,  // measure 26
10000000
00010000
01000000
00100000
10000000
01000000
00010000
00000000
,  // measure 27
00001000
00000100
00000001
00001000
00000001
00000010
00000100
00000000
,  // measure 28
00000021
00000000
00000000
00000000
00000031
00000010
00000100
00000000
00001200
00000000
00000000
00000000
00010300
00000000
00001000
00010000
,  // measure 29
00011000
00000000
00010000
01000000
00000000
10000000
00100000
10000000
01000000
00000000
00010000
00001000
01000000
00000000
01100000
00000000
,  // measure 30
10200000
00000000
00300000
10000000
01000000
00000000
00010000
00001000
00000000
00000100
00000001
00000100
00000010
00000000
00000110
00000000
,  // measure 31
00000001
00000000
00000100
00000000
00001000
00010000
00000000
00001000
00100000
00010000
01000000
00000000
10010000
00000000
00000000
00000000
,  // measure 32
00200000
20300000
32000000
03020000
,  // measure 33
00032000
00000000
00003020
00000000
00000032
00000203
00000320
00002030
,  // measure 34
00003002
00000000
00000023
00000230
00002300
00000000
00003200
00000320
,  // measure 35
00002030
00000000
00000000
00000000
00000000
00000000
00023000
00230000
,  // measure 36
20300000
31000000
02000000
03010000
,  // measure 37
00020000
00000000
00031000
00000000
00002000
00003200
00000302
00000023
,  // measure 38
00000032
00000000
00000203
00000320
00002030
00000000
00003020
00000230
,  // measure 39
00002300
00000000
00000000
00000000
00000000
00000000
00010000
00013000
,  // measure 40
00011000
00011000
01010000
01010000
11000000
11000000
10010000
10010000
,  // measure 41
00110000
00101000
00011000
00010010
00000110
00000101
00001001
00001010
,  // measure 42
00000100
00000001
00000100
00000001
00001000
00000100
00001000
00000100
00010000
00000100
00010000
00000100
00010000
00001000
00010000
00001000
,  // measure 43
00200000
00000000
00310000
01000000
00200000
00000000
10300000
01000000
00200000
00000000
00000000
00000000
01300000
00000000
01000000
00000000
,  // measure 44
02100000
00000000
00000000
03100000
00010000
00000000
10000000
00000000
01000000
00000000
00010000
00000000
00001000
00000000
00000010
00000000
,  // measure 45
00000001
00000000
00000100
00000000
00001000
00000000
00000100
00000000
00000001
00000000
00000010
00000001
00000010
00000100
00000000
00000100
,  // measure 46
00002000
00000000
00000000
00003001
00000100
00000000
00000100
00000000
00000010
00000000
00010000
00001000
00010000
00000000
00100000
00000000
,  // measure 47
10100000
10000000
11000000
01000000
00010000
01000000
01100000
00000000
,  // measure 48
10000000
01000000
10000000
00000000
01000000
00010000
01000000
00000000
,  // measure 49
00010000
00001000
00000010
00000001
00001000
00000100
00000010
00000000
,  // measure 50
00000001
00000100
00000001
00000000
00000100
00001000
00000100
00000000
,  // measure 51
00001000
00010000
00100000
10000000
00010000
01000000
00100000
00000000
,  // measure 52
10000000
01000000
00010000
00000000
01000000
00010000
00001000
00000000
,  // measure 53
00010000
00001000
00000100
00000000
00001000
00000100
00000001
00000000
,  // measure 54
00001000
00000100
00001000
00000001
00000100
00000010
00010000
00001000
,  // measure 55
01000000
00100000
10000000
01000000
00100000
00010000
01000000
00000000
,  // measure 56
10100000
00000000
00010000
01000000
00010000
00000000
00000000
00000000
00101000
00000000
00010000
00001000
00010000
00000000
00000000
00000000
,  // measure 57
00010100
00000000
00001000
00000010
00001000
00000000
00000001
00000000
00001001
00000000
00000100
00000000
00000001
00000000
00000010
00000000
,  // measure 58
00002000
00000000
00000000
00000000
00013000
00000000
00000010
00000000
00002000
00000000
00003000
00010000
01000000
00000000
00100000
00000000
,  // measure 59
10000000
00000000
10000000
01000000
00000000
01000000
00010000
00001000
00010000
00001000
00000100
00000000
00000010
00000100
00000020
00000000
,  // measure 60
00000000
00002030
00000000
00003002
00000000
00000203
00000000
00002300
,  // measure 61
00000000
00000000
00023000
00000000
00000000
00000000
00130000
10000000
00100000
01000000
00100000
00010000
00001000
00000000
00011000
00000000
,  // measure 62
00000000
00000100
00000010
00000000
00000001
00000000
00000101
00000000
00000000
00000100
00001000
00000000
00010000
00000000
00001000
00100000
,  // measure 63
00010000
01000000
00100000
10000000
01000000
00010000
00001000
00000100
00000001
00000000
00000101
00000000
00001100
00000000
00000000
00000000
;

//---------------dance-single - NewbStepper-DSP----------------
#NOTES:
     dance-single:
     NewbStepper:
     Medium:
     10:
     0.414864,0.508314,0.243403,0.142684,0.012590,346,317,29,17,0,0,0.414864,0.508314,0.243403,0.142684,0.012590,346,317,29,17,0,0:
0000
0000
0000
0000
,
0000
0000
0000
0000
,
0000
0000
0000
0000
,
0000
0000
0000
0000
,
0001
0000
0001
0000
0001
0000
0100
0010
,
1000
0000
1000
0000
1000
0000
0100
0010
,
0001
0000
0100
0000
1000
0000
0100
0001
,
0010
0000
0000
0000
0010
0000
0000
0000
0010
0000
0000
0000
0010
0000
0100
0010
,
0100
0000
0000
0000
1000
0000
0000
0000
0010
0000
0100
0000
0001
0000
1000
0100
,
1000
0000
0000
0000
0001
0000
0000
0000
0010
0000
0100
0000
1000
0000
0001
0100
,
0001
0001
0100
0100
0010
0010
1000
1000
,
0001
0100
1000
0100
0002
0000
1003
0000
,
0020
0000
1030
0100
0001
0100
0010
0001
,
2000
0000
3010
0100
1000
0100
0001
0010
,
0200
0000
0301
1000
0010
0001
0100
0010
,
1000
0001
0101
0000
0001
1000
1100
0000
,
0020
0000
0031
0100
1000
0100
0010
1000
,
0002
0000
0013
0100
0001
0100
1000
0010
,
0200
0000
1300
0001
0010
1000
0100
0010
,
0001
0100
0010
1000
0100
0000
0110
0000
,
0001
0100
1000
0100
,
0010
1000
0100
0001
,
0100
1000
0010
0100
,
0001
0100
0101
0000
,
1000
0100
0001
0100
,
0010
0001
0100
1000
,
0100
0001
0010
0100
,
1000
0100
1100
0000
,
1020
0000
0130
0000
0001
1000
0100
0100
,
0010
0001
0100
0010
1010
0000
0101
0000
,
0011
0110
1100
1001
,
0020
0000
0031
0100
0020
0000
1030
0100
,
0010
0010
0100
0100
,
1000
0000
1000
0000
0001
1000
0100
0010
,
0001
0000
0100
0010
1000
0000
0100
0010
,
0002
0000
0000
0000
0000
0000
1003
0001
,
0010
0010
0100
0100
,
1000
0000
1000
0000
0001
1000
0100
0010
,
0001
0000
0010
0100
1000
0000
0010
0100
,
0002
0000
0000
0003
,
1000
0100
1000
0100
1000
0100
1000
0100
,
0010
0001
0010
0001
0010
0001
0010
0001
,
1000
0010
0001
0010
1000
0100
0001
0100
,
0020
0230
2300
3001
,
1001
0000
1000
0100
0010
0100
0001
0100
,
1000
0010
0001
0010
1000
0000
0001
0100
,
0010
0000
1000
0100
0010
0000
0001
0100
,
1000
0000
1000
0100
0001
0010
0100
0000
,
1001
1000
0100
0010
,
0001
0100
0010
1000
,
0001
0100
1000
0100
,
0001
0010
1000
0010
,
0001
0100
0010
1000
,
0100
0010
0001
0010
,
0100
0001
0100
1000
,
0100
0000
0110
0000
,
1001
1000
1100
0100
,
0110
0000
0010
0000
0001
0100
0010
1000
,
1100
0000
0010
0001
0101
0000
0010
1000
,
2002
0000
0000
0000
3003
0000
0110
1001
,
0000
0001
0000
0101
0000
0100
0000
0110
,
0000
0010
0000
1000
0100
0010
0001
0101
,
0000
0010
1000
1100
0000
0010
0001
1000
,
0100
0010
0100
0001
0100
1100
0011
0000
;

//---------------dance-single - NewbStepper-BSP----------------
#NOTES:
     dance-single:
     NewbStepper:
     Easy:
     7:
     0.250597,0.374547,0.142684,0.260189,0,209,192,17,31,0,0,0.250597,0.374547,0.142684,0.260189,0,209,192,17,31,0,0:
0000
0000
0000
0000
,
0000
0000
0000
0000
,
0000
0000
0000
0000
,
0000
0000
0000
0000
,
0010
0010
0010
0000
,
0001
0001
0001
0000
,
1000
1000
1000
0000
,
0100
0100
0100
0000
,
1001
0001
0100
0010
,
1000
0001
0010
0100
,
2000
0000
0002
3003
,
0220
0000
0330
0000
,
1001
0100
1000
0010
,
0001
0010
1000
0000
,
1001
1000
0100
0010
,
0002
0000
2000
3003
,
1001
0100
0001
0010
,
1000
0010
0001
0000
,
1001
0001
0100
0010
,
2000
0000
0002
3003
,
0100
0000
0100
0010
,
1000
0000
1000
0100
,
0010
0000
0001
0000
,
0100
0000
1001
0000
,
0100
0000
0100
0010
,
0001
0000
0001
0100
,
0010
0000
1000
0000
,
0100
0000
0010
0000
,
0002
0203
0320
2030
,
3200
0000
0010
0010
0310
0000
0110
0000
,
2000
3200
0320
0032
,
2003
0000
0002
3003
,
0020
0030
0200
0300
,
0002
0003
2000
3000
,
0010
0100
0010
0100
,
0110
0000
0000
1001
,
0020
0030
0200
0300
,
2000
3000
0002
0003
,
0010
0100
0010
0100
,
0220
0000
0000
0330
,
0001
0000
1000
0000
0100
0010
0100
0000
,
1000
0000
0001
0000
0100
0010
0100
0000
,
0001
0010
0100
1000
,
1100
0101
0110
1001
,
1000
0000
0010
0000
0100
0001
0100
0000
,
0010
1000
0001
0010
,
0001
0000
1000
0100
1000
0000
0001
0100
,
0001
0100
0010
1000
,
0001
0000
0100
0010
,
1000
0000
0010
0100
,
0001
0000
1000
0000
,
0100
0000
0010
0000
,
0001
0000
1000
0001
,
1000
0000
0100
0010
,
0100
0000
0010
0000
,
0110
0000
1001
0000
,
0001
0001
0010
0010
,
1000
1000
0100
0100
,
0001
0000
0010
0001
1000
0000
0010
1000
,
0002
0000
0000
0000
0000
0000
0003
1000
,
0000
1000
0000
0010
0000
0010
0000
0001
,
0000
0001
0000
0100
0000
0100
0000
1000
,
0000
0010
1000
0001
0000
0010
0001
2000
,
0000
0000
0000
0000
0000
0001
3001
0000
;

//---------------dance-double - NewbStepper-DDP----------------
#NOTES:
     dance-double:
     NewbStepper:
     Medium:
     11:
     0.407670,0.508314,0.235010,0.134291,0.008393,340,312,28,16,0,0,0.407670,0.508314,0.235010,0.134291,0.008393,340,312,28,16,0,0:
00000000
00000000
00000000
00000000
,
00000000
00000000
00000000
00000000
,
00000000
00000000
00000000
00000000
,
00000000
00000000
00000000
00000000
,
10000000
00000000
10000000
00000000
10000000
00000000
01000000
00010000
,
00001000
00000000
00001000
00000000
00001000
00000000
00000100
00000001
,
00001000
00001000
00010000
00010000
,
00100000
00000000
00100000
00000000
00100000
00000000
00100000
00010000
,
10000000
00000000
00000000
00000000
01000000
00000000
00000000
00000000
00100000
00000000
00000000
00000000
00010000
00000000
01000000
00001000
,
01000000
00000000
00000000
00000000
00010000
00000000
00000000
00000000
00001000
00000000
00000000
00000000
00000010
00000000
00000100
00000001
,
00000100
00000100
00000010
00000010
00010000
00010000
00001000
00001000
,
00100000
00010000
01000000
00100000
20000000
00000000
30010000
00000000
,
00200000
00000000
00310000
01000000
10000000
01000000
00010000
00001000
,
00000020
00000000
00001030
00000100
00000001
00000100
00001000
00010000
,
00200000
00000000
00310000
10000000
01000000
00010000
00001000
00000100
,
00000001
00001000
00001100
00000000
00001000
00000001
00000101
00000000
,
00000020
00000000
00001030
00000100
00000001
00000100
00001000
00010000
,
00200000
00000000
00310000
01000000
10000000
01000000
00010000
00001000
,
00000020
00000000
00001030
00000100
00000001
00000100
00001000
00010000
,
00100000
01000000
10000000
00100000
00010000
00000000
00011000
00000000
,
00001000
00000100
00000010
00000100
,
00000001
00000100
00001000
00010000
,
00100000
10000000
00010000
10000000
,
01000000
00010000
00011000
00000000
,
00010000
01000000
00100000
01000000
,
10000000
01000000
00010000
00001000
,
00000010
00000001
00001000
00000001
,
00000100
00001000
00011000
00000000
,
02010000
00000000
03100000
00000000
00001000
00010000
00100000
10000000
,
00010000
01000000
00100000
10000000
10100000
00000000
01010000
00000000
,
00101000
00010100
00000110
00001001
,
00000020
00000000
00000031
00000100
00002000
00000000
00013000
01000000
,
10000000
10000000
01000000
01000000
,
00010000
00000000
00010000
00000000
00001000
00000010
00000001
00000100
,
00000010
00000000
00000100
00001000
00010000
00000000
01000000
00010000
,
00002000
00000000
00000000
00000000
00003000
00000000
00001000
00000010
,
00000001
00000001
00000100
00000100
,
00001000
00000000
00001000
00000000
00010000
00100000
10000000
01000000
,
00100000
00000000
01000000
00010000
00001000
00000000
00000100
00001000
,
00020000
00000000
00000000
00030000
,
00100000
10000000
00100000
10000000
01000000
00010000
01000000
00010000
,
00001000
00000010
00001000
00000010
00000001
00000100
00000001
00000100
,
00001000
00000100
00000001
00001000
00000001
00000010
00001000
00010000
,
00200000
20300000
30020000
10030000
,
10010000
00000000
10000000
01000000
00100000
01000000
00010000
00001000
,
00000010
00000001
00000100
00000010
00001000
00000000
00000001
00000100
,
00001000
00000000
00010000
01000000
10000000
00000000
00010000
00100000
,
10000000
00000000
00100000
00000000
00010000
01000000
00001000
00000000
,
00011000
00010000
00100000
00010000
,
00001000
00000010
00000001
00000100
,
00000010
00001000
00000100
00010000
,
00001000
00000010
00001000
00010000
,
00100000
10000000
01000000
00100000
,
00010000
00001000
00000100
00001000
,
00000001
00000100
00001000
00000100
,
00000001
00000000
00001001
00000000
,
00000101
00000100
00001100
00001000
,
00011000
00000000
00010000
00000000
01000000
10000000
00100000
01000000
,
01010000
00000000
00100000
10000000
11000000
00000000
00100000
00010000
,
02000000
00000000
00000000
00000000
03000000
00000000
10010000
11000000
,
00000000
01000000
00000000
01010000
00000000
00010000
00000000
00011000
,
00000000
00001000
00000000
00000100
00000001
00000010
00000100
00001100
,
00000000
00000010
00000001
00000101
00000000
00000010
00001000
00000100
,
00010000
00001000
00100000
00010000
10000000
11000000
00110000
00000000
;

//---------------dance-double - NewbStepper-BDP----------------
#NOTES:
     dance-double:
     NewbStepper:
     Easy:
     7:
     0.244602,0.294287,0.109112,0.285369,0,204,191,13,34,0,0,0.244602,0.294287,0.109112,0.285369,0,204,191,13,34,0,0:
00000000
00000000
00000000
00000000
,
00000000
00000000
00000000
00000000
,
00000000
00000000
00000000
00000000
,
00000000
00000000
00000000
00000000
,
00000010
00000010
00000010
00000000
,
00001000
00001000
00001000
00000000
,
00010000
00010000
00010000
00000000
,
01000000
01000000
01000000
00000000
,
10010000
10000000
01000000
00100000
,
00010000
00001000
00000010
00000100
,
00000002
00000000
00002000
00003003
,
00000220
00000000
00000330
00000000
,
00001001
00000001
00000100
00001000
,
00010000
00100000
10000000
00000000
,
10010000
10000000
01000000
00100000
,
00020000
00000000
20000000
30030000
,
10010000
10000000
01000000
00010000
,
00001000
00000010
00000001
00000000
,
00001001
00000001
00000100
00000010
,
00002000
00000000
00000002
00003003
,
00000100
00000000
00000100
00000010
,
00001000
00000000
00001000
00000100
,
00000010
00000000
00001000
00000000
,
00010000
00000000
00011000
00000000
,
01000000
00000000
01000000
00100000
,
00010000
00000000
00010000
01000000
,
00100000
00000000
00010000
00000000
,
00001000
00000000
00000010
00000000
,
00000002
00000203
00000320
00002030
,
00023000
00000000
01000000
01000000
01030000
00000000
01100000
00000000
,
20000000
32000000
03200000
00320000
,
00032000
00000000
00000002
00003003
,
00000020
00000030
00000200
00000300
,
00002000
00003000
00020000
00030000
,
00100000
01000000
00100000
01000000
,
01100000
00000000
00000000
10010000
,
00200000
00300000
02000000
03000000
,
00020000
00030000
00002000
00003000
,
00000010
00000100
00000010
00000100
,
00000220
00000000
00000000
00000330
,
00001000
00000000
00000001
00000000
00000100
00000010
00000100
00000000
,
00000001
00000000
00001000
00000000
00000100
00000010
00000100
00000000
,
00010000
00001000
01000000
00100000
,
20000000
30020000
02030000
03000000
,
00010000
00000000
00100000
00000000
01000000
10000000
01000000
00000000
,
00010000
00001000
00000010
00000001
,
00001000
00000000
00000001
00000100
00000001
00000000
00001000
00000100
,
00001000
00000100
00010000
00001000
,
00100000
00000000
01000000
00100000
,
00010000
00000000
01000000
00100000
,
10000000
00000000
01000000
00000000
,
00010000
00000000
00001000
00000000
,
00000100
00000000
00000001
00001000
,
00000001
00000000
00000100
00000010
,
00000100
00000000
00000010
00000000
,
00000110
00000000
00001001
00000000
,
00000001
00000001
00000010
00000010
,
00001000
00001000
00010000
00010000
,
00100000
00000000
10000000
00010000
01000000
00000000
00010000
10000000
,
02000000
00000000
00000000
00000000
00000000
00000000
03000000
10000000
,
00000000
10000000
00000000
00100000
00000000
00100000
00000000
00010000
,
00000000
00010000
00000000
00001000
00000000
00001000
00000000
00000010
,
00000000
00000001
00001000
00000100
00000000
00001000
00000001
00000200
,
00000000
00000000
00000000
00000000
00000000
00000001
00000301
00000000
;
