#VERSION:0.83;
#TITLE:ORION.78 (B4 ZA BEAT MIX);
#ARTIST:Dynamite Grizzly;
#BANNER:ORION.78 (B4 ZA BEAT MIX).png;
#BACKGROUND:ORION.78 (B4 ZA BEAT MIX)-bg.png;
#JACKET:ORION.78 (B4 ZA BEAT MIX)-jacket.png;
#MUSIC:ORION.78 (B4 ZA BEAT MIX).ogg;
#OFFSET:-0.212;
#SAMPLESTART:69.17;
#SAMPLELENGTH:15;
#BPMS:0=170.530;

//---------------dance-single - forcednature-bSP----------------
#NOTEDATA:;
#CHARTNAME:forcednature-bSP;
#STEPSTYPE:dance-single;
#DESCRIPTION:forcednature-bSP;
#DIFFICULTY:Beginner;
#METER:5;
#CREDIT:forcednature;
#NOTES:
0000
0000
0000
0000
,
0000
0000
0000
0000
,
0000
0000
0000
0000
,
0000
0000
0000
0000
,
0000
0000
0000
0000
,
1000
0000
1000
0000
,
0001
0000
0001
0000
,
0100
0000
0100
0000
,
0110
0000
0000
0000
,
1001
0000
1000
0000
,
0001
0000
1000
0000
,
0010
0000
0100
0000
,
0010
0000
0100
0000
,
0000
0001
0000
1000
,
0000
0001
0000
1000
,
0000
0100
0000
0010
,
0001
1000
0001
1000
,
1001
0000
0000
0000
,
1000
0000
0000
0000
,
0001
0000
0000
0000
,
0100
0000
0000
0000
,
0010
0000
0000
0000
,
1000
0000
0000
0000
,
0001
0000
0000
0000
,
0010
0000
0000
0000
,
0110
0000
0100
0000
,
1000
0000
0100
0000
,
0010
0000
0001
0000
,
0010
0000
0100
0000
,
1000
0000
0001
0000
,
1000
0000
0010
0000
,
0100
0000
0001
0000
,
0010
0100
0010
0100
,
0000
1000
0000
1000
,
0000
0001
0000
0001
,
0000
0100
0010
0100
,
0000
0010
0000
0010
,
0000
1000
0000
1000
,
0000
0001
0000
0001
,
0000
0010
0100
0010
,
0000
0100
0000
0100
,
1000
1000
0000
1000
,
0000
0001
0000
0001
,
0000
0100
0100
0100
,
0000
0010
0000
0010
,
0000
1000
0000
0001
,
0000
0010
0000
0100
,
0000
1000
0001
1000
,
0010
0100
0010
0100
,
0000
0001
0000
0001
,
0000
1000
0000
1000
,
0000
0100
0010
0100
,
0000
0010
0100
0010
,
0000
0001
0000
0100
,
0000
0010
0000
1000
,
0000
0001
0000
0010
,
0000
0100
0000
1000
,
0000
0010
0000
0010
,
0000
0100
0000
0100
,
0000
0001
1000
0001
,
0000
1000
0001
1000
,
0000
0100
0000
0010
,
0000
0001
0000
1000
,
0000
0010
0000
0100
,
0001
1000
0001
1000
,
1001
0000
0000
0000
;

//---------------dance-single - Marten-BSP----------------
#NOTEDATA:;
#CHARTNAME:Marten-BSP;
#STEPSTYPE:dance-single;
#DESCRIPTION:Marten-BSP;
#DIFFICULTY:Easy;
#METER:8;
#CREDIT:Marten;
#NOTES:
0000
0000
0000
0000
,
0000
0000
0000
0000
,
0000
0000
0000
0000
,
0000
0000
0000
0000
,
0000
0000
0000
0000
,
1000
0100
0001
0000
,
0001
0100
1000
0000
,
0001
0010
1000
0100
,
1001
0000
0000
0110
0000
0000
1001
0000
,
0001
0000
0100
0001
0200
0000
0320
0000
,
2030
3002
0023
0030
,
0000
0002
2003
3020
,
0130
0001
0200
0000
0302
0000
0003
0000
,
1000
1010
0001
0011
,
1000
1100
0001
0101
,
1000
1001
0010
0110
,
1001
1001
1001
1001
,
0001
0010
0001
1000
,
0010
1000
0001
0100
,
0001
1000
0100
1000
,
0001
0010
1000
0001
,
0100
1000
0010
0001
,
1000
0100
0001
1000
,
0010
1000
0100
0010
,
0001
0100
0010
0100
,
0001
0000
0010
0000
0100
1000
0100
0000
,
1000
0000
0010
0000
0100
0001
0100
0000
,
0001
0000
0100
0000
0010
1000
0010
0000
,
1000
0000
0100
0000
0010
0001
0010
0000
,
0001
0000
1000
0000
0010
0100
0010
0000
,
1000
0000
0001
0000
0010
0100
0010
0000
,
0100
0000
0010
0000
0001
1000
0001
0000
,
1001
0000
0000
0110
0000
0000
1001
0000
,
0001
0001
0100
0100
,
1000
1000
0010
0010
,
0001
0100
0010
1000
,
0001
0010
0110
0000
,
1000
1000
0100
0100
,
0001
0001
0010
0010
,
1000
0100
0010
0001
,
0100
0010
0110
0000
,
0001
0001
0010
0010
,
1000
1000
0100
0100
,
0001
0010
0100
1000
,
0010
0100
0010
0000
0100
0100
0010
0000
,
1000
1000
0010
0010
,
0001
0001
0100
0100
,
1000
0010
0100
0001
,
1001
0000
0000
0110
0000
0000
1001
0000
,
1000
0000
0100
1000
0200
0000
0320
0000
,
0032
2003
3020
0030
,
0000
2000
3002
0023
,
0130
1000
0200
0000
2300
0000
3000
0000
,
0001
0011
1000
1010
,
0001
0101
1000
1100
,
0001
1001
0010
0110
,
1000
1001
0100
0110
,
0001
0000
0010
0100
0020
0000
0032
0000
,
2003
3020
0230
0310
,
1000
0010
2000
0000
3002
0000
0023
0000
,
0130
1000
0200
0000
2300
0000
3001
0000
,
0100
1010
0100
0011
,
0010
1100
0010
0101
,
0010
1001
0100
1001
,
0001
0001
0000
1000
1000
0000
0110
0000
,
1001
0000
0000
0000
;

//---------------dance-single - Marten-DSP----------------
#NOTEDATA:;
#CHARTNAME:Marten-DSP;
#STEPSTYPE:dance-single;
#DESCRIPTION:Marten-DSP;
#DIFFICULTY:Medium;
#METER:12;
#CREDIT:Marten;
#NOTES:
0000
0000
0000
0000
,
0000
0000
0000
0000
,
0000
0000
0000
0000
,
0000
0000
0000
0000
,
0000
0000
0000
0000
,
0001
0100
0001
0000
1000
0100
1000
0000
,
0001
0010
0001
0000
1000
0010
1000
0000
,
0100
0010
0001
0000
0100
0010
1000
0000
,
0100
0001
0100
1000
1001
0000
0110
0000
,
1010
0000
1000
0100
0020
0000
0032
0000
,
0203
2300
3200
0301
,
1000
0100
0020
0000
2030
0000
3020
0000
,
0031
1000
0020
0000
0230
0000
0301
0000
,
1000
0100
0010
0000
0001
0100
0010
0000
,
1000
0010
0100
0000
0001
0010
0100
0000
,
1000
0100
0001
0000
1000
0010
0001
0000
,
0011
1010
0101
1100
,
1000
0100
0001
0100
1000
0001
0100
0000
,
0001
0100
1000
0100
0001
1000
0100
0000
,
0010
0001
0100
0010
0001
0010
1000
0000
,
0010
1000
0100
0010
1000
0010
0001
0000
,
0100
0010
1000
0100
0001
0100
0010
0000
,
0100
0010
0001
0100
1000
0100
0010
0000
,
1000
0010
0001
0010
0100
0001
1000
0000
,
0001
0010
1000
0010
0100
1000
0001
0000
,
1000
0001
0000
0001
0100
0001
0000
0001
,
1000
0001
0000
0001
0010
0001
0000
0001
,
0001
1000
0000
1000
0100
1000
0000
1000
,
0001
1000
0000
1000
0010
1000
0000
1000
,
1000
0010
0000
0010
1000
0010
0000
0010
,
0100
0010
0000
0010
0001
0010
0000
0010
,
1000
0100
0000
0100
0010
0100
0000
0100
,
0001
0100
1000
0001
0100
1000
0100
0001
,
1000
0000
0001
0100
0000
0001
0010
0000
0001
0100
0000
0001
,
1000
0000
0100
1000
0000
0010
1000
0000
0100
1000
0000
0001
,
0010
0000
0010
0100
0000
0100
1000
0000
1000
0010
0000
0010
,
0100
0000
0000
0000
0100
0000
0001
0000
0000
0000
0000
0000
1000
0000
0000
0001
0000
0000
1001
0000
0000
0000
0000
0000
,
0001
0000
1000
0100
0000
1000
0010
0000
1000
0100
0000
1000
,
0001
0000
0100
0001
0000
0010
0001
0000
0100
0001
0000
1000
,
0010
0000
0010
0100
0000
0100
0001
0000
0001
0010
0000
0010
,
0100
0000
0000
0000
0100
0000
1000
0000
0000
0000
0000
0000
0001
0000
0000
1000
0000
0000
1001
0000
0000
0000
0000
0000
,
1000
0000
0100
0010
0000
0001
1000
0000
0010
0100
0000
0001
,
1000
0000
0100
0010
0000
0001
1000
0000
0010
0100
0000
0001
,
0010
0000
0010
0001
0000
0001
1000
0000
1000
0010
0000
0010
,
0100
0000
0000
0000
0100
0000
0001
0000
0000
0000
0000
0000
0010
0000
0000
0001
0000
0000
0100
0000
0000
0100
0000
0000
,
0001
0000
0100
0010
0000
1000
0001
0000
0010
0100
0000
1000
,
0001
0000
0100
0010
0000
1000
0001
0000
0010
0100
0000
1000
,
0010
0000
0010
1000
0000
1000
0001
0000
0001
0010
0000
0010
,
0100
1000
0001
0000
1001
0000
0110
0000
,
0011
0000
0001
0100
0020
0000
2030
0000
,
3200
0302
0203
1300
,
0001
0100
0020
0000
0032
0000
0023
0000
,
1030
0001
0020
0000
0230
0000
1300
0000
,
0001
0100
0010
0000
1000
0100
0010
0000
,
0001
0010
0100
0000
1000
0010
0100
0000
,
0001
0100
1000
0000
0001
0010
1000
0000
,
1010
0011
1100
0101
,
0001
0100
0010
1000
0020
0000
0032
0000
,
0023
2030
3200
0301
,
0100
1000
0020
0000
0230
0000
2300
0000
,
3100
0001
2000
0000
3002
0000
1003
0000
,
0100
0010
0001
0010
0100
1000
0001
1000
,
0010
0100
0010
1000
0100
0010
0001
0100
,
0010
0100
0001
0010
0100
1000
0001
0000
,
1000
0100
0001
1000
0010
0001
1000
0000
,
1001
0000
0000
0000
;

//---------------dance-single - Marten-ESP----------------
#NOTEDATA:;
#CHARTNAME:Marten-ESP;
#STEPSTYPE:dance-single;
#DESCRIPTION:Marten-ESP;
#DIFFICULTY:Hard;
#METER:14;
#CREDIT:Marten;
#NOTES:
0000
0000
0000
0000
,
0000
0000
0000
0000
,
0000
0000
0000
0000
,
0000
0000
0000
0000
,
0000
0000
0000
0000
,
1000
0001
0010
0000
1000
0010
0100
0000
,
0001
0100
1000
0000
0010
0100
1000
0000
,
0100
0001
0010
0000
1000
0010
0001
0000
,
1000
0000
0010
1000
0010
0000
0100
0000
0001
0010
0001
0000
0100
0000
0010
1000
,
0100
0000
1000
0010
0001
0010
2000
0000
,
3001
0010
2000
0000
3001
0100
2000
0000
,
3001
0000
0100
1000
0100
0001
0020
0000
,
1030
0010
0002
0000
0103
0010
0001
0010
,
1000
0100
0011
0000
0001
0100
1010
0000
,
1000
0010
0101
0000
0001
0010
1100
0000
,
1000
0001
0110
0000
0001
1000
0110
0000
,
1010
1000
1001
0001
0011
0010
0110
0000
,
0100
1000
0010
1000
0001
0010
0100
1000
,
0001
0100
0010
0001
0010
1000
0100
0010
,
0001
0010
1000
0010
0100
1000
0001
0100
,
0010
0001
0010
0100
1000
0100
0001
0010
,
0100
0001
0100
1000
0010
0100
0001
0010
,
0100
1000
0010
0001
1000
0100
0001
0010
,
0100
0001
1000
0010
0100
1000
0001
0100
,
0010
0001
1000
0100
0010
1000
0001
0000
,
1000
0000
0100
1000
0100
0000
0010
0000
0001
0000
0100
0001
0100
0000
0010
0000
,
1000
0000
0001
0010
0001
0000
0100
0000
0010
0000
1000
0010
1000
0000
0100
0000
,
0010
0000
0001
1000
0001
0000
0100
0000
0010
0000
1000
0001
1000
0000
0100
0000
,
0010
0000
0100
0010
0100
0000
1000
0000
0010
0000
0100
0010
0100
0000
0001
0000
,
1000
0000
0100
0010
0001
0000
1000
0000
0001
0000
0100
0010
1000
0000
0001
0000
,
1000
0000
0010
0100
0001
0000
1000
0000
0001
0000
0010
0100
1000
0000
0001
0000
,
1000
0000
0100
1000
0001
0000
0100
0000
0010
0000
0100
0001
1000
0000
0100
0000
,
1000
0000
0001
0100
0001
0000
0010
0000
0100
1000
0100
0000
0010
0000
0100
1000
,
0010
0000
0010
1000
0000
1000
0001
0000
0001
0010
0000
0100
,
0010
0000
0010
0001
0000
0001
1000
0000
1000
0010
0000
1000
,
0100
0000
0001
0100
0000
1000
0010
0000
0001
0010
0000
0100
,
0010
0000
0000
0000
1000
0000
0001
0000
0000
0000
0000
0000
0100
0000
0000
0010
0000
0000
1001
0000
0000
0000
0000
0000
,
0100
0000
0100
0001
0000
0001
1000
0000
1000
0100
0000
0010
,
0100
0000
0100
1000
0000
1000
0001
0000
0001
0100
0000
0001
,
0010
0000
1000
0010
0000
0001
0100
0000
1000
0100
0000
0010
,
0100
0000
0000
0000
0001
0000
1000
0000
0000
0000
0000
0000
0100
0000
0000
0010
0000
0000
1001
0000
0000
0000
0000
0000
,
0001
0000
0100
1000
0000
0100
0001
0000
0010
0100
0000
0100
,
1000
0000
0100
0001
0000
0100
1000
0000
0010
0100
0000
0100
,
0001
0000
0001
0010
0000
0010
1000
0000
1000
0100
0000
0100
,
0001
0000
0000
0000
0000
0000
0000
0000
1000
0000
0000
0000
0001
0000
0000
0000
0000
0000
0000
0000
0000
0000
0000
0000
1000
0000
0000
0010
0000
0000
0100
0000
0000
0000
0000
0000
0001
0000
0000
0000
0000
0000
0010
0000
0000
0100
0000
0000
,
1000
0000
0010
0001
0000
0010
1000
0000
0100
0010
0000
0010
,
0001
0000
0010
1000
0000
0010
0001
0000
0100
0010
0000
0010
,
1000
0000
1000
0010
0000
0010
0001
0000
0001
0100
0000
0100
,
1000
0000
0001
1000
0001
0000
0010
0000
0110
0000
0000
0000
1001
0000
0000
0000
,
0100
0000
0001
0010
1000
0010
0002
0000
,
1003
0010
0002
0000
1003
0100
0002
0000
,
1003
0000
0100
0001
0100
1000
0020
0000
,
0031
0010
2000
0000
3100
0010
1000
0010
,
0001
0100
1010
0000
1000
0100
0011
0000
,
0001
0010
1100
0000
1000
0010
0101
0000
,
0001
1000
0110
0000
1000
0001
0110
0000
,
0011
0001
1001
1000
1010
0010
0110
0000
,
0010
0000
1000
0100
0010
0000
0001
0000
0100
0000
1000
0000
0200
0000
0000
0000
,
0301
0000
0010
0000
0200
0000
0000
0000
0302
0000
0000
0000
0103
0000
1000
0010
,
0100
0001
0020
0000
2030
0000
3020
0000
,
0031
1000
0020
0000
0230
0000
0301
0000
,
0001
0100
0011
0001
1000
0100
1010
0100
,
1000
0010
1100
0100
0001
0010
0101
0100
,
1000
0010
1001
0100
0001
0010
1001
0100
,
1000
0000
0010
1000
0100
0000
0100
0000
0010
0001
0100
0000
0100
0000
0010
1000
,
0001
0000
0000
0000
;

//---------------dance-double - forcednature-BDP----------------
#NOTEDATA:;
#CHARTNAME:forcednature-BDP;
#STEPSTYPE:dance-double;
#DESCRIPTION:forcednature-BDP;
#DIFFICULTY:Easy;
#METER:8;
#CREDIT:forcednature;
#NOTES:
00000000
00000000
00000000
00000000
,
00000000
00000000
00000000
00000000
,
00000000
00000000
00000000
00000000
,
00000000
00000000
00000000
00000000
,
00000000
00000000
00000000
00000000
,
00001000
00000000
00010000
00000000
,
00001000
00000000
00010000
00000000
,
00100000
00100000
01000000
01000000
,
01100000
00000000
00010000
00000000
10000000
01000000
10000000
00000000
,
00100000
00020000
00032000
00203000
,
00320000
02030000
03002000
00003000
,
00010000
00000200
00002300
00003002
,
00000103
00000010
00000200
00000000
00002300
00000000
00003000
00000000
,
00010000
01001000
00010000
00101000
,
00010000
01001000
00010000
00101000
,
00001000
00010100
00001000
00010010
,
00001100
00001100
00000011
00000011
,
00001001
00001000
00000010
00001000
,
00000100
00001000
00000010
00001000
,
00010000
01000000
00010000
00100000
,
00010000
01000000
00010000
00100000
,
01000000
10000000
01000000
00010000
,
01000000
10000000
01000000
00010000
,
00001000
00000100
00000001
00000100
,
00001000
00000100
00000001
00000100
,
00000110
00000000
00000010
00000000
00001000
00000001
00001000
00000000
,
00000100
00000000
00010000
00000000
00001000
01000000
00001000
00000000
,
00100000
00000000
00010000
00000000
01000000
00100000
01000000
00000000
,
00010000
00000000
10000000
00000000
01000000
00100000
01000000
00000000
,
10000000
00000000
00010000
00000000
01000000
00001000
01000000
00000000
,
00010000
00000000
00100000
00000000
00001000
00010000
00001000
00000000
,
00000010
00000000
00000100
00000000
00001000
00000001
00001000
00000000
,
00000110
00000001
00000001
00001000
,
00000001
00000001
00000100
00000100
,
00000010
00000010
00001000
00001000
,
00010000
01000000
00100000
10000000
,
00010000
01000000
00100000
00000000
,
10000000
10000000
01000000
01000000
,
00100000
00100000
00010000
00010000
,
00001000
00000100
00000010
00000001
,
00001000
00000100
00000010
00000000
,
00000001
00000000
00000001
00000100
00000000
00000000
00000010
00000000
00000010
00001000
00000000
00000000
,
00000100
00000000
00000100
00010000
00000000
00000000
00001000
00000000
00001000
00100000
00000000
00000000
,
00010000
00000000
00010000
01000000
00000000
00000000
00100000
00000000
00100000
10000000
00000000
00000000
,
01000000
00100000
01000000
00000000
,
10000000
00000000
10000000
01000000
00000000
00000000
00100000
00000000
00100000
00010000
00000000
00000000
,
01000000
00000000
01000000
00001000
00000000
00000000
00010000
00000000
00010000
00000010
00000000
00000000
,
00001000
00000000
00001000
00000100
00000000
00000000
00000010
00000000
00000010
00000001
00000000
00000000
,
00001001
00000000
00001000
00000000
00000001
00000100
00000001
00000000
,
00000010
00000000
00000100
00001000
00000200
00000000
00020300
00000000
,
00032000
02003000
03020000
00030000
,
00100000
02000000
23000000
32000000
,
03010000
00001000
00020000
00000000
00030020
00000000
00000030
00000000
,
00001000
00010100
00001000
00010010
,
00001000
00010100
00001000
00010010
,
00010000
01001000
00010000
00101000
,
00010000
01001000
00010000
00101000
,
00011000
00000000
00000100
00001000
00000200
00000000
00000320
00000000
,
00000032
00002003
00003020
00000030
,
00000100
00002000
00023000
00230000
,
01300000
00010000
02000000
00000000
03002000
00000000
00003000
00000000
,
00010000
01001000
00010000
00001100
,
00010000
01001000
00010000
00001100
,
00001000
00010100
00001000
01010000
,
10100000
00000000
10000000
00010000
10000000
00000000
01000000
00000000
,
00110000
00000000
00000000
00000000
;

//---------------dance-double - forcednature-DDP----------------
#NOTEDATA:;
#CHARTNAME:forcednature-DDP;
#STEPSTYPE:dance-double;
#DESCRIPTION:forcednature-DDP;
#DIFFICULTY:Medium;
#METER:12;
#CREDIT:forcednature;
#NOTES:
00000000
00000000
00000000
00000000
,
00000000
00000000
00000000
00000000
,
00000000
00000000
00000000
00000000
,
00000000
00000000
00000000
00000000
,
00000000
00000000
00000000
00000000
,
00001000
00000000
00010000
00000000
,
00001000
00000000
00000000
00000000
00010000
00000000
00000000
00000100
,
00001000
00000001
00000000
00000001
00000000
00000001
00000000
00000001
,
00000100
00000000
00000010
00000000
00000000
00000010
00000000
00000000
00001000
00000000
00000100
00000000
00000010
00000000
00000000
00000000
,
00001001
00000000
00001000
00000010
00020000
00000000
00032000
00000000
,
00203000
00320000
02030000
13000000
,
01010000
00002000
00023000
00030020
,
00002030
00003200
00000302
00000000
00000203
00000000
00010300
00000000
,
00001010
00000000
00000001
00000100
00002000
00000000
00023000
00000000
,
00230000
02300000
03002000
00103000
,
01010000
20000000
30020000
00031000
,
00000110
00000000
00001001
00000000
00000001
00000100
00001000
00000000
,
00011000
00000000
01000000
00010000
00100000
00000000
00001000
00010000
,
00000010
00000000
00001000
00000100
00000010
00000000
00000100
00010000
,
00001000
00000000
01000000
00010000
00100000
00000000
01000000
10000000
,
00010000
01001000
00010000
01001000
,
10100000
00000000
10000000
01000000
00010000
00000000
00001000
01000000
,
00010000
00000000
00100000
00001000
00010000
00000000
00000010
00010000
,
00001000
00000000
00000010
00000100
00001000
00000000
00000001
00000100
,
00000010
00001100
00000010
00001100
,
00000001
00000010
00000001
00000100
00000001
00000010
00001000
00000000
,
00010000
00100000
01000000
00100000
10000000
01000000
00010000
00000000
,
00001000
01000000
00010000
00100000
00001000
00010000
00100000
00000000
,
01000000
00011000
01000000
00011000
,
00100000
00010000
01000000
00001000
00010000
00000010
00001000
00000000
,
00000100
00000001
00000100
00001000
00000010
00010000
00001000
00000000
,
00000100
00000010
00000001
00000010
00001000
00000100
00010000
00000000
,
00001000
00000000
01000000
00000000
00000000
01000000
00000000
00000000
00010000
00000000
00000000
00010000
00100000
00000000
01000000
00000000
,
10000000
00000000
10000000
01000000
00000000
01000000
00100000
00000000
00100000
00010000
00000000
00010000
,
00001000
00000000
00001000
00000100
00000000
00000100
00000010
00000000
00000010
00000001
00000000
00000001
,
00000100
00000000
00000100
00001000
00000000
00001000
00000100
00000000
00000100
00000001
00000000
00000001
,
00000010
00000110
00000100
00000110
,
00000001
00000000
00000001
00000100
00000000
00000100
00000010
00000000
00000010
00001000
00000000
00001000
,
00010000
00000000
00010000
01000000
00000000
01000000
00100000
00000000
00100000
10000000
00000000
10000000
,
01000000
00000000
01000000
00010000
00000000
00010000
01000000
00000000
01000000
10000000
00000000
10000000
,
00100000
01100000
01000000
01100000
,
10000000
00000000
10000000
01000000
00000000
01000000
00010000
00000000
00010000
00001000
00000000
00001000
,
00000100
00000000
00000100
00000001
00000000
00000001
00000010
00000000
00000010
00000100
00000000
00000100
,
00001000
00000000
00000010
00000100
00000000
00000010
00000001
00000000
00000010
00000100
00000000
00000010
,
00001000
00000110
00000001
00000110
,
00000001
00000000
00000001
00000100
00000000
00000100
00001000
00000000
00001000
00010000
00000000
00010000
,
01000000
00000000
01000000
10000000
00000000
10000000
00100000
00000000
00100000
01000000
00000000
01000000
,
00010000
00000000
00100000
01000000
00000000
00100000
10000000
00000000
00100000
01000000
00000000
00100000
,
00010000
00000000
01000000
00000000
00000000
01000000
00000000
00000000
00100000
00000000
10000000
00000000
00010000
00000000
00000000
00000000
,
00110000
00000000
01000000
10000000
01000000
00010000
00001000
00000000
,
01000000
00010000
00100000
00001000
00020000
00000000
00030010
00000000
,
00001000
00001100
00000110
00000011
,
00000001
00000100
00001000
00010000
00000200
00000000
00001300
00000000
,
00000110
00000000
00000001
00000100
00001000
00010000
00000010
00000000
,
00001000
00000100
00010000
00001000
02000000
00000000
03010000
00000000
,
00100000
11000000
01010000
00011000
,
01000000
00010000
00100000
00001000
00010000
00000010
00001000
00000100
,
00000010
00000000
00001000
00010000
00100000
01000000
00010000
00000000
,
00100000
01000000
10000000
01000000
00020000
00000000
00031000
00000000
,
01000000
00010100
00011000
01001000
,
10000000
01000000
00100000
00001000
00020000
00000000
00030010
00000000
,
00001100
00000000
00000001
00000100
00000010
00001000
00000100
00000000
,
00000010
00001000
00010000
00001000
02000000
00000000
03010000
00000000
,
00100000
11000000
00110000
00001100
,
00000001
00000000
00000100
00000000
00000000
00000100
00000000
00000000
00000010
00000000
00001000
00000000
00010000
00000000
01000000
00000000
,
00100000
00000000
00000000
00000000
;

//---------------dance-double - forcednature-EDP----------------
#NOTEDATA:;
#CHARTNAME:forcednature-EDP;
#STEPSTYPE:dance-double;
#DESCRIPTION:forcednature-EDP;
#DIFFICULTY:Hard;
#METER:14;
#CREDIT:forcednature;
#NOTES:
00000000
00000000
00000000
00000000
,
00000000
00000000
00000000
00000000
,
00000000
00000000
00000000
00000000
,
00000000
00000000
00000000
00000000
,
00000000
00000000
00000000
00000000
,
00001000
00010000
00001000
01000000
,
00001000
00000000
00100000
00000000
00010000
00000000
10000000
01000000
,
00000000
00100000
00000000
00100000
00000000
00100000
00000000
00100000
,
00010000
00000000
01000000
00001000
00000000
00001000
00010000
00000000
00000100
00001000
00000100
00000010
00000001
00000000
00001000
00000010
,
00000100
00000001
00000010
00000001
00000100
00001000
00010000
00000000
,
00100000
10000000
01000000
10000000
00100000
00010000
00001000
00000000
,
00100000
00010000
01000000
00001000
00010000
00000100
00001000
00000010
,
00010000
00001000
00000010
00000100
00001000
00000001
00000100
00000000
,
00000010
00001000
00010000
00000000
01000000
00001000
00010000
00001000
,
00100000
00010000
00001000
00000000
00000100
00010000
00001000
00010000
,
00000010
00000100
00002000
00000000
00023000
00000000
01030000
00000000
,
01100000
00100000
00101000
00001000
00011000
00010000
00010010
00000000
,
00000101
00000000
00000001
00001000
00000100
00000010
00001000
00010000
,
00000010
00000000
00000100
00001000
00010000
00001000
00100000
00010000
,
01000000
00000000
00100000
10000000
01000000
00100000
00010000
01000000
,
00001000
00000000
00010000
00100000
01000000
00100000
10000000
00010000
,
00100000
00000000
01000000
00010000
00001000
00010000
00000010
00001000
,
00000100
00000000
00000010
00000001
00001000
00000001
00000100
00001000
,
00010000
00000000
00000100
00001000
00000010
00010000
00001000
00100000
,
00010000
01010000
10000000
01010000
,
10000000
01000000
00010000
01000000
00100000
00001000
00010000
00001000
,
00000100
00000001
00000100
00000010
00010000
00000100
00010000
00001000
,
01000000
00010000
00100000
00010000
01000000
10000000
01000000
00010000
,
10000000
00100000
00010000
00100000
01000000
00001000
00010000
00001000
,
00000010
00000100
00000001
00000100
00001000
00000010
00000001
00000010
,
00000100
00001000
00010000
00001000
00100000
00010000
00100000
01000000
,
10000000
00100000
01000000
00100000
00010000
00001000
00010000
00000010
,
00001000
00000000
00000100
00000010
00000000
00000010
00000001
00000000
00000100
00000001
00000100
00000010
00001000
00000000
00000100
00010000
,
00001000
00000000
00001000
01000000
00000000
01000000
00010000
00000000
00010000
00100000
00000000
00100000
,
01000000
00000000
01000000
00010000
00000000
00010000
00001000
00000000
00001000
00000100
00000000
00000100
,
00000001
00000000
00000010
00001000
00000000
00000010
00000001
00000000
00000010
00001000
00000000
00000010
,
00000001
00000000
00000001
00000100
00000000
00000000
00000010
00000000
00000000
00001100
00000000
00000000
,
00000010
00000000
00000010
00010000
00000000
00010000
00001000
00000000
00001000
00000100
00000000
00000100
,
00010000
00000000
00010000
01000000
00000000
01000000
00100000
00000000
00100000
10000000
00000000
10000000
,
00010000
00000000
00100000
10000000
00000000
00100000
00010000
00000000
00100000
10000000
00000000
00100000
,
00010000
00000000
00010000
01000000
00000000
00000000
00001000
00000000
00000000
00010100
00000000
00000000
,
00000010
00000000
00000010
00001000
00000000
00001000
00010000
00000000
00010000
01000000
00000000
01000000
,
00100000
00000000
00100000
10000000
00000000
10000000
01000000
00000000
01000000
00010000
00000000
00010000
,
00001000
00000000
00000100
00010000
00000000
00000100
00000001
00000000
00000100
00010000
00000000
00000100
,
00000001
00000000
00000001
00000010
00000000
00000000
00000100
00000000
00000000
00010010
00000000
00000000
,
00000100
00000000
00000100
00010000
00000000
00010000
00001000
00000000
00001000
00100000
00000000
00100000
,
01000000
00000000
01000000
10000000
00000000
10000000
00010000
00000000
00010000
00100000
00000000
00100000
,
00001000
00000000
01000000
10000000
00000000
01000000
00001000
00000000
01000000
10000000
00000000
01000000
,
00001000
00000000
00010000
00100000
00000000
00100000
01000000
00000000
00100000
10000000
00010000
10000000
01000000
00000000
00100000
00001000
,
00010000
00000100
00001000
00000010
00000100
00001000
00010000
00000000
,
00001000
00000010
00000001
00000010
00000100
00010000
00001000
00000000
,
01000000
00010000
01000000
10000000
01000000
00100000
10000000
00010000
,
00100000
01000000
00010000
00001000
01000000
00010000
00100000
00000000
,
00001000
00010000
00000010
00010000
00001000
00000010
00000100
00000000
,
00001000
00000001
00000100
00001000
00010000
00100000
01000000
00000000
,
00010000
10000000
01000000
00010000
00001000
00010000
00100000
01000000
,
00010000
00100000
01000000
00010000
00001000
00000000
00000110
00000000
,
00000001
00000000
00000100
00000010
00001000
00000000
00000001
00000000
00000010
00000000
00000100
00000000
00010000
00000000
00000000
00000000
,
00001000
00000000
01000000
00010000
00100000
00000000
01000000
00000000
10000000
00000000
01000000
00000000
00010000
00000000
00000000
00000000
,
00001000
00000000
00100000
00010000
01000000
00000000
00100000
00000000
10000000
00000000
00010000
00100000
01000000
00000000
00010000
00000000
,
00001000
00000000
00010000
00000010
00001000
00000000
00000100
00000000
00000010
00000000
00000001
00000000
00000100
00000000
00000000
00000000
,
00000010
00000000
00010000
00000100
00001000
00000000
00000001
00000000
00000100
00000000
00001000
00000000
00010000
00000000
00001000
00000000
,
00100000
00000000
00010000
10000000
00100000
00000000
01000000
00000000
00010000
00000000
10000000
00000000
01000000
00000000
00010000
00000000
,
00001000
00000000
00100000
00010000
01000000
00000000
00001000
00000000
00010000
00000000
00000010
00001000
00000100
00000000
00000010
00000000
,
00000110
00000000
00000100
00001000
00000000
00001000
00000001
00000000
00000100
00000001
00000100
00000010
00001000
00000000
00000100
00010000
,
00001000
00000000
00000000
00000000
;
