#VERSION:0.83;
#TITLE:Northern Wind;
#ARTIST:Nhato;
#BANNER:Northern Wind.png;
#BACKGROUND:Northern Wind-bg.png;
#JACKET:Northern Wind-jacket.png;
#MUSIC:Northern Wind.ogg;
#OFFSET:0.975;
#SAMPLESTART:90.225;
#SAMPLELENGTH:15;
#BPMS:0=150;

//---------------dance-single - NewbStepper-ESP----------------
#NOTEDATA:;
#CHARTNAME:NewbStepper-ESP;
#STEPSTYPE:dance-single;
#DESCRIPTION:NewbStepper-ESP;
#DIFFICULTY:Hard;
#METER:13;
#RADARVALUES:0.611516,0.803532,0.293528,0.105996,0.370986,525,489,36,13,0,0,0,0,0,0.611516,0.803532,0.293528,0.105996,0.370986,525,489,36,13,0,0,0,0,0;
#CREDIT:NewbStepper;
#NOTES:
// measure 0
0000
0000
0000
0000
,  // measure 1
2100
0000
0000
0000
3000
0010
0100
0001
,  // measure 2
0011
0000
0000
0010
0000
0000
0001
0000
1001
0000
0000
0000
0000
0000
0000
0000
,  // measure 3
0102
0000
0000
0000
0000
0000
0000
0000
0000
0000
0003
0000
0100
0010
0100
0000
,  // measure 4
0101
0000
0000
0001
0000
0000
1000
0000
1001
0000
0000
0000
0000
0000
0000
0000
,  // measure 5
2020
3030
0202
0303
,  // measure 6
0011
0000
0000
0001
0000
0000
0100
0000
0110
0000
0000
0000
0000
0000
0000
0000
,  // measure 7
2002
0000
0000
0000
,  // measure 8
0000
0000
0000
0000
3003
0000
0000
0000
0000
0000
1000
0001
0010
0000
0000
0000
,  // measure 9
0001
0000
0010
0000
0001
0000
0010
0000
0001
0000
0100
0010
1000
0000
0010
0000
,  // measure 10
1000
0100
0010
0001
0100
0010
1000
0000
,  // measure 11
1000
0000
0010
0000
1000
0000
0010
0000
1000
0000
0100
0010
0001
0000
0010
0000
,  // measure 12
0001
0100
0010
1000
0100
0010
0001
0000
,  // measure 13
0101
0100
0010
1000
0001
0100
0010
1000
,  // measure 14
0001
0100
1000
0100
0001
1000
0100
0010
,  // measure 15
0001
0100
0001
0000
0100
0010
0100
0000
0010
1000
0010
0000
1000
0100
1000
0000
,  // measure 16
0001
0100
0001
0100
0001
0100
0001
0100
0001
0100
0001
0100
0010
0000
0000
0000
,  // measure 17
1010
0000
1000
0100
0000
0000
0001
0000
0100
0000
1000
0010
0000
0000
0100
0000
,  // measure 18
0000
0001
0000
0000
0010
0000
0000
0110
0000
0000
1001
0000
0000
0000
0000
0000
,  // measure 19
0011
0000
0001
0100
0000
0000
1000
0000
0100
0000
0001
0010
0000
0000
0100
0000
,  // measure 20
0000
1000
0000
0000
0010
0000
0000
0110
0000
0000
1001
0000
0100
0000
0010
0000
,  // measure 21
0100
0001
0100
1000
0100
0001
0010
0100
,  // measure 22
1000
0010
0001
0010
1000
0100
0011
0000
,  // measure 23
0100
1000
0100
0001
0100
1000
0010
0100
,  // measure 24
0001
0010
0001
0010
0100
0000
0000
1000
0000
0000
0010
0000
1001
0000
0000
0000
,  // measure 25
1000
0000
0100
0010
0100
0000
1000
0000
0001
0000
0100
0010
0100
0000
0001
0000
,  // measure 26
1000
0100
0010
0001
1000
0000
0000
0010
0000
0000
0010
0000
0100
0000
0000
0000
,  // measure 27
0001
0000
0100
0010
0100
0000
0001
0000
1000
0000
0100
0010
0100
0000
1000
0000
,  // measure 28
0001
0100
0010
1000
0001
0000
0000
0010
0000
0000
0010
0000
0100
0000
0010
0000
,  // measure 29
0001
0000
1000
0100
0010
0000
0001
0000
0100
0000
0001
0100
0010
0000
1000
0000
,  // measure 30
0100
0010
0100
0000
1000
0000
0000
0001
0000
0000
0011
0000
1000
0000
0100
0000
,  // measure 31
1000
0000
0001
0100
0010
0000
1000
0000
0100
0000
1000
0100
0010
0000
0001
0000
,  // measure 32
0100
0010
0100
0000
0001
0000
0000
1000
0000
0000
0010
0000
0100
0001
0100
0001
,  // measure 33
1000
0000
0000
1000
0000
0000
0010
0000
0100
0000
0000
0100
0000
0000
0001
0000
,  // measure 34
0000
0001
0000
0000
0010
0000
0000
0010
0000
0000
0110
0000
0000
0000
0000
0000
,  // measure 35
0001
0000
0000
0001
0000
0000
0010
0000
0100
0000
0000
0100
0000
0000
1000
0000
,  // measure 36
0000
1000
0000
0000
0010
0000
0000
0010
0000
0000
0110
0000
0000
0000
0000
0000
,  // measure 37
2000
0000
3002
0000
,  // measure 38
0203
0000
0000
0000
0000
0000
0000
0000
0310
0000
1000
0000
0001
0010
0002
0000
,  // measure 39
0000
0000
0000
0000
,  // measure 40
0003
0000
0000
0000
,  // measure 41
1001
0000
0000
0000
0100
0000
0000
0010
0000
0000
1000
0000
0100
0000
0000
0100
,  // measure 42
0010
0000
0001
0000
0100
0010
0100
0000
,  // measure 43
1001
0000
0000
0000
0100
0000
0000
0010
0000
0000
0001
0000
0100
0000
0000
0100
,  // measure 44
0010
1000
0010
0000
0100
0001
0100
0000
,  // measure 45
0010
1000
0010
0000
0100
0001
0100
0000
,  // measure 46
0001
0010
0001
0000
1000
0010
1000
0000
,  // measure 47
0001
0100
0010
1000
,  // measure 48
0100
0000
0100
0000
0100
0010
0110
0000
,  // measure 49
1000
1000
0010
0010
,  // measure 50
0100
0100
1010
0011
,  // measure 51
0001
0001
0010
0010
,  // measure 52
0100
0100
1010
0011
,  // measure 53
0100
0001
0010
0000
0100
1000
0010
0000
,  // measure 54
0100
0100
0010
0010
1000
0001
0100
0000
,  // measure 55
0010
1000
0010
0000
0100
0001
0100
0000
0001
0010
0001
0000
1000
0010
1000
0000
,  // measure 56
0001
0100
0001
0100
0010
0100
0010
0100
0000
0000
0010
1000
0001
0000
0000
0000
,  // measure 57
1000
0000
0000
1000
0100
0000
0000
0100
0010
0000
0001
0000
0100
0000
1000
0000
,  // measure 58
0100
0001
0010
0100
1000
0010
0110
0000
,  // measure 59
0001
0000
0000
0001
0100
0000
0000
0100
0010
0000
1000
0000
0100
0000
0001
0000
,  // measure 60
0100
1000
0010
0100
0010
0001
0010
0000
,  // measure 61
1000
0100
1000
0100
0010
0001
0010
0001
,  // measure 62
0100
0000
1000
0000
0100
0000
0001
0000
0010
0000
1000
0000
0010
0001
0200
0000
,  // measure 63
0010
0000
0000
0000
0310
0000
0000
0000
1010
0000
0000
0101
0000
0000
1001
0000
,  // measure 64
1000
0100
1000
0000
0010
0000
0000
0000
0100
0001
0100
0000
0010
0000
0000
0000
,  // measure 65
1000
0000
0010
1000
0010
0000
0100
0000
0001
0000
0010
0001
0010
0000
0100
0000
,  // measure 66
1000
0000
0001
0100
0010
0000
1000
0000
0100
0000
0100
0000
1000
0000
0000
0000
,  // measure 67
0001
0000
0010
0001
0010
0000
0100
0000
1000
0000
0010
1000
0010
0000
0100
0000
,  // measure 68
0001
0000
1000
0100
0010
0000
0001
0000
0100
0000
0100
0000
0110
0000
0000
0000
,  // measure 69
1000
0100
0001
0100
1000
0100
0001
0100
,  // measure 70
1000
0010
0100
0001
0100
1000
0100
0001
,  // measure 71
0100
0010
0100
0000
0001
0100
0001
0000
1000
0100
1000
0000
0001
0100
0001
0000
,  // measure 72
1000
0100
1000
0100
0010
0000
0000
0001
0000
0000
0100
0000
0010
0000
1000
0000
,  // measure 73
1001
0000
0000
0000
;

//---------------dance-single - NewbStepper-DSP----------------
#NOTEDATA:;
#CHARTNAME:NewbStepper-DSP;
#STEPSTYPE:dance-single;
#DESCRIPTION:NewbStepper-DSP;
#DIFFICULTY:Medium;
#METER:10;
#RADARVALUES:0.432138,0.535688,0.211992,0.073382,0.052998,371,345,26,9,0,0,0,0,0,0.432138,0.535688,0.211992,0.073382,0.052998,371,345,26,9,0,0,0,0,0;
#CREDIT:NewbStepper;
#NOTES:
0000
0000
0000
0000
,
0020
0000
0000
0000
0030
1000
0001
0200
,
0000
0000
0000
0301
,
0020
0000
0000
0000
0030
0000
0001
2000
,
0000
0000
0000
3000
,
1100
0000
0011
0000
,
1000
0100
0010
0001
0000
0001
0100
0020
,
0000
0000
0000
0000
,
0000
0030
0000
0000
,
1000
0000
0000
0000
1000
0000
0000
0000
0001
0000
0000
0010
0000
0000
0001
0000
,
0000
0100
0000
0000
0010
0000
0000
1000
0000
0000
0001
0000
0100
0000
0000
0000
,
0001
0000
0000
0000
0001
0000
0000
0000
1000
0000
0000
0010
0000
0000
1000
0000
,
0000
0100
0000
0000
0010
0000
0000
0001
0000
0000
1000
0000
0100
0000
0000
0000
,
1000
0010
1000
0000
0010
0001
0010
0000
,
0001
0100
0001
0000
0100
1000
0100
0000
,
1000
0010
1000
0010
0100
0001
0100
0001
,
0010
0100
0010
0100
1000
0001
1001
0000
,
0101
0000
1010
0000
0010
1000
0100
0000
,
0001
0100
1000
0000
0010
0100
0010
0000
,
1100
0000
0011
0000
0010
0001
0100
0000
,
1000
0100
0001
0000
0010
0100
0010
0000
,
0101
0010
1100
0010
,
0001
0001
0100
0000
1000
1000
0100
0000
,
0011
0100
1010
0100
,
0001
1000
0001
0000
0010
0000
1001
0000
,
1000
0010
0100
0001
0100
0000
0001
0000
,
0010
0001
0010
0100
1000
0000
0010
0000
,
1000
0100
1000
0001
0100
0000
0010
0000
,
1000
0100
1000
0001
0100
0000
0010
0000
,
1000
0100
0001
0000
0100
0000
0100
0000
,
0001
0100
1000
0000
0100
0000
0100
0000
,
0010
0001
0100
0000
0001
0000
1000
0000
,
0010
1000
0100
0000
1000
0000
0001
0000
,
0100
0000
0000
0100
0000
0000
0100
0000
0010
0000
0000
0000
0000
0000
0010
0000
,
0000
1000
0000
0000
0010
0000
0000
1000
0000
0000
1000
0000
0000
0000
0000
0000
,
0100
0000
0000
0100
0000
0000
0100
0000
0010
0000
0000
0000
0000
0000
0010
0000
,
0000
0001
0000
0000
0010
0000
0000
0001
0000
0000
0001
0000
0000
0000
0000
0000
,
1000
0000
0100
0000
,
0010
0001
0010
0001
0000
0001
1000
0200
,
0000
0000
0000
0000
,
0300
0000
0000
0000
,
1001
0000
1000
0000
0100
0010
0100
0000
,
1001
0000
0001
0000
0100
0010
0100
0000
,
1001
0000
1000
0000
0010
0100
0010
0000
,
1001
0000
0001
0000
0010
0100
0010
0000
,
0001
0000
0100
0000
1000
0100
0001
0000
,
1000
0000
0100
0000
0001
0100
1000
0000
,
0010
0010
0100
0100
,
0001
0000
0001
0000
1000
0001
1000
0000
,
0001
0001
0001
0001
,
0001
0001
0110
0110
,
1000
1000
1000
1000
,
1000
1000
0110
0110
,
0101
0010
1001
0010
,
1100
0010
1001
0010
,
1000
0100
1000
0100
0010
0100
0010
0001
,
0020
0000
0000
0030
0000
0000
0000
0000
,
0001
0100
0001
0100
0010
0000
1000
0000
,
0010
1000
0100
0000
0010
0001
0100
0000
,
0010
1000
0010
1000
0100
0000
0010
0000
,
0001
0100
1000
0000
1000
0100
0001
0000
,
1000
0010
1000
0010
0100
0000
0001
0000
,
1000
0100
0010
0001
0000
0001
0100
0010
,
2000
0100
0100
3100
,
0002
0000
0100
0000
0103
0010
0110
0000
,
1000
0100
1000
0100
0010
0000
0001
0000
,
0010
0001
0100
0000
0010
1000
0100
0000
,
0010
0001
0010
0001
0100
0000
0010
0000
,
1000
0100
0001
0000
0001
0100
1000
0000
,
0001
0010
0001
0010
0100
0000
1000
0000
,
0001
0100
0010
1000
0000
1000
0100
0010
,
0001
0000
0100
0000
0001
0000
0100
0000
0010
0000
0000
1000
0000
0000
0001
0000
,
0010
0000
0101
0000
0010
1000
0100
0010
,
0001
0000
0000
0000
;

//---------------dance-single - NewbStepper-BSP----------------
#NOTEDATA:;
#CHARTNAME:NewbStepper-BSP;
#STEPSTYPE:dance-single;
#DESCRIPTION:NewbStepper-BSP;
#DIFFICULTY:Easy;
#METER:6;
#RADARVALUES:0.253925,0.416646,0.195685,0.097843,0,218,194,24,12,0,0,0,0,0,0.253925,0.416646,0.195685,0.097843,0,218,194,24,12,0,0,0,0,0;
#CREDIT:NewbStepper;
#NOTES:
0000
0000
0000
0000
,
0002
0000
0000
0003
,
0000
0000
0000
0000
,
2000
0000
0000
3000
,
0000
0000
0000
0000
,
0001
0000
1000
0000
,
0020
0000
0030
0000
,
2002
0000
0000
0000
,
0000
3003
0000
0000
,
1000
1000
1000
0100
,
0010
0001
0100
0000
,
0001
0001
0001
0100
,
0010
1000
0100
0000
,
0010
0010
0100
0010
,
0010
1000
0010
0010
,
0001
1000
0001
1000
,
2002
0000
0000
3003
,
0010
0100
0010
0100
,
1000
0001
1000
0000
,
0010
0100
0010
0100
,
0001
1000
0001
0000
,
1000
0100
0001
0100
,
1000
0010
0100
0000
,
0001
0100
1000
0100
,
0001
0010
0100
0000
,
1100
0000
1100
0000
,
0010
0001
0100
1000
,
0101
0000
0101
0000
,
0010
1000
0100
0001
,
0110
0000
0110
0000
,
0001
0100
1000
0100
,
0110
0000
0110
0000
,
0001
0001
1000
1000
,
0001
0000
0001
0000
,
0000
0000
0000
0000
,
1000
0000
1000
0000
,
0000
0000
0000
0000
,
0010
0000
0100
0000
,
0001
0000
1000
0000
,
0200
0000
0000
0300
,
0000
0000
0000
0000
,
0010
0001
0100
0100
,
0010
1000
0100
0100
,
0010
0001
1000
1000
,
0010
1000
0001
0001
,
0101
0000
1100
0000
,
1010
0000
0011
0000
,
1000
0100
0010
0001
,
0100
0100
0010
0010
,
1000
0000
1000
1000
,
0001
0000
0001
0001
,
0010
0000
0010
0010
,
0100
0000
1000
1000
,
1100
0000
1010
0000
,
0011
0000
0101
0000
,
0110
0110
1001
1001
,
0220
0000
0000
0330
0000
0000
0000
0000
,
0010
1000
0010
1000
,
0100
0001
0100
0000
,
0010
0001
0010
0001
,
0100
1000
0100
0000
,
0001
0100
1000
0100
,
0001
0010
1000
0010
,
0002
0000
0000
0000
,
0000
0000
0003
0000
,
0010
0001
0010
0001
,
0100
1000
0100
0000
,
0010
1000
0010
1000
,
0100
0001
0100
0000
,
1000
0100
0001
0100
,
1000
0010
0001
0010
,
2000
0000
0000
3000
,
0001
0100
0010
1000
,
1001
0000
0000
0000
;

//---------------dance-single - NewbStepper-bSP----------------
#NOTEDATA:;
#CHARTNAME:NewbStepper-bSP;
#STEPSTYPE:dance-single;
#DESCRIPTION:NewbStepper-bSP;
#DIFFICULTY:Beginner;
#METER:3;
#RADARVALUES:0.160741,0.238084,0.040768,0.073382,0,138,133,5,9,0,0,0,0,0,0.160741,0.238084,0.040768,0.073382,0,138,133,5,9,0,0,0,0,0;
#CREDIT:NewbStepper;
#NOTES:
0000
0000
0000
0000
,
1000
0000
0000
0000
,
0000
0000
0000
0000
,
0001
0000
0000
0000
,
0000
0000
0000
0000
,
1000
0000
1000
0000
,
0001
0000
0000
0000
,
2002
0000
0000
0000
,
0000
3003
0000
0000
,
0010
0010
0010
0000
,
1000
1000
1000
0000
,
0001
0001
0001
0000
,
0010
0010
0010
0000
,
1000
0000
1000
0000
,
0100
0000
0100
0000
,
0001
0000
1000
0000
,
2002
0000
3003
0000
,
0001
0000
0001
0000
,
1000
1000
1000
0000
,
1000
0000
1000
0000
,
0001
0001
0001
0000
,
0100
0000
0100
0000
,
0010
0010
0010
0000
,
0010
0000
0010
0000
,
0100
0100
0100
0000
,
0001
0000
1000
0000
,
0001
0000
0010
0000
,
0001
0000
1000
0000
,
0010
0000
1000
0000
,
0100
0000
0001
0000
,
0100
0000
1000
0000
,
0001
0000
0100
0000
,
1000
0000
0100
0000
,
0002
0000
0000
0000
,
0000
0000
0003
0000
,
2000
0000
0000
0000
,
0000
0000
3000
0000
,
0001
0000
0000
0000
,
0000
0000
0000
0000
,
0000
0000
0000
0000
,
0000
0000
0000
0000
,
1000
1000
0000
0000
,
0100
0100
0000
0000
,
0010
0010
0000
0000
,
0001
0001
0000
0000
,
0100
0100
0100
0000
,
0010
0010
0010
0000
,
2002
0000
0000
3003
,
0000
0000
0000
0000
,
1000
0000
0000
0000
,
0000
0000
0001
0001
,
0001
0000
0000
0000
,
0000
0000
1000
1000
,
1000
0000
1000
0000
,
0100
0000
0100
0000
,
0010
0000
0010
0000
,
0002
0000
0003
0000
,
1000
1000
1000
0000
,
0001
0001
0001
0000
,
0010
0010
0010
0000
,
0100
0100
0100
0000
,
1000
0000
0010
0000
,
1000
0000
0100
0000
,
0001
0000
0100
0000
,
1000
0000
1001
0000
,
0001
0001
0001
0000
,
1000
1000
1000
0000
,
0010
0010
0010
0000
,
0100
0100
0100
0000
,
0001
0000
0010
0000
,
0001
0000
0100
0000
,
1000
0000
0100
0000
,
0001
0000
1000
0000
,
1001
0000
0000
0000
;

//---------------dance-double - NewbStepper-EDP----------------
#NOTEDATA:;
#CHARTNAME:NewbStepper-EDP;
#STEPSTYPE:dance-double;
#DESCRIPTION:NewbStepper-EDP;
#DIFFICULTY:Hard;
#METER:13;
#RADARVALUES:0.580067,0.684490,0.187532,0.105996,0.301681,498,475,23,13,0,0,0,0,0,0.580067,0.684490,0.187532,0.105996,0.301681,498,475,23,13,0,0,0,0,0;
#CREDIT:NewbStepper;
#NOTES:
00000000
00000000
00000000
00000000
,
00000102
00000000
00000000
00000000
00000003
00001000
00000100
00010000
,
00010100
00000000
00000000
00001000
00000000
00000000
00100000
00000000
01000000
00000000
00000000
00000000
00000000
00000000
00000000
00000000
,
21000000
00000000
00000000
00000000
00000000
00000000
00000000
00000000
30000000
00000000
00000000
00000000
01000000
00100000
01000000
00000000
,
11000000
00000000
00000000
10000000
00000000
00000000
00100000
00000000
00010000
00000000
00000000
00000000
00000000
00000000
00000000
00000000
,
00022000
00033000
00002020
00003030
,
00000011
00000000
00000000
00000001
00000000
00000000
00000100
00000000
00001000
00000000
00000000
00000000
00000000
00000000
00000000
00000000
,
00022000
00000000
00000000
00000000
,
00000000
00000000
00000000
00000000
00033000
00000000
00000000
00000000
00000000
00000000
00001000
00100000
00010000
00000000
00000000
00000000
,
10000000
00000000
00100000
00000000
10000000
00000000
00100000
00000000
01000000
00000000
00001000
00010000
00000010
00000000
00001000
00000000
,
00000001
00000100
00000010
00001000
00000001
00000100
00001000
00000100
,
00000001
00000000
00000010
00000000
00000001
00000000
00000010
00000000
00000100
00000000
00010000
00001000
00100000
00000000
00010000
00000000
,
10000000
01000000
00100000
00010000
10000000
01000000
00010000
00000000
,
00001000
00010000
01000000
00100000
00001000
00010000
00000100
00001000
,
00000001
00000100
00000010
00001000
00010000
01000000
00100000
10000000
,
00010000
00010000
01000000
01000000
00001000
00001000
00010000
00010000
,
00000010
00001000
00000010
00000000
00000100
00000001
00000100
00000000
00000001
00001000
00000001
00001000
00000100
00000000
00000000
00000000
,
00011000
00000000
00010000
00001000
00000000
00000000
00000100
00000000
00000001
00000000
00000010
00000100
00000000
00000000
00000010
00000000
,
00000000
00001000
00000000
00000000
00010000
00000000
00000000
01000000
00000000
00000000
00010000
00000000
00001000
00000000
00000000
00000000
,
00011000
00000000
00001000
00010000
00000000
00000000
01000000
00000000
10000000
00000000
00100000
01000000
00000000
00000000
00100000
00000000
,
00000000
00010000
00000000
00000000
00001000
00000000
00000000
00000100
00000000
00000000
00001000
00000000
00011000
00000000
00010000
00000000
,
00001000
00000100
00000001
00001000
00000010
00000100
00001000
00010000
,
00000100
00010000
01000000
00010000
00001000
00100000
01000000
00000000
,
00010000
01000000
10000000
00010000
00100000
01000000
00010000
00001000
,
00000100
00000010
00000100
00000010
00000100
00000000
00000000
00000001
00000000
00000000
00000010
00000000
00000100
00000000
00000000
00000000
,
00010000
00000000
00000010
00001000
00000010
00000000
00010000
00000000
00001000
00000000
00100000
00010000
00100000
00000000
00001000
00000000
,
00010000
01000000
10000000
00100000
10000000
01000000
00010000
00000000
,
00001000
00000000
00100000
00010000
00100000
00000000
00001000
00000000
00010000
00000000
00000010
00001000
00000010
00000000
00010000
00000000
,
00001000
00000100
00000001
00000010
00000001
00000100
00001000
00000000
,
00010000
00000000
00000100
00001000
00000100
00000000
00010000
00000000
00001000
00000000
00100000
00010000
00100000
00000000
01000000
00000000
,
10000000
00100000
10000000
00000000
01000000
00000000
00000000
01000000
00000000
00000000
00010000
00000000
00001000
00000000
00100000
00000000
,
00001000
00000000
01000000
00010000
01000000
00000000
00001000
00000000
00010000
00000000
00000010
00001000
00000010
00000000
00000100
00000000
,
00000001
00000010
00000001
00000000
00000100
00000000
00000000
00000100
00000000
00000000
00001000
00000000
00010000
00000000
00000000
00000000
,
00100000
00000000
00000000
00100000
00000000
00000000
10000000
00000000
01000000
00000000
00000000
01000000
00000000
00000000
00010000
00000000
,
00000000
00010000
00000000
00000000
00001000
00000000
00000000
00001000
00000000
00000000
00011000
00000000
00000000
00000000
00000000
00000000
,
00000010
00000000
00000000
00000010
00000000
00000000
00000001
00000000
00000100
00000000
00000000
00000100
00000000
00000000
00001000
00000000
,
00000000
00001000
00000000
00000000
00010000
00000000
00000000
00010000
00000000
00000000
00011000
00000000
00000000
00000000
00000000
00000000
,
02000000
00000000
23000000
00000000
,
30020000
00000000
00000000
00000000
00000000
00000000
00000000
00000000
00031000
00000000
00000100
00000000
00000010
00000001
00000020
00000000
,
00000000
00000000
00000000
00000000
,
00000030
00000000
00000000
00000000
,
00001001
00000000
00000000
00000000
00000010
00000000
00000000
00000001
00000000
00000000
00000100
00000000
00001000
00000000
00000000
00000000
,
00010000
00000000
00000000
00000000
00100000
00000000
00000000
10000000
00000000
00000000
01000000
00000000
00010000
00000000
00000000
00000000
,
00001000
00100000
00001000
00000000
00010000
00000010
00010000
00000000
,
00001000
00010000
01000000
00000000
00010000
00001000
00000100
00000000
,
00000001
00000010
00000001
00000000
00001000
00000010
00001000
00000000
,
00000100
00010000
00000100
00000000
00010000
00001000
00010000
00000000
,
00100000
10000000
01000000
00010000
,
00001000
00000000
00001000
00000000
00001000
00010000
00011000
00000000
,
00000010
00000010
00000001
00000001
,
00000100
00000100
00010010
01001000
,
00100000
00100000
10000000
10000000
,
01000000
01000000
00101000
00010100
,
00000010
00000001
00000100
00000000
00000010
00001000
00000100
00000000
,
00010000
00010000
00001000
00001000
00100000
00010000
10000000
00000000
,
00100000
10000000
00100000
00000000
01000000
00010000
01000000
00000000
00001000
00010000
00001000
00000000
00010000
00000100
00010000
00000000
,
00000010
00001000
00000010
00001000
00000010
00001000
00000010
00001000
00000000
00000000
00000000
00000000
00000000
00000000
00000000
00000000
,
00000001
00000000
00000000
00000001
00000100
00000000
00000000
00000100
00000010
00000000
00001000
00000000
00000001
00000000
00000100
00000000
,
00001000
00010000
01000000
10000000
00100000
01000000
00010000
00000000
,
10000000
00000000
00000000
10000000
01000000
00000000
00000000
01000000
00100000
00000000
00010000
00000000
10000000
00000000
01000000
00000000
,
00010000
00001000
00000100
00000001
00000010
00000100
00001000
00000000
,
00000001
00000100
00000001
00000100
00000010
00001000
00000010
00001000
,
00010000
00000000
01000000
00000000
10000000
00000000
01000000
00000000
00010000
00000000
00100000
00000000
00001000
00010000
00002000
00000000
,
00100000
00000000
00000000
00000000
00103000
00000000
00000000
00000000
00101000
00000000
00000000
00010100
00000000
00000000
00001010
00000000
,
00001000
00000100
00001000
00000000
00000010
00000000
00000000
00000000
00000100
00000001
00000100
00000000
00000010
00000000
00000000
00000000
,
00010000
00000000
00000100
00001000
00000100
00000000
00010000
00000000
00001000
00000000
01000000
00010000
01000000
00000000
00100000
00000000
,
10000000
00000000
00010000
00100000
00001000
00000000
00010000
00000000
00000100
00000000
00000100
00000000
00000010
00000000
00000000
00000000
,
00001000
00000000
01000000
00010000
01000000
00000000
00001000
00000000
00010000
00000000
00000100
00001000
00000100
00000000
00000010
00000000
,
00000001
00000000
00001000
00000010
00010000
00000000
00001000
00000000
01000000
00000000
01000000
00000000
00100000
00000000
00000000
00000000
,
10000000
01000000
00010000
01000000
10000000
01000000
00010000
00001000
,
00000100
00000001
00000100
00001000
00000100
00000010
00001000
00000100
,
00010000
00001000
00010000
00000000
00001000
01000000
00001000
00000000
01000000
00010000
01000000
00000000
00010000
10000000
00010000
00000000
,
10000000
01000000
10000000
01000000
00100000
00000000
00000000
00010000
00000000
00000000
01000000
00000000
00001000
00000000
00010000
00000000
,
00011000
00000000
00000000
00000000
;

//---------------dance-double - NewbStepper-DDP----------------
#NOTEDATA:;
#CHARTNAME:NewbStepper-DDP;
#STEPSTYPE:dance-double;
#DESCRIPTION:NewbStepper-DDP;
#DIFFICULTY:Medium;
#METER:10;
#RADARVALUES:0.418160,0.535688,0.163071,0.073382,0.061152,359,339,20,9,0,0,0,0,0,0.418160,0.535688,0.163071,0.073382,0.061152,359,339,20,9,0,0,0,0,0;
#CREDIT:NewbStepper;
#NOTES:
00000000
00000000
00000000
00000000
,
00000020
00000000
00000000
00000000
00000030
00001000
00000001
00000200
,
00000000
00000000
00000000
00001300
,
00020000
00000000
00000000
00000000
00030000
00000000
00100000
20000000
,
00000000
00000000
00000000
30000000
,
11000000
00000000
00110000
00000000
,
10000000
01000000
00100000
00010000
00000000
00010000
01000000
00200000
,
00000000
00000000
00000000
00000000
,
00000000
00300000
00000000
00000000
,
00010000
00000000
00000000
00000000
00010000
00000000
00000000
00000000
00001000
00000000
00000000
00000010
00000000
00000000
00000001
00000000
,
00000000
00000100
00000000
00000000
00000010
00000000
00000000
00001000
00000000
00000000
00000100
00000000
00010000
00000000
00000000
00000000
,
00001000
00000000
00000000
00000000
00001000
00000000
00000000
00000000
00010000
00000000
00000000
00100000
00000000
00000000
10000000
00000000
,
00000000
01000000
00000000
00000000
00100000
00000000
00000000
00010000
00000000
00000000
10000000
00000000
01000000
00000000
00000000
00000000
,
00010000
00001000
00010000
00000000
00001000
00000010
00001000
00000000
,
00000010
00000001
00000010
00000000
00000001
00000100
00000001
00000000
,
00001000
00000010
00001000
00000010
00010000
00001000
00010000
00001000
,
00100000
00010000
00100000
00010000
10000000
00010000
10010000
00000000
,
01010000
00000000
10100000
00000000
00100000
10000000
01000000
00000000
,
00010000
00001000
00000100
00000000
00000010
00000100
00000010
00000000
,
00001100
00000000
00000011
00000000
00000010
00000001
00000100
00000000
,
00001000
00010000
01000000
00000000
00100000
01000000
00100000
00000000
,
11000000
00100000
01010000
00100000
,
00001000
00001000
00010000
00000000
00000100
00000100
00000010
00000000
,
00000101
00000010
00001100
00000010
,
00001000
00000001
00001000
00000000
00000100
00000000
00010010
00000000
,
00001000
00100000
00010000
01000000
00010000
00000000
10000000
00000000
,
00100000
10000000
00100000
01000000
00010000
00000000
00100000
00000000
,
00001000
00010000
00000100
00001000
00000001
00000000
00000010
00000000
,
00001000
00010000
00000100
00001000
00000010
00000000
00000100
00000000
,
00001000
01000000
00100000
00100000
,
10000000
01000000
00010000
00000000
00001000
00000000
00000100
00000000
,
00000001
00001000
00000010
00000100
,
00001000
00100000
00010000
00000000
10000000
00000000
01000000
00000000
,
00010000
00000000
00000000
00010000
00000000
00000000
00001000
00000000
00010000
00000000
00000000
00000100
00000000
00000000
00000010
00000000
,
00000000
00000010
00000000
00000000
00000001
00000000
00000000
00000100
00000000
00000000
00000100
00000000
00000000
00000000
00000000
00000000
,
00001000
00000000
00000000
00001000
00000000
00000000
00010000
00000000
00001000
00000000
00000000
01000000
00000000
00000000
00100000
00000000
,
00000000
00100000
00000000
00000000
10000000
00000000
00000000
01000000
00000000
00000000
01000000
00000000
00000000
00000000
00000000
00000000
,
00010000
00000000
00001000
00000000
,
00000100
00000000
00000001
00000000
,
00002000
00000000
00000000
00000000
,
00003000
00000000
00000000
00000000
,
00001001
00000000
00000001
00000000
00000100
00000010
00000100
00000000
,
00001000
00000000
00010000
00000000
00100000
01000000
00100000
00000000
,
10010000
00000000
10000000
00000000
01000000
00100000
01000000
00000000
,
00010000
00000000
00001000
00000000
00000010
00000100
00000010
00000000
,
00000001
00000000
00000100
00000000
00001000
00010000
01000000
00000000
,
10000000
00000000
01000000
00000000
00010000
00001000
00000100
00000000
,
00000001
00000001
00000010
00000010
,
00001000
00000000
00001000
00000000
00010000
00001000
00010000
00000000
,
00100000
00100000
00100000
00100000
,
00100000
00100000
00010000
00001000
,
00000010
00000010
00000010
00000010
,
00000010
00000010
00001000
00010000
,
10100000
01000000
10010000
01000000
,
00101000
00010000
01001000
00010000
,
00000100
00001000
00000100
00001000
00000100
00000010
00000100
00000010
,
00000002
00000000
00000000
00000003
00000000
00000000
00000000
00000000
,
00001000
00000100
00001000
00000100
00000010
00000000
00000001
00000000
,
00000010
00001000
00010000
00000000
00001000
00010000
00100000
00000000
,
10000000
00010000
10000000
00010000
00100000
00000000
01000000
00000000
,
10000000
01000000
00010000
00000000
00001000
00000100
00000001
00000000
,
00001000
00000010
00000100
00000000
00000001
00000010
00000100
00000000
,
00000010
00001000
00010000
00000000
00001000
00010000
00100000
00000000
,
20000000
01000000
01000000
31000000
,
00020000
00000000
01000000
00000000
01030000
00100000
01100000
00000000
,
00010000
01000000
00010000
01000000
00100000
00000000
10000000
00000000
,
00100000
00010000
00001000
00000000
00010000
00001000
00000010
00000000
,
00000001
00001000
00000001
00001000
00000010
00000000
00000100
00000000
,
00000001
00000100
00001000
00000000
00010000
01000000
10000000
00000000
,
00010000
00100000
01000000
00000000
10000000
00100000
01000000
00000000
,
00100000
00010000
00001000
00000000
00010000
00001000
00000010
00000000
,
00000001
00000000
00000100
00000000
00000001
00000000
00000100
00000000
00000010
00000000
00000000
00001000
00000000
00000000
00000010
00000000
,
00000100
00000000
00011000
00000000
00010000
00001000
00010000
01000000
,
10000000
00000000
00000000
00000000
;

//---------------dance-double - NewbStepper-BDP----------------
#NOTEDATA:;
#CHARTNAME:NewbStepper-BDP;
#STEPSTYPE:dance-double;
#DESCRIPTION:NewbStepper-BDP;
#DIFFICULTY:Easy;
#METER:6;
#RADARVALUES:0.248101,0.416646,0.195685,0.097843,0,213,189,24,12,0,0,0,0,0,0.248101,0.416646,0.195685,0.097843,0,213,189,24,12,0,0,0,0,0;
#CREDIT:NewbStepper;
#NOTES:
00000000
00000000
00000000
00000000
,
00020000
00000000
00000000
00030000
,
00000000
00000000
00000000
00000000
,
00002000
00000000
00000000
00003000
,
00010000
00000000
00001000
00000000
,
00000020
00000000
00000000
00000000
,
00000000
00000000
00000030
00000000
,
00002002
00000000
00000000
00000000
,
00000000
00003003
00000000
00000000
,
00001000
00000001
00001000
00000000
,
00000010
00000100
00000010
00000000
,
00010000
00001000
00010000
00000000
,
00100000
01000000
00100000
00000000
,
10000000
00000000
01000000
00000000
,
00010000
00001000
00010000
00000000
,
00000100
00000100
00000010
00000010
,
00002002
00000000
00000000
00003003
,
00000010
00000100
00000010
00000100
,
00001000
00010000
00001000
00000000
,
00100000
01000000
00100000
01000000
,
00010000
00001000
00010000
00000000
,
00001000
00000100
00000001
00000100
,
00001000
00010000
00001000
00000000
,
00010000
01000000
10000000
01000000
,
00010000
00001000
00010000
00000000
,
01010000
00000000
01010000
00000000
,
00100000
10000000
01000000
00010000
,
00011000
00000000
00011000
00000000
,
00000010
00000001
00000100
00001000
,
00011000
00000000
00011000
00000000
,
00010000
01000000
10000000
01000000
,
01100000
00000000
00011000
00000000
,
00001000
00001000
00000100
00000100
,
00000001
00000000
00000001
00000000
,
00000000
00000000
00000000
00000000
,
00001000
00000000
00001000
00000000
,
00000000
00000000
00000000
00000000
,
00010000
00000000
01000000
00000000
,
00100000
00000000
10000000
00000000
,
02000000
00000000
00000000
03000000
,
00000000
00000000
00000000
00000000
,
00100000
10000000
01000000
01000000
,
00100000
00010000
01000000
01000000
,
00001000
00010000
00000100
00000100
,
00001000
00000010
00000100
00000100
,
00000101
00000000
00000011
00000000
,
00001010
00000000
00011000
00000000
,
01000000
00100000
10000000
01000000
,
00010000
00010000
00001000
00001000
,
00010000
00000000
00010000
00010000
,
00000010
00000000
00000010
00000010
,
00001000
00000000
00001000
00001000
,
00000001
00000000
00000001
00000001
,
00000101
00000000
00001100
00000000
,
00011000
00000000
01010000
00000000
,
01100000
01100000
10010000
10010000
,
02200000
00000000
03300000
00000000
,
00100000
10000000
00100000
10000000
,
01000000
00010000
01000000
00000000
,
00010000
00001000
00010000
00001000
,
00000010
00000001
00000010
00000000
,
00000001
00000100
00001000
00000100
,
00000001
00000010
00001000
00000010
,
00000200
00000000
00000000
00000000
,
00000000
00000000
00000300
00000000
,
00000010
00000001
00000010
00000001
,
00000100
00001000
00000100
00000000
,
00001000
00010000
00001000
00010000
,
00100000
10000000
00100000
00000000
,
10000000
01000000
00010000
01000000
,
10000000
00100000
00010000
00100000
,
02000000
00000000
00000000
03000000
,
00001000
00010000
00000100
00001000
,
00001001
00000000
00000000
00000000
;
