#TITLE:Northern Cross;
#ARTIST:BlackY;
#BANNER:Northern Cross.png;
#BACKGROUND:Northern Cross-bg.png;
#MUSIC:Northern Cross.ogg;
#OFFSET:-0.748;
#SAMPLESTART:80.49;
#SAMPLELENGTH:15;
#BPMS:0=155;

//---------------dance-single - NewbStepper-bSP----------------
#NOTES:
     dance-single:
     NewbStepper:
     Beginner:
     3:
     0.119586,0.208663,0.046506,0.062008,0.003875,108,102,6,8,0,0,0.119586,0.208663,0.046506,0.062008,0.003875,108,102,6,8,0,0:
// measure 0
0000
0000
0000
0000
,  // measure 1
0000
0000
0000
0000
,  // measure 2
0000
0000
0000
0000
,  // measure 3
0000
0000
0000
0000
,  // measure 4
0000
0000
0000
0000
,  // measure 5
1000
0000
0000
0000
,  // measure 6
0000
0000
0000
0000
,  // measure 7
0001
0000
0000
0000
,  // measure 8
1001
0000
0000
0000
,  // measure 9
1000
0000
0000
0000
,  // measure 10
0000
0000
0000
0000
,  // measure 11
1000
0000
0000
0000
,  // measure 12
0000
0000
0000
0000
,  // measure 13
0001
0000
0000
0000
,  // measure 14
0000
0000
0000
0000
,  // measure 15
0001
0000
0000
0000
,  // measure 16
0200
0000
0000
0300
,  // measure 17
0000
0000
0000
0000
,  // measure 18
0001
0000
0000
0000
,  // measure 19
0001
0000
0000
0000
,  // measure 20
1000
0000
0000
0000
,  // measure 21
1000
0000
0000
0000
,  // measure 22
0100
0000
0000
0000
,  // measure 23
0100
0000
0000
0000
,  // measure 24
0010
0000
0000
0000
,  // measure 25
0000
0000
0000
0000
,  // measure 26
0001
0000
0001
0000
,  // measure 27
1000
0000
1000
0000
,  // measure 28
0100
0000
0100
0000
,  // measure 29
0010
0000
0010
0000
,  // measure 30
0001
0000
1000
0000
,  // measure 31
0001
0000
0000
0000
,  // measure 32
1000
0000
0000
0000
,  // measure 33
1001
0000
0000
0000
,  // measure 34
1000
0000
0000
0000
0000
0000
0000
0001
,  // measure 35
0000
0000
0000
0000
0000
0000
0000
0100
,  // measure 36
0000
0000
0000
0000
,  // measure 37
0010
0000
0010
0000
,  // measure 38
1000
0000
1000
0000
,  // measure 39
0001
0000
0001
0000
,  // measure 40
0100
0000
0000
0000
,  // measure 41
0010
0000
0010
0000
,  // measure 42
0110
0000
0000
0000
,  // measure 43
0000
0000
0000
0000
,  // measure 44
0000
0000
0000
0000
,  // measure 45
0000
0000
0000
0000
,  // measure 46
0001
0000
0000
0000
,  // measure 47
0000
0000
0000
0000
,  // measure 48
1000
0000
0000
0000
,  // measure 49
0001
0000
1000
0000
,  // measure 50
2002
0000
0000
0000
,  // measure 51
3003
0000
0000
0000
,  // measure 52
0001
0001
0001
0000
,  // measure 53
1000
0000
0010
0000
,  // measure 54
1000
1000
1000
0000
,  // measure 55
0001
0000
0010
0000
,  // measure 56
0100
0100
0100
0000
,  // measure 57
0010
0000
0100
0000
,  // measure 58
0010
0010
0010
0000
,  // measure 59
2002
0000
3003
0000
,  // measure 60
1000
1000
1000
0000
,  // measure 61
0001
0000
0010
0000
,  // measure 62
0001
0001
0001
0000
,  // measure 63
1000
0000
0010
0000
,  // measure 64
1000
0000
0001
0000
,  // measure 65
1000
0000
0010
0000
,  // measure 66
0100
0000
0010
0000
,  // measure 67
0220
0000
0330
0000
,  // measure 68
1000
1000
1000
0000
,  // measure 69
0001
0000
0100
0000
,  // measure 70
0001
0001
0001
0000
,  // measure 71
1000
0000
0100
0000
,  // measure 72
0010
0000
0001
0000
,  // measure 73
0100
0000
0010
0000
,  // measure 74
1000
0000
0100
0000
,  // measure 75
0010
0000
0000
0010
0000
0000
0010
0000
,  // measure 76
0000
0000
0000
0020
0000
0000
0000
0000
0000
0000
0000
0000
0000
0000
0000
0000
0000
0000
0000
0000
0000
0000
0030
0000
;

//---------------dance-single - NewbStepper-BSP----------------
#NOTES:
     dance-single:
     NewbStepper:
     Easy:
     7:
     0.257997,0.439480,0.217027,0.069759,0.003875,233,205,28,9,0,0,0.257997,0.439480,0.217027,0.069759,0.003875,233,205,28,9,0,0:
// measure 0
0000
0000
0000
0000
,  // measure 1
0000
0000
0000
0000
,  // measure 2
0000
0000
0000
0000
,  // measure 3
0000
0000
0000
0000
,  // measure 4
0000
0000
0000
0000
,  // measure 5
1001
0000
0000
0000
,  // measure 6
0000
0000
0000
0000
,  // measure 7
1000
0100
0010
0001
,  // measure 8
0100
0000
0000
0000
,  // measure 9
0001
0100
1000
0000
,  // measure 10
1000
0100
0001
0000
,  // measure 11
1000
0100
0001
0000
,  // measure 12
0001
0100
1000
0000
,  // measure 13
0010
1000
0100
0000
,  // measure 14
0010
0001
0100
0000
,  // measure 15
0010
1000
0001
0010
,  // measure 16
0220
0000
0000
0000
,  // measure 17
0000
0000
0330
0000
0000
1001
0000
0000
,  // measure 18
1000
0100
0001
0100
,  // measure 19
1000
0100
0010
0010
,  // measure 20
0001
0100
1000
0100
,  // measure 21
0001
0100
0010
0000
,  // measure 22
1000
0010
0001
0010
,  // measure 23
1000
0010
0100
0100
,  // measure 24
0002
0000
2003
0000
,  // measure 25
3001
0001
1000
1000
,  // measure 26
0010
0000
1100
0000
,  // measure 27
0010
0000
0101
0000
,  // measure 28
0010
0000
1001
0000
,  // measure 29
1000
0100
0010
0001
,  // measure 30
0010
0000
0000
0100
0000
0010
0000
0100
,  // measure 31
0000
1000
0100
0001
,  // measure 32
0010
1000
0100
0000
,  // measure 33
0110
0000
0001
1000
,  // measure 34
1001
0000
0000
0000
0000
0000
0000
0110
,  // measure 35
0000
0000
0000
0000
0000
0000
0000
1001
,  // measure 36
0000
0000
0000
0000
,  // measure 37
0001
0100
0010
1000
,  // measure 38
0001
0100
0100
1000
,  // measure 39
0100
0100
0010
0100
,  // measure 40
0100
0001
1000
0100
,  // measure 41
0110
0001
0110
1000
,  // measure 42
1001
0000
0000
0000
,  // measure 43
0000
0000
0000
0000
,  // measure 44
0000
0000
0000
0000
,  // measure 45
0000
0000
0000
0000
,  // measure 46
0010
0000
0000
0000
,  // measure 47
0000
0000
0000
0000
,  // measure 48
0100
0000
0000
0000
,  // measure 49
0001
0100
0010
1000
,  // measure 50
2002
0000
0000
0000
,  // measure 51
3003
0000
0000
0000
,  // measure 52
1000
0100
0001
1000
,  // measure 53
0001
0100
1000
1000
,  // measure 54
0001
0010
1000
0001
,  // measure 55
1000
0010
0001
0000
,  // measure 56
0010
0001
0100
1000
,  // measure 57
0001
0010
0001
1000
,  // measure 58
0100
0001
0010
0000
,  // measure 59
0001
1000
0001
1000
,  // measure 60
0001
0100
1000
0001
,  // measure 61
1000
0100
0001
0001
,  // measure 62
1000
0010
0001
1000
,  // measure 63
0001
0010
1000
0000
,  // measure 64
0010
1010
1000
1001
,  // measure 65
0001
0101
0100
0110
,  // measure 66
1000
0001
1001
0110
,  // measure 67
2002
0000
3003
0000
,  // measure 68
0001
0100
0010
0001
,  // measure 69
1000
0100
0001
0001
,  // measure 70
1000
0010
0100
1000
,  // measure 71
0001
0010
1000
0100
,  // measure 72
0001
1000
0010
0001
,  // measure 73
0100
0010
1000
0001
,  // measure 74
1100
0010
0101
0010
,  // measure 75
1001
0000
0000
1100
0000
0000
0011
0000
,  // measure 76
0000
0000
0110
0000
0000
0000
0000
0000
0000
0000
0000
1001
0000
0000
0000
0000
,  // measure 77
0000
0000
0000
0000
0000
0020
0000
0000
,  // measure 78
0000
0000
0000
0000
,  // measure 79
0000
0000
0000
0000
,  // measure 80
0000
0000
0000
0000
,  // measure 81
0030
0000
0000
0000
;

//---------------dance-single - NewbStepper-DSP----------------
#NOTES:
     dance-single:
     NewbStepper:
     Medium:
     12:
     0.480561,0.596438,0.224778,0.201525,0.279035,434,405,29,26,0,0,0.480561,0.596438,0.224778,0.201525,0.279035,434,405,29,26,0,0:
// measure 0
0000
0000
0000
0000
,  // measure 1
0000
0000
0000
0000
,  // measure 2
0000
0000
0000
0000
,  // measure 3
0000
0000
0000
0000
,  // measure 4
0000
0000
0000
0000
,  // measure 5
1001
0000
0000
0000
,  // measure 6
0000
0000
0000
0000
,  // measure 7
1000
0100
0010
0001
1000
0010
0100
0001
,  // measure 8
0020
0000
0000
0000
0031
1000
0001
1000
,  // measure 9
0010
0000
0000
0010
0000
0000
0010
0000
0100
0000
0002
0000
0000
0000
1003
0000
,  // measure 10
0000
0100
0010
0001
0000
1000
0000
0100
,  // measure 11
1000
0000
0000
1000
0000
0000
1000
0000
0001
0000
0020
0000
0001
0000
0031
0000
,  // measure 12
0010
0000
0100
0000
1000
0000
0001
0000
0100
0000
0000
0100
0000
0100
0000
0010
,  // measure 13
0000
0000
1000
0001
1000
0000
0000
0000
0010
0000
0000
0000
0001
0000
0000
0000
,  // measure 14
0010
1000
0100
0000
0010
0001
0100
0000
,  // measure 15
0010
1000
0100
0010
0001
0100
1000
0100
,  // measure 16
0001
0000
0000
0001
0000
0000
1000
0100
0000
0100
0000
0000
1000
0000
0000
1000
,  // measure 17
0000
0010
0000
0220
0000
0000
0000
0000
0330
0000
1001
0000
0000
0000
0000
0000
,  // measure 18
1000
0100
0001
0010
,  // measure 19
1000
0001
0000
0001
0000
0001
0000
0001
0100
0000
0010
0000
0000
1000
0000
0000
,  // measure 20
0001
0010
1000
0100
,  // measure 21
0001
1000
0000
1000
0000
0000
0100
0000
0010
0000
0000
0000
1001
0000
0000
0000
,  // measure 22
0001
0100
1000
0010
,  // measure 23
0001
1000
0000
1000
0000
1000
0000
1000
0100
0000
0010
0000
0000
0001
0000
0000
,  // measure 24
1000
0000
0000
0001
0000
0000
0200
0000
0000
0000
0310
0000
1000
0000
0100
0000
,  // measure 25
0001
0100
1000
0010
0200
0000
0301
0000
,  // measure 26
2000
0000
0000
0000
3000
0000
0001
0100
0001
0000
1000
0000
0010
0000
0200
0000
,  // measure 27
0000
0000
0000
0000
0300
0000
0001
0100
0001
0000
1000
0000
0010
0000
0200
0000
,  // measure 28
0000
0000
0000
0000
0300
0000
0001
1000
0001
0000
0100
0000
0010
0000
1000
0000
,  // measure 29
0001
0101
1000
1100
,  // measure 30
0002
0000
0003
1000
0000
0001
0000
0202
,  // measure 31
0000
0303
1000
0001
0100
0010
1000
0100
,  // measure 32
0001
0100
1000
0001
0200
0000
0310
1000
,  // measure 33
0001
0000
0010
0000
0100
0000
0000
0100
0010
0000
1000
0000
0010
0000
0001
0000
,  // measure 34
1000
0000
0000
1000
0000
0000
1100
0000
0000
0000
0000
0000
0000
0000
0001
0000
,  // measure 35
0000
0001
0000
0000
0101
0000
0000
0000
0000
0000
0000
0000
0000
0000
0110
0000
,  // measure 36
0000
1000
0001
0010
1000
0010
0001
0100
,  // measure 37
0010
1001
0110
1001
,  // measure 38
1000
0010
0100
0001
1000
0100
0001
0100
,  // measure 39
1000
0001
0100
1000
0100
0001
0010
0100
,  // measure 40
1000
0000
0010
0000
0100
0000
0000
0000
0001
0000
0000
1000
0000
0000
0010
0000
,  // measure 41
0110
1001
0110
1001
,  // measure 42
1100
0000
0000
0001
0000
0000
0000
0000
,  // measure 43
0000
0000
0000
0000
,  // measure 44
0010
0000
0000
0001
0000
0000
0100
0000
0000
0000
0010
0000
0000
0000
1000
0000
,  // measure 45
0002
0000
0000
0000
0003
0000
0000
1000
,  // measure 46
2000
0000
0000
3000
,  // measure 47
0000
0000
0000
0000
,  // measure 48
1001
0000
0000
0000
,  // measure 49
0001
0000
0100
0000
0010
0000
1000
0000
0001
0000
0000
0100
0000
0000
0010
0000
,  // measure 50
1000
0000
0100
0000
0001
0000
0100
0000
1000
0000
0010
0100
0000
0001
2000
0000
,  // measure 51
0000
0000
0002
3003
,  // measure 52
1000
0000
0000
0001
0000
0000
1000
0000
0020
0000
0000
0000
0130
0000
1000
0000
,  // measure 53
0100
0001
0010
0100
1000
0010
0100
0001
,  // measure 54
0010
0000
0000
0100
0000
0000
0010
0000
0001
0000
0000
1000
0000
0100
0010
0000
,  // measure 55
0001
0100
1000
0100
0001
0010
0100
1000
,  // measure 56
0001
0000
0000
0100
0000
0000
0001
0000
1000
0000
0000
0100
0000
0000
1000
0000
,  // measure 57
0020
0000
0000
0000
0030
0000
1000
0100
1000
0000
0000
1000
0000
0000
0100
0000
,  // measure 58
0010
0000
0000
0001
0000
0000
0100
0000
0020
0000
0000
0000
1030
0000
0000
0000
,  // measure 59
0100
0010
0100
0000
0010
0000
1001
0000
,  // measure 60
0001
0000
0000
1000
0000
0000
0001
0000
0020
0000
0000
0000
0130
0000
0001
0000
,  // measure 61
0100
1000
0010
0100
0001
0010
0100
1000
,  // measure 62
0010
0000
0000
0100
0000
0000
0010
0000
1000
0000
0001
0000
0100
0000
1000
0000
,  // measure 63
0100
0001
0010
0100
1000
0100
0001
0100
,  // measure 64
1000
0000
0000
1100
0000
0000
0010
0000
0001
0000
0000
0101
0000
0000
0100
0000
,  // measure 65
0010
0000
0000
0110
0000
0000
0100
0000
0001
0000
0000
1001
0000
0000
1000
0000
,  // measure 66
0010
1000
0100
0010
0001
0100
0010
1000
,  // measure 67
0100
0000
0010
0000
0100
0000
0010
0000
0110
0000
0000
0110
0000
0000
0110
0000
,  // measure 68
0001
0000
0000
0100
0000
0000
0010
0000
1000
0000
0100
0000
0001
0000
0100
0000
,  // measure 69
1000
0010
0001
1000
0100
0001
0010
0001
,  // measure 70
1000
0000
0000
0100
0000
0000
0010
0000
0001
0000
0100
0000
1000
0000
0100
0000
,  // measure 71
0002
0000
0000
0000
0003
0000
1000
0010
1000
0000
0000
0001
0000
0100
0000
0010
,  // measure 72
0000
0000
1000
0000
0000
0100
0000
0000
0010
0000
0000
0001
0000
0000
0100
0000
,  // measure 73
0000
0010
0000
0000
1000
0000
0000
0001
0000
0000
0100
0000
0010
0000
1000
0000
,  // measure 74
0001
0100
1000
0100
0001
1000
0010
0100
,  // measure 75
0001
0000
0000
0101
0000
0000
0100
0010
0000
0010
0000
0000
1000
0000
0000
1001
,  // measure 76
0000
0000
0000
0000
0000
0000
0001
0000
0000
0000
0000
0000
0000
0000
0000
0010
0000
0000
0000
0000
0000
0001
0000
0000
0000
0000
0000
0100
0000
0000
0000
0000
0000
0010
0000
0000
2000
0000
0000
0000
0000
0000
0000
0000
3000
0000
0000
0000
,  // measure 77
0000
0000
0000
0000
0000
0000
0000
2000
0000
0000
0002
0000
0000
0000
0000
0000
,  // measure 78
0000
0000
0000
0000
,  // measure 79
0000
0000
0000
0000
,  // measure 80
0000
0000
0000
0000
,  // measure 81
3003
0000
0000
0000
;

//---------------dance-single - NewbStepper-ESP----------------
#NOTES:
     dance-single:
     NewbStepper:
     Hard:
     16:
     0.729699,1.004526,0.457308,0.170521,0.996000,659,600,59,22,0,0,0.729699,1.004526,0.457308,0.170521,0.996000,659,600,59,22,0,0:
// measure 0
0000
0000
0000
0000
,  // measure 1
0000
0000
0000
0000
,  // measure 2
0000
0000
0000
0000
,  // measure 3
0000
0000
0000
0000
,  // measure 4
0000
0000
0000
0000
0000
0000
0000
0000
0000
0000
0000
0100
0000
0000
0100
0000
,  // measure 5
1001
0000
0000
0000
,  // measure 6
0000
0000
0000
0000
,  // measure 7
0001
0100
0001
0100
0010
1000
0010
1000
0001
0010
0001
0010
0100
1000
0100
1000
,  // measure 8
0002
0000
0000
0000
1003
0100
0010
0001
,  // measure 9
1000
0000
0000
0001
0000
0000
0010
0000
0100
0000
1000
0000
0010
0000
0100
0000
,  // measure 10
0001
0000
0010
0000
1000
0010
0001
0000
0100
0000
0010
0000
0000
0000
0100
0000
,  // measure 11
0001
0000
0000
1000
0000
0000
0010
0000
0100
0000
0001
0000
1000
0010
0100
0001
,  // measure 12
1000
0100
0010
0001
0100
0010
1000
0001
0010
0100
0000
0100
0000
0100
0000
1000
,  // measure 13
0001
0000
0100
0010
1000
0000
0000
0000
0100
0000
0020
0000
0000
0000
0031
0100
,  // measure 14
0001
1000
0000
0010
0000
0100
0000
1000
0000
0100
0001
0010
0000
0100
0000
1000
,  // measure 15
0001
0000
0100
0000
0010
0000
1000
0000
0100
0000
0010
0001
1000
0010
0100
0001
,  // measure 16
0010
0000
0000
0011
0000
0000
0001
0100
0010
1000
0000
0000
1100
0000
0000
1001
,  // measure 17
0000
0000
0000
0011
0000
0000
0000
0000
0000
0010
0000
0000
0001
0000
0000
0000
0100
0000
0000
0000
0010
0000
0000
0000
0000
0000
0000
0000
0000
0000
0220
0000
0000
0000
0000
0000
0000
0000
0000
0000
0000
0000
0330
0000
0000
0000
0000
0000
,  // measure 18
1000
0000
0000
1200
0000
0000
0000
0310
0000
0000
0201
0000
0000
0310
0000
0000
,  // measure 19
1000
0001
0000
0001
0000
0001
0000
0001
0100
0000
0010
0000
0000
1000
0000
0000
,  // measure 20
0001
0000
0000
0021
0000
0000
0000
0130
0000
0000
1020
0000
0000
0130
0000
0000
,  // measure 21
0010
1000
0000
1000
0000
0000
0001
0000
0010
0100
0010
0000
1001
0000
0000
0000
,  // measure 22
0001
0000
0000
0201
0000
0000
0000
0310
0000
0000
1200
0000
0000
0310
0000
0000
,  // measure 23
0001
1000
0000
1000
0000
1000
0000
1000
0100
0000
0010
0000
0000
0001
0000
0000
,  // measure 24
1000
0000
0000
0001
0000
0000
0200
0000
0000
0310
1000
0100
0010
0001
0100
0010
,  // measure 25
1000
0001
0010
0100
1000
0010
0100
0001
0010
0000
0010
0000
0010
0000
0010
0000
,  // measure 26
0001
0000
0000
0001
0100
0000
1000
0100
1000
0000
0100
0000
0010
0000
1000
0000
,  // measure 27
0001
0000
0000
0001
0100
0000
1000
0100
1000
0000
0100
0000
0010
0000
1000
0000
,  // measure 28
0001
0000
0000
0001
1000
0000
0010
1000
0100
0000
0001
0000
0100
0000
1000
0000
,  // measure 29
1010
1001
0011
0110
,  // measure 30
0100
0000
0000
1000
0001
0000
0101
0000
0000
0000
0110
0000
0000
0000
2020
0000
,  // measure 31
0000
0000
0030
3000
0010
1000
0001
0010
0100
1000
0001
0100
0010
0100
0001
1000
,  // measure 32
0100
0010
1000
0010
0001
1000
0001
0100
0010
0000
0000
0000
1000
0000
0001
0000
,  // measure 33
0010
0000
0001
0000
1000
0000
0000
0010
0100
0000
0001
0100
0001
0100
0001
1000
,  // measure 34
0100
0000
0000
1100
0000
0000
1001
0000
0000
0000
0000
0000
0000
0000
0110
0000
,  // measure 35
0000
0101
0000
0000
1001
0000
0000
0000
0000
0000
0000
0000
0000
0000
0110
0000
,  // measure 36
0000
0000
1000
0010
1000
0000
0001
0000
0011
0000
0000
0110
0000
0000
1100
0000
,  // measure 37
1001
0000
0000
0001
0010
0000
0000
0010
0100
0000
1000
0000
0001
1000
0001
1000
,  // measure 38
0010
0000
1000
0010
0100
0010
1000
0001
0100
0001
1000
0100
0010
0100
1000
0001
,  // measure 39
0010
0001
1000
0100
0010
0001
1000
0001
0100
0010
0001
0010
0100
1000
0100
0010
,  // measure 40
1000
0000
0001
0000
1000
0100
1000
0100
0010
0001
0000
0001
0100
0000
0010
0000
,  // measure 41
1010
0000
0000
1000
0100
0000
0000
0100
0010
0000
0001
0000
1000
0001
1000
0001
,  // measure 42
0020
0000
0000
0000
0000
0000
0032
0000
0000
0000
0000
0000
0003
0000
1000
0010
,  // measure 43
0100
0001
0100
1000
0100
0001
1000
0100
0001
0100
1000
0010
,  // measure 44
0100
0000
0000
0001
0000
0000
1000
0000
0000
0000
0010
0000
0000
0000
0100
0000
,  // measure 45
0001
0000
0100
0000
0010
0000
1000
0100
,  // measure 46
0110
0000
0000
0000
,  // measure 47
0000
0000
0000
0000
,  // measure 48
1001
0000
0000
0000
,  // measure 49
0001
0000
0100
0000
0010
0000
1000
0000
1001
0000
0000
1001
0000
0000
1001
0000
,  // measure 50
1000
0010
1000
0010
0100
0001
0100
0001
0010
0100
1000
0010
0100
0001
0020
0000
,  // measure 51
0000
0000
0000
0000
0130
0100
2000
0000
,  // measure 52
3001
0000
0000
0100
0000
0000
0001
0000
1000
0000
0000
1000
0100
0000
0010
0100
,  // measure 53
0010
0001
0000
1000
0000
0001
0100
0000
0001
0000
0010
0000
1000
0000
0010
0000
,  // measure 54
0001
0000
0000
1000
0000
0000
0010
0000
0100
0000
0000
0010
0000
1000
0100
0000
,  // measure 55
0010
0001
0000
1000
0000
0001
0000
0001
0100
0010
1000
0001
0010
0100
0010
0001
,  // measure 56
1000
0000
0000
0010
0000
0000
0100
0000
0001
0000
0000
0010
0000
0000
1000
0000
,  // measure 57
0001
0000
0000
0000
0000
0000
0100
0010
0001
0000
0000
0001
0000
0000
1000
0000
,  // measure 58
0010
0000
0000
0100
0000
0000
1000
0000
0001
0000
0000
0000
0010
0000
0100
0010
,  // measure 59
0100
0001
0000
1000
0000
0100
0000
0010
0001
0000
0000
0110
0000
0000
1001
0000
,  // measure 60
1000
0000
0000
0001
0000
0000
0010
0000
0100
0000
0000
1000
0100
1000
0100
0010
,  // measure 61
0001
0100
0010
0000
0100
1000
0000
0100
0001
0000
0010
1000
0000
0010
0001
0100
,  // measure 62
0010
0000
0000
1000
0000
0000
0010
0000
0100
0000
0002
0000
0000
0000
0000
0000
,  // measure 63
0013
0000
0200
0000
0000
1300
0010
0100
0010
1000
0100
0010
0001
0100
0010
1000
,  // measure 64
0001
0010
0000
0110
0000
0100
0010
0100
1000
0010
0100
0001
0000
1000
0100
0010
,  // measure 65
0001
0000
0100
0001
0000
0000
1000
0100
0010
0100
1000
0001
0000
0100
0010
0000
,  // measure 66
1000
1000
0001
0001
0010
0010
0100
0100
,  // measure 67
1000
0001
1000
0001
1000
0001
1000
0001
1000
0000
0000
1100
0000
0000
1001
0000
,  // measure 68
0001
0000
0000
0100
0000
0000
0010
0000
1000
0000
0001
0010
0000
0001
0000
0100
,  // measure 69
0010
1000
0100
0010
0000
0001
0000
0001
1000
0100
0010
1000
0001
0100
0010
0001
,  // measure 70
1000
0000
0000
0001
0000
0000
0100
0000
0010
0000
1000
0001
1000
0100
0010
0001
,  // measure 71
0200
0000
0000
0000
0000
0300
1000
0100
0001
0010
0000
0110
0000
1001
0000
0001
,  // measure 72
0100
0000
0010
1000
0000
1001
0000
0000
0011
0000
0000
1010
0000
0000
0101
0000
,  // measure 73
0000
1100
0000
0000
0110
0000
0000
1001
0000
0000
1000
0010
1000
0001
0100
0010
,  // measure 74
1000
0100
0010
0100
0001
0100
1000
0001
0100
0010
0100
1000
0100
0010
1000
0001
,  // measure 75
0010
0000
0000
0110
0000
0000
0001
0100
0000
0110
0000
0000
1010
0000
0000
0101
,  // measure 76
0000
0000
0000
0000
0000
0000
0011
0000
0000
0000
0000
0000
0000
0000
0000
1100
0000
0000
0000
0000
0000
0101
0000
0000
0000
0000
0000
0110
0000
0000
0000
0000
0000
0010
0000
0000
1000
0000
0000
0000
0100
0000
0000
0000
0110
0000
0000
0000
,  // measure 77
0000
0000
0000
0000
0000
0000
0000
0002
0000
0000
2000
0000
0000
0000
0000
0000
,  // measure 78
0000
0000
0000
0000
,  // measure 79
0000
0000
0000
0000
,  // measure 80
0000
0000
0000
0000
,  // measure 81
3003
0000
0000
0000
;

//---------------dance-double - RGTM-BDP----------------
#NOTES:
     dance-double:
     RGTM-BDP:
     Easy:
     7:
     0.255782,0.408089,0.186023,0.069759,0.003875,231,207,24,9,0,0,0.255782,0.408089,0.186023,0.069759,0.003875,231,207,24,9,0,0:
00000000
00000000
00000000
00000000
,
00000000
00000000
00000000
00000000
,
00000000
00000000
00000000
00000000
,
00000000
00000000
00000000
00000000
,
00000000
00000000
00000000
00000000
,
10010000
00000000
00000000
00000000
,
00000000
00000000
00000000
00000000
,
00010000
10000000
00010000
10000000
,
00100000
00000000
00000000
00000000
,
10000000
01000000
00010000
00000000
,
00001000
00000100
00000001
00000000
,
00000001
00000010
00001000
00000000
,
00010000
00100000
10000000
00000000
,
00100000
10000000
01000000
00000000
,
00100000
00001000
00010000
00000000
,
00000010
00001000
00000001
00000010
,
00000220
00000000
00000000
00000000
,
00000000
00000000
00000330
00000000
00000000
00001001
00000000
00000000
,
00000001
00000100
00001000
00000100
,
00000001
00000010
00001000
00001000
,
00010000
00100000
10000000
00100000
,
01000000
00010000
10000000
00000000
,
10000000
01000000
00010000
01000000
,
10000000
00100000
00010000
00010000
,
00002000
00000000
00003020
00000000
,
00000031
00000001
00001000
00001000
,
00000010
00000000
00001001
00000000
,
00000100
00000000
00011000
00000000
,
00100000
00000000
10010000
00000000
,
10000000
01000000
00100000
00010000
,
01000000
00000000
00000000
00001000
00000000
00010000
00000000
00001000
,
00000000
00000100
00000010
00001000
,
00000001
00000010
00000100
00000000
,
00000110
00000000
00010000
00001000
,
00011000
00000000
00000000
00000000
00000000
00000000
00000000
01100000
,
00000000
00000000
00000000
00000000
00000000
00000000
00000000
10010000
,
00000000
00000000
00000000
00000000
,
10000000
00100000
01000000
00001000
,
00010000
00001000
00001000
00000010
,
00000001
00000001
00000100
00000010
,
00000010
00010000
00001000
00100000
,
01100000
10000000
01100000
00010000
,
00011000
00000000
00000000
00000000
,
00000000
00000000
00000000
00000000
,
00000000
00000000
00000000
00000000
,
00000000
00000000
00000000
00000000
,
00000010
00000000
00000000
00000000
,
00000000
00000000
00000000
00000000
,
00000001
00000000
00000000
00000000
,
00001000
00000100
00000010
00000001
,
00002002
00000000
00000000
00000000
,
00003003
00000000
00000000
00000000
,
00000001
00000100
00000010
00010000
,
00001000
01000000
00100000
00100000
,
10000000
01000000
00100000
00001000
,
00010000
00000010
00000100
00000100
,
00000001
00000010
00001000
00010000
,
01000000
10000000
00100000
01000000
,
00001000
00010000
00001000
00000000
,
00000010
00000100
00000010
00000010
,
00000001
00000010
00000100
00010000
,
00001000
00100000
01000000
01000000
,
10000000
00100000
01000000
00001000
,
00010000
00000100
00000010
00000010
,
00000001
00000100
00001000
00010000
,
00100000
10000000
01000000
00100000
,
01100000
10000000
01100000
00010000
,
00022000
00000000
00033000
00000000
,
00010000
01000000
00100000
00010000
,
10000000
00100000
00010000
00010000
,
00001000
00000100
00000010
00001000
,
00000001
00000010
00001000
00001000
,
00010000
01000000
10000000
00100000
,
00010000
00001000
00000100
00000001
,
00001001
00000010
00001001
00000100
,
00011000
00000000
00000000
10010000
00000000
00000000
01100000
00000000
,
00000000
00000000
10010000
00000000
00000000
00000000
00000000
00000000
00000000
00000000
00000000
10010000
00000000
00000000
00000000
00000000
,
00000000
00000000
00000000
00000000
00000000
00200000
00000000
00000000
,
00000000
00000000
00000000
00000000
,
00000000
00000000
00000000
00000000
,
00000000
00000000
00000000
00000000
,
00300000
00000000
00000000
00000000
;

//---------------dance-double - RGTM-DDP----------------
#NOTES:
     dance-double:
     RGTM-DDP:
     Medium:
     12:
     0.470595,0.565046,0.232529,0.232529,0.313915,425,395,30,30,0,0,0.470595,0.565046,0.232529,0.232529,0.313915,425,395,30,30,0,0:
00000000
00000000
00000000
00000000
,
00000000
00000000
00000000
00000000
,
00000000
00000000
00000000
00000000
,
00000000
00000000
00000000
00000000
,
00000000
00000000
00000000
00000000
,
10010000
00000000
00000000
00000000
,
00000000
00000000
00000000
00000000
,
10000000
01000000
00100000
00010000
10000000
00100000
01000000
00010000
,
00200000
00000000
00000000
00000000
00301000
00010000
00001000
00010000
,
00000010
00000000
00000000
00000010
00000000
00000000
00000010
00000000
00000100
00000000
00000002
00000000
00000000
00000000
00001003
00000000
,
00000000
00000100
00000010
00000001
00000000
00001000
00000000
00000010
,
00010000
00000000
00000000
00010000
00000000
00000000
00010000
00000000
00001000
00000000
00200000
00000000
00010000
00000000
00310000
00000000
,
00100000
00000000
01000000
00000000
10000000
00000000
00010000
00000000
01000000
00000000
00000000
00100000
00000000
00100000
00000000
10000000
,
00000000
00000000
00010000
10000000
00010000
00000000
00000000
00000000
00100000
00000000
02000000
00000000
00000000
00000000
03100000
00000000
,
00001000
00000000
00000000
00000000
00010000
00000000
00000000
00000000
00000100
00000000
00000000
00000010
00000000
00000000
00000001
00000000
,
00001000
00000010
00000100
00000010
00010000
00001000
00100000
01000000
,
10000000
00000000
00000000
10000000
00000000
00000000
00100000
01000000
00000000
01000000
00000000
00000000
00020000
00000000
00000000
00130000
,
00000000
00000000
00000000
00001000
00000000
00000000
00000000
00000000
00000000
00010000
00000000
00000000
00002000
00000000
00000000
00000000
00000000
00000000
00000000
00000000
00003000
00000000
00000000
00000000
00000000
00000000
00000000
00000000
00000000
00000000
00021000
00000000
00000000
00000000
00000000
00000000
00000000
00000000
00000000
00000000
00000000
00000000
00000000
00000000
00000000
00000000
00000000
00000000
,
00031000
00000100
00000001
00000010
,
00001000
00010000
00000000
00010000
00000000
00010000
00000000
00010000
00001000
00000000
00100000
00000000
00000000
01000000
00000000
00000000
,
00010000
01000000
10000000
00100000
,
00010000
00001000
00000000
00001000
00000000
00000000
00010000
00000000
00000100
00000000
00000000
00000000
00000120
00000000
00000000
00000000
,
00001030
00000010
00000001
00000100
,
00001000
00010000
00000000
00010000
00000000
00010000
00000000
00010000
00001000
00000000
01000000
00000000
00000000
00100000
00000000
00000000
,
00010000
00000000
00000000
00100000
00000000
00000000
10000000
00000000
00000000
01000000
00000000
00000000
00100000
00000000
00001000
00000000
,
00010000
00000000
00000000
00010000
00001000
00000000
00000000
00001000
00010000
00000000
00000100
00000000
00000010
00000000
00000001
00000000
,
00002000
00000000
00103000
00000000
10000000
01000000
00100000
00020000
,
00000000
00000000
00030010
00000000
00000001
00000100
00000010
00002000
,
00000000
00000000
00103000
00000000
01000000
00010000
10000000
01000000
,
01100000
00110000
00011000
00001010
,
00000020
00000000
00000130
00000001
00000000
00001001
00000000
00001200
,
00000000
00000000
00010300
00001000
01000000
00100000
10000000
01000000
,
00100000
00001000
00010000
00000010
00000200
00000000
00000310
00001000
,
00000001
00000000
00000010
00000000
00000100
00000000
00000000
00000100
00010000
00000000
00001000
00000000
00010000
00000000
00001000
00000000
,
01000000
00000000
00000000
01100000
00000000
00000000
01100000
00000000
00000000
00000000
00000000
00000000
00000000
00000000
10000000
00000000
,
00000000
10010000
00000000
00000000
10010000
00000000
00000000
00000000
00000000
00000000
00000000
00000000
00000000
00000000
01100000
00000000
,
00000000
00000000
10000000
00010000
10000000
00000000
00000000
00000000
01000000
00000000
00000000
00100000
00000000
00000000
00001000
00000000
,
00010000
00000000
00000000
00010000
00001000
00000000
00000000
00001000
00000010
00000000
00000000
00000010
00000002
00000000
00000000
00000000
,
00001003
00000001
00000010
00000100
00000010
00000001
00001000
00000100
,
00000010
00000100
00010000
00001000
00010000
01000000
10000000
00100000
,
00010000
00000000
00100000
00000000
01000000
00000000
00000000
00000000
00010000
00000000
00000000
10000000
00000000
00000000
01000000
00000000
,
01100000
11000000
00101000
00011000
,
00010020
00000000
00000000
00000230
00000000
00000000
00000000
00000000
,
00000300
00000000
00000000
00000000
,
00000001
00000000
00000000
00001000
00000000
00000000
00000001
00000000
00000000
00000000
00000010
00000000
00000000
00000000
00000100
00000000
,
00020000
00000000
00000000
00000000
00030000
00000000
00000000
00001000
,
00002000
00000000
00000000
00003000
,
00000000
00000000
00000000
00000000
,
01100000
00000000
00000000
00000000
,
10000000
00000000
01000000
00000000
00100000
00000000
00010000
00000000
01000000
00000000
00000000
00100000
00000000
00000000
01000000
00000000
,
00001000
00000000
00010000
00000000
00001000
00000000
00000100
00000000
00000001
00000000
00000000
00000010
00000000
00000000
00000200
00000000
,
00000000
00000000
00000020
00000330
,
00000001
00000000
00000000
00001000
00000000
00000000
00000001
00000000
00000020
00000000
00000000
00000000
00000130
00000000
00000010
00000000
,
00000001
00000000
00000000
00001000
00000000
00000000
00000010
00000000
00000100
00000000
00000001
00000000
00001000
00000000
00000100
00000000
,
00010000
00000000
00000000
00001000
00000000
00000000
00010000
00000000
00100000
00000000
00000000
01000000
00000000
00000000
00010000
00000000
,
10000000
00000000
00000000
01000000
00000000
01000000
00000000
00000000
00100000
00000000
00010000
00000000
00100000
00000000
00001000
00000000
,
00010000
00000000
00000000
00001000
00000000
00000000
00010000
00000000
00000010
00000000
00000000
00000001
00000000
00000000
00000010
00000000
,
00002000
00000000
00000000
00000000
00003000
00000000
00000001
00000000
00001000
00000000
00000000
00000100
00000000
00000000
00000010
00000000
,
00001000
00000000
00000000
00010000
00000000
00000000
00001000
00000000
00200000
00000000
00000000
00000000
00310000
00000000
00000000
00000000
,
01000000
00100000
01000000
00000000
00100000
00000000
10010000
00000000
,
10000000
00000000
00000000
00010000
00000000
00000000
10000000
00000000
00200000
00000000
00000000
00000000
01300000
00000000
00100000
00000000
,
10000000
00000000
00000000
00000000
01000000
00000000
00000000
00000000
00100000
00000000
00000000
00001000
00000000
00000000
00001000
00000000
,
00010000
00000000
00000000
00000010
00000000
00000000
00010000
00000000
00000100
00000000
00000020
00000000
00000000
00000000
00000000
00000000
,
00000031
00000000
00000010
00000000
00000000
00000100
00000010
00000000
00000001
00000000
00000000
00001000
00000000
00000000
00000010
00000000
,
00000100
00000000
00000000
00001100
00000000
00000000
00001000
00000000
00010000
00000000
00000000
00011000
00000000
00000000
00001000
00000000
,
00100000
00000000
00000000
01100000
00000000
00000000
01000000
00000000
10000000
00000000
00000000
10010000
00000000
00000000
00010000
00000000
,
01000000
00100000
01000000
00100000
10000000
00010000
10000000
00010000
,
00100000
00000000
01000000
00000000
00020000
00000000
00000000
00000000
00031000
00000000
00000000
00011000
00000000
00000000
00010100
00000000
,
00000100
00000000
00000000
00000010
00000000
00000000
00000001
00000000
00001000
00000000
00000001
00000000
00000010
00000000
00000001
00000000
,
00000100
00001000
00010000
00001000
00000100
00000010
00010000
00001000
,
01000000
00000000
00000000
00100000
00000000
00000000
10000000
00000000
00010000
00000000
10000000
00000000
01000000
00000000
00010000
00000000
,
00001000
00000000
00000000
00000000
00010000
00000000
01000000
00000000
10000000
00000000
00000000
00100000
00000000
00100000
00000000
01000000
,
00000000
00000000
00010000
00000000
00000000
00100000
00000000
00000000
01000000
00000000
00000000
00010000
00000000
00000000
00001000
00000000
,
00000000
00000100
00000000
00000000
00000010
00000000
00000000
00001000
00000000
00000000
00000001
00000000
00000010
00000000
00000001
00000000
,
00000100
00000100
00000010
00000010
00010000
00010000
00001000
00001000
,
00010000
00000000
00000000
00011000
00000000
00000000
00001000
01000000
00000000
01000000
00000000
00000000
00100000
00000000
00000000
01100000
,
00000000
00000000
00000000
00000000
00000000
00000000
10010000
00000000
00000000
00000000
00000000
00000000
00000000
00000000
00000000
10000000
00000000
00000000
00000000
00000000
00000000
01000000
00000000
00000000
00000000
00000000
00000000
00100000
00000000
00000000
00000000
00000000
00000000
00001000
00000000
00000000
00020000
00000000
00000000
00000000
00000000
00000000
00000000
00000000
00030000
00000000
00000000
00000000
,
00000000
00000000
00000000
00000000
00000000
00000000
00000000
00000020
00000000
00000000
00000200
00000000
00000000
00000000
00000000
00000000
,
00000000
00000000
00000000
00000000
,
00000000
00000000
00000000
00000000
,
00000000
00000000
00000000
00000000
,
00000330
00000000
00000000
00000000
;

//---------------dance-double - RGTM-EDP----------------
#NOTES:
     dance-double:
     RGTM-EDP:
     Hard:
     16:
     0.711983,0.878961,0.426304,0.217027,0.945619,643,588,55,28,0,0,0.711983,0.878961,0.426304,0.217027,0.945619,643,588,55,28,0,0:
00000000
00000000
00000000
00000000
,
00000000
00000000
00000000
00000000
,
00000000
00000000
00000000
00000000
,
00000000
00000000
00000000
00000000
,
00000000
00000000
00000000
00000000
00000000
00000000
00000000
00000000
00000000
00000000
00000000
01000000
00000000
00000000
01000000
00000000
,
10010000
00000000
00000000
00000000
,
00000000
00000000
00000000
00000000
,
00010000
00000000
00000000
00100000
00000000
00000000
00001000
00000000
00010000
00000000
00000100
00000010
00000001
00001000
00000001
00000100
,
00000020
00000000
00000000
00000000
00000130
00001000
00010000
01000000
,
10000000
00000000
00000000
00010000
00000000
00000000
01000000
00000000
00100000
00000000
10000000
00000000
01000000
00000000
00100000
00000000
,
00001000
00000000
00010000
00000000
00000100
00001000
00000010
00000000
00000000
00000000
00000110
00000000
00000000
00000000
00000100
00000000
,
00000001
00000000
00000000
00001000
00000000
00000000
00000100
00000000
00000010
00000000
00000100
00000000
00000010
00000001
00001000
00000010
,
00010000
00000000
00001000
00100000
00010000
00000000
10000000
00010000
01000000
00001000
00000000
01001000
00000000
00011000
00000000
00010000
,
00000100
00000000
00000000
00000010
00000000
00000000
00000001
00000000
00001000
00000000
00000020
00000000
00000000
00000000
00000130
00000001
,
00000100
00000010
00000000
00010000
00000000
00001000
00000000
00100000
00000000
00010000
10000000
00100000
00000000
01000000
00000000
00010000
,
00100000
00000000
00000000
01000000
00000000
00000000
00010000
00000000
00001000
00000000
01000000
00010000
01000000
00100000
10000000
00010000
,
10000000
00000000
00000000
00000000
00000000
00000000
01100000
00000000
00000000
00000000
00000000
00000000
10000000
00000000
00010000
00000000
00000000
00000000
01100000
00000000
00000000
00000000
00000000
00000000
00021000
00000000
00000000
00000000
00000000
00030000
00000010
00000000
,
00000000
00000000
00000000
00001001
00000000
00000000
00000000
00000000
00000000
00000001
00000000
00000000
00000010
00000000
00000000
00000000
00001000
00000000
00000000
00000000
00011000
00000000
00000000
00000000
00000000
00000000
00000000
00000000
00000000
00000000
02200000
00000000
00000000
00000000
00000000
00000000
00000000
00000000
00000000
00000000
00000000
00000000
03300000
00000000
00000000
00000000
00000000
00000000
,
10000000
00000000
00000000
01020000
00000000
00000000
00000000
00130000
00000000
00000000
00002100
00000000
00000000
00003010
00000000
00000000
,
00010000
00001000
00000000
00010000
00000000
00010000
00000000
00000100
00000010
00000000
00000001
00000000
00000000
00001000
00000000
00000000
,
00000001
00000000
00000000
00002100
00000000
00000000
00000000
00003010
00000000
00000000
01020000
00000000
00000000
00130000
00000000
00000000
,
00001000
00010000
00000000
00010000
00000000
00000000
00100000
00000000
10000000
01000000
00100000
00000000
10010000
00000000
00000000
00000000
,
10000000
00000000
00000000
00120000
00000000
00000000
00000000
01030000
00000000
00000000
00002010
00000000
00000000
00003100
00000000
00000000
,
00010000
00001000
00000000
00010000
00000000
00010000
00000000
00000010
00000100
00000000
00000001
00000000
00000000
00001000
00000000
00000000
,
00000001
00000000
00000000
00000010
00000000
00000000
00000100
00000000
00000000
00001000
00000100
00010000
00000100
00010000
00001000
01000000
,
00010000
00000000
01000000
00100000
10000000
00000000
01000000
00100000
00001000
00000000
00001000
00000000
00010000
00000000
00010000
00000000
,
00012000
00000000
00000000
00000010
00000000
00000000
00013000
00001000
00000100
00000000
00000001
00000000
00000010
00000000
00001000
00000000
,
00020000
00000000
00000000
00100000
00000000
00000000
00031000
00010000
01000000
00000000
10000000
00000000
00100000
00000000
00010000
00000000
,
00002000
00000000
00000000
00000100
00000000
00000000
00013000
00001000
00000010
00000000
00000001
00000000
00001000
00000000
00000010
00000000
,
00010010
00101000
01010000
00001100
,
00011000
00000000
00010000
02000000
00000000
23000000
00000000
30200000
,
00000000
00000000
01300000
00000000
00010000
00000000
10000000
01000000
00100000
00000000
00010000
00100000
00001000
00000000
00010000
00000010
,
00001000
00000000
00000001
00001000
00000100
00010000
00000010
00001000
00000001
00000000
00000000
00000000
00001000
00000000
00000100
00000000
,
00000010
00000000
00000001
00000000
00001000
00000000
00000010
00010000
00001000
00000000
01000000
00010000
01000000
00010000
01000000
00010000
,
00100000
00000000
00000000
01100000
00000000
00000000
01000000
00100000
00010000
00000000
10000000
00000000
00100000
00000000
01100000
00000000
,
00000000
01001000
00000000
00000000
00011000
00000000
00010000
00000100
00001000
00000000
00000100
00000000
00000010
00000000
00001001
00000000
,
00000000
00000000
00001000
00000001
00001000
00000000
00000001
00000100
00000010
00000000
00000100
00000000
00001000
00000000
00010000
00000000
,
00100000
00000000
00000000
00100000
10000000
00000000
00000000
10000000
00010000
00000000
00100000
00000000
01000000
00100000
01000000
00000000
,
10000000
00000000
00100000
10000000
00010000
00100000
01000000
00000000
00100000
00010000
10000000
00010000
01000000
00001000
00010000
00000000
,
00000100
00001000
00000000
00000001
00000100
00000000
00000010
00010000
00001000
00000100
00001000
00000100
00001000
00010000
00100000
00010000
,
00001000
00000000
00100000
00000000
01000000
00100000
01000000
00100000
00010000
00100000
00000000
01000000
10000000
01000000
00100000
00010000
,
10000000
00000000
00000000
00010000
01000000
00000000
00000000
00001000
00010000
00000000
00000100
00000010
00000001
00000010
00000100
00001000
,
00000002
00000000
00000000
00000000
00000000
00000000
00002003
00000000
00000000
00000000
00000000
00000000
00000000
00000000
00003001
00001000
,
00000001
00000010
00000100
00000010
00001000
00010000
00001000
00010000
00100000
01000000
00100000
10000000
,
00010000
00000000
00000000
10000000
00000000
00000000
01000000
00000000
00000000
00000000
00100000
00000000
00000000
00000000
00001000
00000000
,
00010000
00000000
00000010
00000000
00001000
00000000
00000100
00000010
,
00000110
00000000
00000000
00000000
,
00000000
00000000
00000000
00000000
,
00011000
00000000
00000000
00000000
,
10000000
00000000
01000000
00000000
00010000
00000000
00001000
00000000
00011000
00000000
00000000
00011000
00000000
00000000
00011000
00000000
,
00010000
00000100
00010000
00000100
00000010
00000001
00000010
00000001
00001000
00000010
00010000
00001000
00100000
00001000
00020000
00000000
,
00000000
00000000
00000000
00000000
01030000
10000000
00200000
00000000
,
10300000
00000000
00000000
00010000
00000000
00000000
00100000
00000000
01000000
00000000
00000000
00000000
00010000
00000000
00001000
00010000
,
00001000
00000100
00000010
00001000
00000000
00000001
00001000
00000000
00000100
00000000
00000010
00000000
00000001
00000000
00001000
00000000
,
00000001
00000000
00000000
00000100
00000000
00000000
00001000
00000000
00010000
00000000
00000000
00000010
00000000
00010000
00001000
00000000
,
00010000
00100000
00000000
10000000
00000000
01000000
00000000
01000000
00100000
00001000
01000000
00010000
00100000
00010000
10000000
00100000
,
10000000
00000000
00000000
01000000
00000000
00000000
00010000
00000000
00001000
00000000
00000000
00100000
00000000
00000000
01000000
00000000
,
00010000
00000000
00000000
00000000
00000000
00000000
00001000
00010000
00001000
00000000
00000000
00000100
00000000
00000000
00000001
00000000
,
00000010
00000000
00000000
00001000
00000000
00000000
00010000
00000000
00000010
00000000
00000000
00000000
00000100
00000000
00001000
00010000
,
00001000
00010000
00000000
00100000
00000000
10000000
00000000
00010000
00100000
00000000
00000000
00101000
00000000
00000000
00011000
00000000
,
00001000
00000000
00000000
00000100
00000000
00000000
00000010
00000000
00001000
00000000
00000000
00000001
00001000
00000001
00001000
00000001
,
00000010
00000100
00000000
00000100
00001000
00000010
00000000
00000010
00010000
00000000
00010000
00001000
00000000
00001000
01000000
00100000
,
01000000
00000000
00000000
00100000
00000000
00000000
10000000
00000000
00010000
00000000
00200000
00000000
00000000
00000000
00000000
00000000
,
00310000
00000000
20000000
00000000
00000000
30010000
00100000
00010000
10000000
00100000
01000000
00001000
01000000
00001000
00010000
00001000
,
00010000
00000100
00000000
00000110
00000000
00000010
00000001
00000100
00000010
00010000
00001000
00010000
00000000
00001000
01000000
00100000
,
10000000
00000000
00010000
10000000
00000000
00000000
01000000
00100000
01000000
10000000
00100000
00010000
00000000
00010000
00001000
00000000
,
00000010
00000010
00000001
00000001
00000100
00000100
00000010
00000010
,
00010000
00001000
00010000
00001000
00010000
00001000
00010000
00001000
00100000
00000000
00000000
01100000
00000000
00000000
10010000
00000000
,
00010000
00000000
00000000
10000000
00000000
00000000
00100000
00000000
00010000
00000000
00001000
00100000
00000000
01000000
00000000
00010000
,
00001000
00010000
00001000
00000010
00000000
00000001
00000000
00000001
00000100
00000010
00001000
00000100
00000010
00000001
00000100
00000010
,
00010000
00000000
00000000
00001000
00000000
00000000
00000010
00000000
00000001
00000000
00000100
00000001
00001000
00000100
00000010
00000100
,
00020000
00000000
00000000
00000000
00001000
00000000
00130000
01000000
00010000
00100000
00000000
00110000
00000000
10010000
00000000
10000000
,
00100000
00000000
01000000
00001000
00000000
00011000
00000000
00000000
00010100
00000000
00000000
00000110
00000000
00000000
00000011
00000000
,
00000000
00000101
00000000
00000000
00010010
00000000
00000000
00011000
00000000
00001000
00100000
00001000
00010000
00001000
00100000
00010000
,
10000000
00100000
01000000
00100000
00010000
00100000
10000000
00100000
02000000
00000000
00000000
00000000
03010000
01000000
00010000
00100000
,
00001000
00000000
00000000
00000110
00000000
00000000
00000001
00001000
00000000
00000110
00000000
00000000
00012000
00000000
00000000
00103000
,
00000000
00000000
00000000
00000000
00000000
00000000
10010000
00000000
00000000
00000000
00000000
00000000
00000000
00000000
00000000
01100000
00000000
00000000
00000000
00000000
00000000
10010000
00000000
00000000
00000000
00000000
00000000
01100000
00000000
00000000
00000000
00000000
00000000
10000000
00000000
00000000
01000000
00000000
00000000
00000000
00010000
00000000
00000000
00000000
00011000
00000000
00000000
00000000
,
00000000
00000000
00000000
00000000
00000000
00000000
00000000
00000200
00000000
00000000
00000020
00000000
00000000
00000000
00000000
00000000
,
00000000
00000000
00000000
00000000
,
00000000
00000000
00000000
00000000
,
00000000
00000000
00000000
00000000
,
00000330
00000000
00000000
00000000
;
