#VERSION:0.83;
#TITLE:No Money;
#ARTIST:Galantis;
#BANNER:No Money.png;
#BACKGROUND:No Money-bg.png;
#JACKET:No Money-jacket.png;
#MUSIC:No Money.ogg;
#OFFSET:-0.64;
#SAMPLESTART:45.4;
#SAMPLELENGTH:15;
#BPMS:0=125.976;
#BGCHANGES:-1=No Money.avi=1=0=0=0=StretchNoLoop====,99999=-nosongbg-=1=0=0=0 // don't automatically add -songbackground-;

//---------------dance-single - RIME-bSP----------------
#NOTEDATA:;
#CHARTNAME:RIME-bSP;
#STEPSTYPE:dance-single;
#DESCRIPTION:RIME-bSP;
#DIFFICULTY:Beginner;
#METER:1;
#CREDIT:RIME;
#NOTES:
0000
0000
0000
0000
,
0000
0000
0000
0000
,
0000
0000
0000
0000
,
0000
0000
0000
0000
,
1000
0000
0000
0000
,
1000
0000
0000
0000
,
0001
0000
0000
0000
,
0001
0000
0000
0000
,
0200
0000
0000
0000
,
0300
0000
0000
0000
,
0020
0000
0000
0000
,
0030
0000
0000
0000
,
1000
0000
0000
0000
,
1000
0000
0000
0000
,
0001
0000
0000
0000
,
0001
0000
0000
0000
,
0020
0000
0000
0000
,
0030
0000
0000
0000
,
0200
0000
0000
0000
,
0300
0000
0000
0000
,
2000
0000
0000
0000
,
3000
0000
0000
0000
,
0002
0000
0000
0000
,
0003
0000
0000
0000
,
1000
0000
0000
0000
,
1000
0000
0000
0000
,
0100
0000
0000
0000
,
0100
0000
0000
0000
,
0010
0000
0000
0000
,
0010
0000
0000
0000
,
0001
0000
0000
0000
,
0001
0000
0000
0000
,
2000
0000
0000
0000
,
3000
0000
0000
0000
,
1001
0000
0000
0000
,
0001
0000
0000
0000
,
0100
0000
0000
0000
,
0100
0000
0000
0000
,
0010
0000
0000
0000
,
0010
0000
0000
0000
,
2000
0000
0000
0000
,
3000
0000
0000
0000
,
0002
0000
0000
0000
,
0003
0000
0000
0000
,
0200
0000
0000
0000
,
0300
0000
0000
0000
,
0020
0000
0000
0000
,
0030
0000
0000
0000
;

//---------------dance-single - RIME-BSP----------------
#NOTEDATA:;
#CHARTNAME:RIME-BSP;
#STEPSTYPE:dance-single;
#DESCRIPTION:RIME-BSP;
#DIFFICULTY:Easy;
#METER:5;
#CREDIT:RIME;
#NOTES:
0000
0000
0000
0000
,
0000
0000
0000
0000
,
0000
0000
0000
0000
,
0000
0000
0000
1000
,
0001
0001
0010
0000
,
0001
0001
1000
0000
,
0010
1000
0001
0100
,
0000
0010
0000
0010
,
1000
0002
0000
0013
,
0001
2000
0000
3100
,
1000
1000
0010
0010
,
0200
0000
0000
0301
,
0100
0100
0010
0000
,
0100
0100
0001
0000
,
0001
1000
0100
0010
,
0000
0000
0000
0100
,
2000
0000
3002
0000
,
0203
0000
0000
0310
,
0200
0000
0302
0000
,
0023
0000
0000
0130
,
0020
0000
0032
0023
,
0230
0000
0000
1300
,
0100
0100
0010
0001
,
0001
0001
1000
0001
,
1001
1000
0010
1000
,
0000
0001
0010
0001
,
1000
0100
1000
0100
,
0000
0010
0100
0100
,
1000
0001
0100
0001
,
0000
1000
0100
1000
,
0010
0010
0100
0010
,
0000
0100
0001
0001
,
0020
0000
0230
0000
,
2300
0000
3002
0000
,
0103
0001
0100
0001
,
0000
1000
0100
1000
,
0100
0100
0010
0100
,
0000
0010
0001
0010
,
0000
0001
1000
0001
,
0000
1000
0010
0100
,
0002
0000
0023
0032
,
0203
0000
0010
0000
,
0302
0000
2003
3002
,
0023
0000
0230
0000
,
2300
0000
0010
3010
,
0020
0000
0100
0130
,
0200
0000
0001
0301
,
0002
0000
1000
1003
;

//---------------dance-single - RIME-DSP----------------
#NOTEDATA:;
#CHARTNAME:RIME-DSP;
#STEPSTYPE:dance-single;
#DESCRIPTION:RIME-DSP;
#DIFFICULTY:Medium;
#METER:8;
#CREDIT:RIME;
#NOTES:
0000
0000
0000
0000
,
0000
0000
0000
0000
,
0000
0000
0000
0000
,
0000
0000
0000
0000
0000
0000
1000
0001
,
0010
0010
0100
1000
,
0001
0000
0001
0000
0100
0000
0010
0100
,
0001
0000
0001
0000
1000
0000
0100
0010
,
0000
0000
0000
0000
0000
0100
1000
0000
,
0001
0200
0000
0000
0000
0301
0100
0000
,
0010
2000
0000
0000
0000
0000
3001
1000
,
0000
0001
1000
0000
0100
0000
0000
0010
,
0000
0000
0001
0000
1000
0000
0001
0100
,
0010
0010
1000
0100
,
0010
0000
0010
0000
0001
0000
1000
0010
,
0100
0000
0100
0000
0001
1000
0001
0000
,
1000
0000
1000
0100
,
0020
0000
0000
0000
0032
0000
0000
2003
,
0000
0010
3010
1010
,
2000
0000
0000
0000
3002
0000
0000
0203
,
0000
0010
0310
0110
,
0200
0000
0000
0000
0301
0100
0010
1000
,
0002
0000
0000
0000
0000
0000
0013
0001
,
0100
0100
0010
1000
,
0010
0001
0010
1000
,
1001
0000
0000
0000
0001
0000
0000
0100
0000
0000
0000
0000
0100
0000
0010
0000
,
0000
0000
0100
0000
0010
0000
0000
1000
0000
0000
0000
0000
1000
0000
0001
0000
,
0010
0000
0000
0000
0100
0000
0000
0010
0000
0000
0000
0000
0001
0000
0100
0000
,
0000
0000
0001
0000
0100
0000
0000
0020
0000
0000
0000
0000
1030
0000
0000
0000
,
0010
0000
0000
0000
0110
0000
0000
0100
0000
0000
0000
0000
0001
0000
0100
0000
,
0000
0000
0001
0000
1000
0000
0000
0100
0000
0000
0000
0000
0010
0000
0100
0000
,
0010
0000
0000
0000
0001
0000
0000
0001
0000
0000
0000
0000
1000
0000
0001
0000
,
0000
1000
0100
0000
0010
0000
0001
0000
,
1000
0000
0000
0000
1000
0000
0000
1000
0000
0000
0000
0000
0001
0000
0000
0000
,
0000
0000
0001
0000
0001
0000
0000
0001
0000
0000
0000
0000
1000
0000
1001
0000
,
0001
0000
0000
0000
0010
0000
0000
0001
0000
0000
0000
0000
1000
0000
0100
0000
,
0000
0000
1000
0000
0100
0000
0000
0020
0000
0000
0000
0000
0031
0000
0000
0000
,
0010
0000
0000
0000
0110
0000
0000
0100
0000
0000
0000
0000
1000
0000
0100
0000
,
0000
0000
0010
0000
0100
0000
0000
0010
0000
0000
0000
0000
0001
0000
1000
0000
,
0010
0000
0000
0000
0100
0000
0000
0001
0000
0000
0000
0000
1000
0000
0001
0000
,
0000
0010
0001
0000
0020
0000
0230
0000
,
2300
0000
0001
0000
3001
1000
0010
0100
,
0002
0010
1000
0013
,
0020
0001
0100
0031
,
0002
1000
0100
1003
,
2000
0010
0001
3100
,
0200
1000
0010
0301
,
0020
0001
0100
1030
,
0020
0100
0100
0130
;

//---------------dance-single - RIME-ESP----------------
#NOTEDATA:;
#CHARTNAME:RIME-ESP;
#STEPSTYPE:dance-single;
#DESCRIPTION:RIME-ESP;
#DIFFICULTY:Hard;
#METER:12;
#CREDIT:RIME;
#NOTES:
0000
0000
0000
0000
,
0000
0000
0000
0000
,
0000
0000
0000
0000
,
0000
0000
0000
0000
0000
0000
1000
0001
,
0100
0100
0010
0100
0001
0001
0010
0001
,
1000
1000
0100
1000
0010
0100
0001
0001
,
1000
0100
0001
0100
2000
0001
0100
3001
,
0000
0000
1000
0000
1000
0000
0000
0010
0000
0010
1000
0000
0001
0000
0010
0000
,
0100
2000
0000
0000
3001
1000
1000
0010
,
0100
0000
0002
0000
0000
0000
0000
0010
0000
0013
0000
0000
0001
0000
2000
0000
,
0000
3010
1000
0100
0010
0100
0000
0120
,
0000
0000
0001
0000
0001
0000
0000
0100
0000
0130
0000
0000
0010
0000
0001
0000
,
0100
0100
0010
1000
0001
0001
0010
0010
,
0001
0100
1000
0100
0001
1000
0100
0100
,
0010
0100
1000
0010
0001
0010
1000
0000
,
1000
0010
0001
0000
0001
0010
0100
0000
,
0210
0000
0000
0000
0301
0000
0000
0100
0001
0000
0000
0000
1000
0000
0001
0000
,
0010
0000
0100
0000
0100
0000
0000
1000
0000
1000
0000
0000
0010
0000
0000
0000
,
0210
0000
0000
0000
0301
0000
0000
0100
0010
0000
1000
0000
0001
0000
0020
0000
,
0000
0000
0100
0000
0100
0000
0000
0001
0000
0031
0000
0000
0010
0000
0000
0000
,
0210
0000
1300
0000
0200
2300
3020
0032
,
0103
0000
0010
0000
0010
0000
0000
0100
0000
0100
0000
0000
0001
0000
0001
0000
,
1000
0100
0001
0100
1000
0000
1010
0000
,
0011
1010
1000
0001
,
1001
0000
0000
0000
0001
0000
0000
0010
0000
0100
0000
0000
1000
0000
1100
0000
,
1000
0000
0001
0000
0001
0000
0100
0010
0000
0010
0000
0000
1000
0000
1001
0000
,
0001
0000
0000
0000
0010
0000
0100
0010
0000
0010
0000
0000
0001
0000
1001
0000
,
1000
0000
0010
0000
0010
0000
0000
1000
0002
0000
0013
0000
2000
0000
3010
0000
,
1000
0000
0000
0000
0011
0000
0000
0001
0000
0100
0000
0000
0010
0000
1010
0000
,
1000
0000
0001
0000
0001
0000
0010
0100
0000
0100
0000
0000
1000
0000
1010
0000
,
0010
0000
0000
0000
0100
0000
0010
0100
0000
0001
0000
0000
1000
0000
1001
0000
,
0001
0000
0010
0000
0010
0000
0000
0100
0020
0000
0031
0000
0020
0000
0130
0000
,
0010
0000
0000
0000
0010
0000
0000
0001
0000
1000
0000
0000
0010
0000
0000
0000
,
0000
0000
1000
0000
0001
0000
0100
0001
0000
0001
0000
0000
1000
0000
0001
0000
,
0011
0000
0000
0000
0010
0000
0100
1000
0000
0001
0000
0000
0100
0000
0110
0000
,
0010
0000
0100
0000
0100
0000
0000
0100
0002
0000
0013
0000
2000
0000
3010
0000
,
1000
0000
0000
0000
0101
0000
0000
0001
0000
0010
0000
0000
0100
0000
0110
0000
,
0010
0000
0001
0000
0001
0000
1000
0010
0000
0100
0000
0000
0001
0000
1001
0000
,
1000
0000
0000
0000
0100
0000
0010
0100
0000
1000
0000
0000
0010
0000
1010
0000
,
1000
0000
0001
0000
0001
0000
0010
0200
1000
0000
0000
0000
1300
0000
0000
0000
,
2100
0000
0010
0000
3100
1000
0010
0100
,
0001
0000
1000
0000
1000
0000
0000
1000
0000
1000
0000
0000
1000
0000
0000
0000
,
0010
0000
0000
0000
0010
0000
0000
0010
0000
0100
0000
0000
0100
0000
0000
0000
,
0100
0000
0001
0000
0001
0000
0000
0001
0000
0001
0000
0000
0001
0000
0000
0000
,
0001
0000
0000
0000
0001
0000
0000
0001
0000
0001
0000
0000
0001
0000
0000
0000
,
0000
0000
1000
0000
1000
0000
0000
1000
0000
1000
0000
0000
1000
0000
0000
0000
,
1010
0000
0000
0000
1010
0000
0000
1010
0000
0110
0000
0000
0110
0000
0000
0000
,
0000
0000
1001
0000
1001
0000
0000
1001
0000
1001
0000
0000
1001
0000
0000
0000
;

//---------------dance-single - RIME-CSP----------------
#NOTEDATA:;
#CHARTNAME:RIME-CSP;
#STEPSTYPE:dance-single;
#DESCRIPTION:RIME-CSP;
#DIFFICULTY:Challenge;
#METER:14;
#CREDIT:RIME;
#NOTES:
0000
0000
0000
0000
,
0000
0000
0000
0000
,
0000
0000
0000
0000
,
0000
0000
0000
0000
0000
0000
1000
0001
,
0100
0000
0100
0000
0010
0000
0100
0001
0100
0001
0010
0000
0001
0000
0001
0000
,
1000
0000
0100
0000
0100
0000
1000
0010
1000
0010
0100
0000
0001
0000
0001
0000
,
1000
0000
0100
0000
0001
0000
0100
1000
0100
1000
0001
0000
0100
0000
0001
0000
,
MMMM
0000
1000
0000
1000
0000
0000
0010
0000
0010
1000
0000
0001
0000
0010
0000
,
0100
0000
2000
0000
0001
0000
0000
3001
1000
0001
1000
0000
0010
0000
0110
0000
,
0100
0000
0002
0000
0010
0000
0000
0010
0000
0013
0000
0000
0001
0000
2000
0000
,
0010
0000
3010
0000
1000
0000
0100
0010
0100
0010
0100
0000
0010
0000
0120
0000
,
0000
0000
0001
0000
0001
0000
0000
0100
0000
0130
0000
0000
0010
0000
0001
0000
,
0100
0000
0100
0000
0010
0000
1000
0001
1000
0001
0010
0000
0100
0000
0100
0000
,
1000
0000
1000
0000
0001
0000
0100
0001
0100
0001
1000
0000
0100
0000
0100
0000
,
0010
0000
0100
0000
1000
0000
0010
0001
0010
0001
0010
0000
1000
0000
0000
0000
,
1000
0010
0001
0000
0001
0010
0100
0000
,
0210
0000
0000
0000
0301
0000
0000
0100
0001
0100
0001
0000
1000
0000
0001
0000
,
0010
0000
0100
0000
0100
0000
1000
0100
0000
1000
0000
0000
0010
0000
0000
0000
,
0210
0000
0000
0000
0301
0000
0000
0100
0010
1000
0001
0000
0001
0000
0020
0000
,
0000
0000
0100
0000
0130
0000
0010
0001
0000
0001
1000
0000
0010
1000
0001
0010
,
0200
0000
0000
0000
1300
0000
0000
1000
0100
1000
0020
0000
0032
0000
0203
0000
,
0310
0000
0100
0000
0100
0000
0100
1000
0000
0001
0000
0000
0001
0000
0001
0000
,
1000
0000
0000
0100
0000
0000
0010
0000
0000
0100
0000
0000
1000
0000
0000
0001
0000
0000
0100
0000
0000
0001
0000
0000
1000
0000
0000
0010
0000
0000
0100
0000
0000
0010
0000
0000
1000
0000
0001
0000
1000
0000
0001
0000
1000
0000
0001
0000
,
0010
0100
1000
MMMM
0001
MMMM
0001
MMMM
,
1001
0000
0000
0000
0001
0000
0000
0010
0000
0100
0000
0000
1000
0000
1100
0000
,
1000
0000
0001
0000
0001
0000
0100
0010
0000
0010
0000
0000
1000
0000
1001
0000
,
0001
0000
0000
0000
0010
0000
0100
0010
0000
0010
0000
0000
0001
0000
1001
0000
,
1000
0000
0010
0000
0010
0000
1000
0001
1000
0001
0010
0000
0001
0010
0100
0000
,
1000
0000
0000
0000
0011
0000
0000
0001
0000
0100
0000
0000
0010
0000
1010
0000
,
1000
0000
0001
0000
0001
0000
0010
0100
0000
0100
0000
0000
1000
0000
1010
0000
,
0010
0000
0000
0000
0100
0000
0010
0100
0000
0001
0000
0000
1000
0000
1001
0000
,
0001
0000
0010
0000
0010
0000
0100
1000
0100
1000
0001
0000
0100
0001
1000
0010
,
0100
0000
0000
0000
0100
0000
0000
0001
0000
1000
0000
0000
0100
0000
0000
0000
,
MMMM
0000
1000
0000
0001
0000
0100
0001
0000
0001
0000
0000
1000
0000
0001
0000
,
0011
0000
0000
0000
0010
0000
0100
1000
0000
0001
0000
0000
0100
0000
0110
0000
,
0010
0000
0100
0000
0100
0000
0001
0100
0001
0100
0010
0000
1000
0010
0100
0000
,
0001
0000
0000
0000
1001
0000
0000
0001
0000
0010
0000
0000
0100
0000
0110
0000
,
0010
0000
0001
0000
0001
0000
1000
0010
0000
0100
0000
0000
0001
0000
1001
0000
,
1000
0000
0000
0000
0100
0000
0010
0100
0000
1000
0000
0000
0010
0000
1010
0000
,
1000
0000
0001
0000
0001
0000
0010
0200
1000
0000
0000
0000
1300
0100
0010
0001
,
2001
0000
0000
0000
0010
0000
0000
3100
1000
0100
1000
0000
0010
0000
0100
0000
,
0001
0000
1000
0000
1000
0000
0000
1000
0000
1000
0000
0000
1000
0000
0000
0000
,
0010
0000
0000
0000
0010
0000
0000
0010
0000
0100
0000
0000
0100
0000
0000
0000
,
MMMM
0000
0001
0000
0001
0000
0000
0001
0000
0001
0000
0000
0001
0000
0000
0000
,
0001
0000
0000
0000
0001
0000
0000
0001
0000
0001
0000
0000
0001
0000
0000
0000
,
MMMM
0000
1000
0000
1000
0000
0000
1000
0000
1000
0000
0000
1000
0000
0000
0000
,
1010
0000
0000
0000
1010
0000
0000
1010
0000
0110
0000
0000
0110
0000
0000
0000
,
MMMM
0000
1001
0000
1001
0000
0000
1001
0000
1001
0000
0000
1001
0000
0000
0000
;

//---------------dance-double - NewbStepper-BDP----------------
#NOTEDATA:;
#CHARTNAME:NewbStepper-BDP;
#STEPSTYPE:dance-double;
#DESCRIPTION:NewbStepper-BDP;
#DIFFICULTY:Easy;
#METER:4;
#CREDIT:NewbStepper;
#NOTES:
00000000
00000000
00000000
00000000
,
00000000
00000000
00000000
00000000
,
00000000
00000000
00000000
00000000
,
00000000
00000000
00000000
10000000
,
00010000
00000000
00010000
00000000
,
00001000
00000000
00001000
00000000
,
00000010
00000010
00000100
00000000
,
00000001
00001000
00000001
00000000
,
00000200
00000000
00000000
00000300
,
00002000
00000000
00000000
00003000
,
00010000
00000000
01000000
00000000
,
10000000
00100000
10000000
00000000
,
00010000
00100000
00001000
00010000
,
00000100
00000010
00000001
00000000
,
00001000
00000000
00000001
00000000
,
00002002
00000000
00000000
00003003
,
00000200
00000000
00020300
00000000
,
00032000
00000000
00000000
00003000
,
02000000
00000000
03002000
00000000
,
00023000
00000000
00000000
00130000
,
20000000
00000000
31000000
00010000
,
00002000
00000000
00000000
00013000
,
00000100
00000100
00000010
00000001
,
00001000
00000001
00000000
00000000
,
00000100
00001000
00010000
01000000
,
00000000
10000000
00010000
10000000
,
00100000
00010000
00001000
00000010
,
00000000
00000001
00001000
00000001
,
00000010
00001000
00010000
00100000
,
00000000
10000000
00010000
10000000
,
01000000
00010000
00001000
00000100
,
00000000
00000001
00001000
00000001
,
00000100
00000000
00000000
00000000
,
00001000
00000000
00000000
00000000
,
00010000
00100000
10000000
01000000
,
00000000
10000000
00010000
10000000
,
01000000
00010000
00001000
00000100
,
00000000
00000001
00001000
00000001
,
00000010
00001000
00010000
00100000
,
00000000
10000000
00010000
10000000
,
02000000
00000000
03200000
00000000
,
00302000
00000000
00000000
00000000
,
00023000
00000000
00030200
00000000
,
00002300
00000000
00000000
00000000
,
00003002
00000000
00000000
00000000
,
00000000
00000000
00000000
00000000
,
00000000
00000000
00000000
00000000
,
00000003
00000000
00000000
00000000
;

//---------------dance-double - NewbStepper-DDP----------------
#NOTEDATA:;
#CHARTNAME:NewbStepper-DDP;
#STEPSTYPE:dance-double;
#DESCRIPTION:NewbStepper-DDP;
#DIFFICULTY:Medium;
#METER:8;
#CREDIT:NewbStepper;
#NOTES:
00000000
00000000
00000000
00000000
,
00000000
00000000
00000000
00000000
,
00000000
00000000
00000000
00000000
,
00000000
00000000
00000000
00000000
00000000
00000000
10000000
00010000
,
00100000
00100000
01000000
00010000
,
00001000
00000000
00001000
00000000
00000100
00000000
00000010
00000100
,
00000001
00000000
00000001
00000000
00001000
00000000
00000100
00000010
,
00000000
00000000
00000000
00000000
00000000
00000001
00000100
00000000
,
00000010
00002000
00000000
00000000
00003000
00010000
01000000
00000000
,
00100000
20000000
00000000
00000000
00000000
00000000
30010000
10000000
,
00000000
00010000
10000000
00000000
01000000
00000000
00000000
00010000
,
00000000
00000000
00001000
00000000
00000010
00000000
00000001
00001000
,
00000010
00000010
00000100
00001000
,
00010000
00000000
00010000
00000000
01000000
00000000
00100000
01000000
,
10000000
00000000
10000000
00000000
00010000
01000000
00010000
00000000
,
00100000
00001000
00010000
00000010
,
00000200
00000000
00000000
00000000
00000302
00000000
00000000
00002003
,
00000000
00000000
00003000
00011000
,
02000000
00000000
00000000
00000000
23000000
00000000
00000000
30020000
,
00000000
00000000
00030000
10010000
,
02000000
00000000
00000000
00000000
13000000
00100000
01000000
00001000
,
00020000
00000000
00000000
00000000
00000000
00000000
00030010
00000100
,
00000001
00000001
00000100
00001000
,
00010000
01000000
10000000
00010000
,
10010000
00000000
00000000
00000000
10000000
00000000
00000000
01000000
00000000
00000000
00000000
00000000
00010000
00000000
00000000
00000000
,
00000000
00000000
00001000
00000000
00000100
00000000
00000000
00000010
00000000
00000000
00000000
00000000
00001000
00000000
00000001
00000000
,
00000010
00000000
00000000
00000000
00000100
00000000
00000000
00000010
00000000
00000000
00000000
00000000
00001000
00000000
00000000
00000000
,
00000000
00010000
01000000
00000000
00100000
00000000
00010000
00000000
,
10010000
00000000
00000000
00000000
10000000
00000000
00000000
00100000
00000000
00000000
00000000
00000000
00010000
00000000
00000000
00000000
,
00000000
00000000
00001000
00000000
00000010
00000000
00000000
00000100
00000000
00000000
00000000
00000000
00001000
00000000
00000001
00000000
,
00000100
00000000
00000000
00000000
00000010
00000000
00000000
00000100
00000000
00000000
00000000
00000000
00001000
00000000
00000000
00000000
,
00000000
00010000
00100000
00000000
01000000
00000000
00100000
00000000
,
10000000
00000000
00000000
00000000
10000000
00000000
00000000
10000000
00000000
00000000
00000000
00000000
01000000
00000000
00000000
00000000
,
00000000
00000000
00010000
00000000
00010000
00000000
00000000
00010000
00000000
00000000
00000000
00000000
00001000
00000000
00010000
00000000
,
00011000
00000000
00000000
00000000
00000100
00000000
00000000
00000010
00000000
00000000
00000000
00000000
00000001
00000000
00000000
00000000
,
00000000
00000100
00001000
00000000
00010000
00000000
00100000
00000000
,
01100000
00000000
00000000
00000000
10000000
00000000
00000000
00010000
00000000
00000000
00000000
00000000
01000000
00000000
00010000
00000000
,
00000000
00000000
00001000
00000000
00000010
00000000
00000000
00000100
00000000
00000000
00000000
00000000
00000001
00000000
00001000
00000000
,
00000010
00000000
00000000
00000000
00000100
00000000
00000000
00000001
00000000
00000000
00000000
00000000
00001000
00000000
00000010
00000000
,
00000000
00010000
00001000
00000000
00010000
00000000
00100000
00000000
,
20000000
00000000
00000000
00000000
30010000
10000000
01000000
00010000
,
00002000
00000010
00010000
00003010
,
00000002
00000100
00001000
00000103
,
00000200
00000010
00001000
00000310
,
00000020
00010000
00001000
00010030
,
00020000
00001000
00100000
00031000
,
00002000
01000000
00010000
00103000
,
02000000
00000000
00000000
03000000
;

//---------------dance-double - NewbStepper-EDP----------------
#NOTEDATA:;
#CHARTNAME:NewbStepper-EDP;
#STEPSTYPE:dance-double;
#DESCRIPTION:NewbStepper-EDP;
#DIFFICULTY:Hard;
#METER:11;
#CREDIT:NewbStepper;
#NOTES:
00000000
00000000
00000000
00000000
,
00000000
00000000
00000000
00000000
,
00000000
00000000
00000000
00000000
,
00000000
00000000
00000000
00010000
,
00001000
00010000
00100000
10000000
01000000
00010000
00001000
00000000
,
00010000
00001000
00000010
00000001
00000100
00001000
00010000
00000000
,
00001000
00000010
00000001
00000000
00000100
00000000
00001000
00010000
,
00000000
00100000
01000000
00000000
10010000
00000000
00020000
00000000
,
00100000
00000010
01000000
00032000
,
00000100
00000000
01000000
00000000
00003010
00000000
00001000
00000100
,
00000000
00000001
00000100
00001000
00000010
00002000
00000000
00023000
,
00000000
00000000
10000000
00000000
10030000
00000000
00000000
01000000
00000000
00010000
00000000
00000000
00001000
00000000
00000000
00000000
,
00010000
00001000
00000010
00000001
00000100
00001000
00010000
00000000
,
00001000
00010000
00100000
10000000
01000000
00010000
00001000
00000000
,
00010000
00100000
10000000
00010000
10000000
01000000
00010000
00000000
,
00001000
00000100
00000001
00000000
00002002
00000000
00003003
00000000
,
00000010
00000000
00000000
00000000
00000001
00000000
00000000
00000100
00000000
00000010
00000000
00000000
00001000
00000000
00000000
00000000
,
00000001
00000100
00001000
00010000
01000000
10000000
00010000
00000000
,
00100000
00000000
00000000
00000000
00010000
00000000
10000000
00100000
00000000
01000000
00000000
00000000
00010000
00000000
00000000
00000000
,
10000000
01000000
00010000
00001000
00000100
00000001
00001000
00000000
,
00000020
00000000
00002030
00000000
00003001
00000100
00001000
00010000
,
00200000
00000000
20300000
00000000
30010000
00000000
10000000
00100000
,
00010000
00001000
00000010
00000001
00000100
00000000
00000101
00000000
,
00001100
00011000
00110000
10100000
,
10010000
00000000
00000000
00000000
01000000
00000000
00000000
00100000
00000000
10000000
00000000
00000000
01000000
00000000
00000000
00000000
,
00000000
00000000
00010000
00000000
00010000
00000000
00001000
00010000
00000000
00000010
00000000
00000000
00000100
00000000
00000000
00000000
,
00000001
00000000
00000000
00000000
00001000
00000000
00000010
00001000
00000000
00000100
00000000
00000000
00000010
00000000
00000000
00000000
,
00000001
00000100
00001000
00010000
01000000
10000000
00010000
00000000
,
10010000
00000000
00000000
00000000
00100000
00000000
00000000
01000000
00000000
10000000
00000000
00000000
00100000
00000000
00000000
00000000
,
00000000
00000000
00010000
00000000
00010000
00000000
00001000
00010000
00000000
00000100
00000000
00000000
00000010
00000000
00000000
00000000
,
00000001
00000000
00000000
00000000
00001000
00000000
00000100
00001000
00000000
00000010
00000000
00000000
00000100
00000000
00000000
00000000
,
00000000
00000000
00000001
00000000
00000100
00000000
00001000
00010000
00000000
00100000
00000000
00000000
01100000
00000000
00000000
00000000
,
10010000
00000000
00000000
00000000
10000000
00000000
00000000
01000000
00000000
00010000
00000000
00000000
00001000
00000000
00000000
00000000
,
00000000
00000000
00000010
00000000
00000010
00000000
00000001
00000100
00000000
00000010
00000000
00000000
00000010
00000000
00000000
00000000
,
00001001
00000000
00000000
00000000
00000100
00000000
00001000
00010000
00000000
00001000
00000000
00000000
00100000
00000000
00000000
00000000
,
00010000
00000000
10000000
00000000
01000000
00000000
00010000
00001000
00000000
00000010
00000000
00000000
00000110
00000000
00000000
00000000
,
00001001
00000000
00000000
00000000
00000100
00000000
00000000
00000001
00000000
00000010
00000000
00000000
00001000
00000000
00010000
00000000
,
00100000
00000000
10000000
00000000
10000000
00000000
01000000
00010000
00000000
00001000
00000000
00000000
00100000
00000000
00010000
00000000
,
10000000
00000000
01000000
00000000
00010000
00000000
00001000
00000010
00000000
00000001
00000000
00000000
00000100
00000000
00000010
00000000
,
00001000
00000001
00000100
00001000
00020000
00000000
00000010
00000000
,
00230000
00000000
20300000
00000000
31000000
00010000
00001000
00000010
,
00000002
00000100
00001000
00000010
,
00002003
00000010
00010000
00100000
,
00023000
00000100
00001000
01000000
,
20030000
00100000
00010000
01000000
,
30020000
00100000
00001000
00000010
,
00032000
01000000
00010000
00003100
,
00000220
00000000
00000000
00000330
;

//---------------dance-double - NewbStepper-CDP----------------
#NOTEDATA:;
#CHARTNAME:NewbStepper-CDP;
#STEPSTYPE:dance-double;
#DESCRIPTION:NewbStepper-CDP;
#DIFFICULTY:Challenge;
#METER:13;
#CREDIT:NewbStepper;
#NOTES:
00000000
00000000
00000000
00000000
,
00000000
00000000
00000000
00000000
,
00000000
00000000
00000000
00000000
,
00000000
00000000
00000000
10010000
,
10000000
00010000
00001000
00000100
00000001
00000100
00001000
00000000
,
00000001
00001000
00010000
01000000
10000000
01000000
00010000
00000000
,
10000000
00010000
00001000
00000001
00000100
00001000
00010000
01000000
,
MMMMMMMM
00000000
00001000
00000000
00010000
00000000
00000000
00100000
00000000
00100000
10000000
00000000
01000000
00000000
00001000
00000000
,
00010000
00000020
00000000
00000000
00000030
00000001
00000100
00010000
,
00001000
00200000
00000000
00000000
00300000
10000000
00010000
00001000
,
00000000
00000001
00000100
00010000
00001000
00000010
00000000
00011000
,
00000000
00000000
00010000
00000000
00100000
00000000
00000000
00010000
00000000
00001000
00000000
00000000
00000010
00000000
00000000
00000000
,
00000001
00001000
00010000
01000000
10000000
01000000
00010000
00000000
,
10000000
00010000
00001000
00000100
00000001
00000100
00001000
00000000
,
00000001
00001000
00010000
10000000
00010000
00001000
00000001
MMMMMMMM
,
00011000
MMMMMMMM
10010000
MMMMMMMM
00011000
MMMMMMMM
00001001
MMMMMMMM
,
00002001
00000001
00010000
00010000
,
00023000
00000000
10000000
00000000
10030000
00000000
01000000
00100000
00000000
00100000
00010000
00000000
10010000
00000000
00000000
00000000
,
10020000
10000000
00001000
00001000
,
00032000
00000000
00000001
00000000
00003001
00000000
00000100
00000010
00000000
00000010
00001000
00000000
00001001
00000000
00000000
00000000
,
00002001
00013000
10020000
00031000
,
00002001
00000000
00013000
00000000
10020000
00000000
00031000
00001000
,
00000001
00000100
00010000
00001000
00100000
10000000
00010000
00001000
,
00000001
MMMMMMMM
00001000
MMMMMMMM
00010000
MMMMMMMM
10000000
MMMMMMMM
,
10020000
00000000
00000000
00000000
00031000
00000000
00000000
00001000
00000000
00000010
00000100
00000000
00000101
00000000
00001001
00000000
,
00000010
00000000
00000001
00000000
00000100
00000000
00001000
00010000
00001000
00000010
00001000
00000000
00000110
00000000
00000000
00000000
,
00002001
00000000
00000000
00000000
00013000
00000000
00100000
00010000
00000000
01000000
00000000
00000000
01100000
00000000
10010000
00000000
,
01000000
00000000
00010000
00000000
00001000
00000000
00000010
00000100
00000010
00000100
00000010
00000000
00000110
00000000
00000000
00000000
,
00002001
00000000
00000000
00000000
00013000
00000000
00000000
00010000
00000000
00100000
01000000
00000000
11000000
00000000
10010000
00000000
,
00100000
00000000
10000000
00000000
01000000
00000000
00010000
00001000
00010000
00100000
00010000
00000000
01100000
00000000
00000000
00000000
,
10020000
00000000
00000000
00000000
00031000
00000000
00000010
00001000
00000000
00000100
00000000
00000000
00000110
00000000
00001001
00000000
,
00000001
00000000
00000100
00000000
00010000
00000000
00001000
00000000
00100000
00000000
00010000
00000000
00001000
00100000
00010000
10000000
,
00200000
00000000
00000000
00000000
10300000
00000000
00000000
00010000
00000000
00001000
00000000
00000000
00000001
00000000
00000000
00000000
,
MMMMMMMM
00000000
00001000
00000000
00010000
00000000
00001000
00000010
00000000
00001000
00000000
00000000
00010000
00000000
00100000
00000000
,
10020000
00000000
00000000
00000000
00031000
00000000
00000100
00001000
00000000
00000010
00000000
00000000
00000110
00000000
00001001
00000000
,
00000100
00000000
00001000
00000000
00010000
00000000
00100000
01000000
00100000
01000000
00100000
00000000
01100000
00000000
00000000
00000000
,
10020000
00000000
00000000
00000000
00031000
00000000
00000000
00001000
00000000
00000100
00000010
00000000
00000011
00000000
00001001
00000000
,
00000100
00000000
00000001
00000000
00000010
00000000
00001000
00010000
00001000
00000100
00001000
00000000
00000110
00000000
00000000
00000000
,
00002001
00000000
00000000
00000000
00013000
00000000
01000000
00010000
00000000
00100000
00000000
00000000
01100000
00000000
10010000
00000000
,
10000000
01000000
00001000
00010000
00000010
00001000
00010000
00000000
,
00002000
00000000
00100000
00000000
00003010
00000001
00000010
00001000
,
02000000
00000000
00000000
03000000
,
20000000
31000000
00020000
00031000
,
MMMMMMMM
00000000
00000001
00000000
00000001
00000000
00000000
00001000
00000000
00001000
00000000
00000000
00000110
00000000
00000000
00000000
,
00000002
00000000
00000000
00000000
00002003
00000000
00000000
00010000
00000000
00010000
00003000
00000000
00011000
00000000
00000000
00000000
,
MMMMMMMM
00000000
00100000
00000000
00100000
00000000
00000000
01000000
00000000
01000000
00000000
00000000
01100000
00000000
00000000
00000000
,
20000000
00000000
00000000
00000000
30020000
00000000
00000000
00001000
00000000
00001000
00030000
00000000
00011000
00000000
00000000
00000000
,
MMMMMMMM
00000220
00000000
00000000
00000000
00000000
00000330
00000000
;
