#TITLE:Next Generation;
#ARTIST:leeium;
#BANNER:Next Generation.png;
#BACKGROUND:Next Generation-bg.png;
#MUSIC:Next Generation.ogg;
#OFFSET:-0.009;
#SAMPLESTART:90.363;
#SAMPLELENGTH:15;
#DISPLAYBPM:85:170;
#BPMS:0=170,185=113.3,185.333=85,185.833=56.6,186=340,188=170,218=85,226=170;
#STOPS:124=1.412,140=0.353,171=0.353,273=0.176,273.5=0.176,321=0.353;

//---------------dance-single - Kekkle-bSP----------------
#NOTES:
     dance-single:
     Kekkle:
     Beginner:
     4:
     :
0000
0000
0000
0000
,
0000
0000
0000
0000
,
0000
0000
0000
0000
,
0000
0000
0000
0000
,
1000
0000
1000
0000
,
0001
0000
0001
0000
,
0100
0000
0010
0000
,
0100
0000
0110
0000
,
0010
0000
1000
0000
,
2000
0000
3001
0000
,
0010
0000
0100
0000
,
0020
0000
0031
0000
,
0001
0000
1000
0000
,
0020
0000
0130
0000
,
0001
0000
1000
0000
,
0100
0000
0100
0000
,
0110
0000
0010
0000
,
0002
0000
1003
0000
,
0010
0000
0100
0000
,
0002
0000
1003
0000
,
1000
0000
0100
0000
,
0020
0000
0031
0000
,
0100
0000
0010
0000
,
0020
0000
1030
0000
,
0001
0000
0001
0000
,
1000
0000
1000
0000
,
0010
0000
0010
0000
,
0010
0000
0110
0000
,
0100
0000
0001
0000
,
1000
0000
0100
0000
,
0010
0000
0010
0000
,
0110
0000
0100
0000
,
1000
0000
1001
0000
,
0001
0000
0100
0000
,
0010
0000
0110
0000
,
0110
0100
0000
0100
,
0000
0100
0000
0001
,
0000
1000
0000
0001
,
0000
1001
0000
1000
,
0000
0010
0000
0100
,
0000
0010
0000
1000
,
0000
0001
0000
0010
,
0000
0110
0000
0110
,
0100
0000
0100
0000
,
0100
0000
1000
0000
,
0010
0000
0100
0000
,
0110
0000
0000
0000
,
0000
0000
0010
0000
,
0110
0000
0100
0000
,
0001
0000
0010
0000
,
0110
0000
0100
0000
,
1000
0000
0010
0000
,
0110
0000
0100
0000
,
0001
0000
0010
0000
,
0110
0000
0100
0000
,
0010
0000
0100
0000
,
1000
0000
0001
0000
,
0001
0000
1000
0000
,
1000
0000
0010
0000
,
0010
0000
0110
0000
,
0110
0000
0100
0000
,
0001
0000
1000
0000
,
1000
0000
0100
0000
,
0100
0000
0010
0000
,
0010
0000
0001
0000
,
0100
0000
0010
0000
,
0010
0000
1000
0000
,
0001
0000
0010
0000
,
0010
0000
0000
0100
,
0000
1000
0000
1000
,
0000
0001
0000
0100
,
0000
0010
0000
0010
,
0000
1000
0000
1001
,
0000
0001
0000
1001
,
0000
1000
0000
1001
,
0000
0001
0000
1001
,
0000
1000
0000
0010
,
0000
0100
0000
0100
,
0000
0001
0000
0010
,
0000
0100
0000
0100
,
0000
1000
0001
0000
,
1000
0000
0001
0000
,
0100
0000
0010
0000
,
0100
0000
0110
0000
,
0010
0000
1000
0000
,
0001
0000
0010
0000
,
0100
0000
0100
0000
,
1000
0000
1001
0000
,
0001
0000
0100
0000
,
0010
0000
0110
0000
,
0100
0000
0001
0000
,
1000
0000
0001
0000
,
1001
0000
0000
0000
;

//---------------dance-single - Kekkle-BSP----------------
#NOTES:
     dance-single:
     Kekkle:
     Easy:
     8:
     :
0000
0000
0000
0000
,
0000
0000
0000
0000
,
0000
0000
0000
0000
,
0000
0000
0000
0000
,
1000
1000
0001
0001
,
0100
0100
0010
0010
,
1000
0001
0010
0100
,
0010
0001
0010
0001
0000
0000
0000
0000
,
1001
0000
0000
0000
0000
0000
0100
0000
0000
0100
0000
0000
0200
0000
0000
0000
,
0000
0000
0300
0000
,
0101
0000
0000
0000
0000
0000
0001
0000
0000
0001
0000
0000
0001
0000
0000
0002
,
0000
0000
0003
0000
,
1001
0000
0000
0000
0000
0000
0000
0000
1000
0000
0000
1000
0000
0000
2000
0000
,
0000
0000
3000
0000
,
1100
0000
0000
0000
0000
0000
0100
0000
0000
0100
0000
0000
0100
0000
0000
0200
,
0000
0000
0000
0310
0000
0000
0000
0000
,
1001
0000
0000
0000
0000
0000
1000
0000
0000
1000
0000
0000
2000
0000
0000
0000
,
0000
0000
3000
0000
,
1010
0000
0000
0000
0000
0000
0010
0000
0000
0010
0000
0000
0010
0000
0000
0020
,
0000
0000
0030
0000
,
0110
0000
0000
0000
0000
0000
0000
0000
0100
0000
0000
0100
0000
0000
0200
0000
,
0000
0000
0300
0000
,
0101
0000
0000
0000
0000
0000
0001
0000
0000
0001
0000
0000
0001
0000
0000
0002
,
0000
0000
0000
1003
0000
0000
0000
0000
,
1001
0001
0001
0100
,
0100
0010
0010
1000
,
1001
0001
0001
0010
,
0010
0001
0001
0000
,
1000
1000
0010
0010
,
0100
0100
0001
0001
,
1000
0100
1000
0000
0001
1000
0001
0000
,
0100
0010
0010
0110
,
0100
0001
1000
1000
,
0000
0100
0100
1100
,
1000
0001
0100
0100
,
0010
0200
0000
0302
,
0000
1003
0000
0100
,
0100
1000
1000
0001
,
0100
0010
0010
1000
,
0001
0001
1001
1000
,
0010
0100
0100
0000
,
0001
0001
0011
0010
,
0100
1000
1000
0010
,
0200
0000
0302
0000
,
1003
0000
0100
0100
,
0010
0010
0001
1000
,
0020
0030
0000
0000
,
0000
0200
0000
0000
,
0300
0000
0000
0000
,
0000
0001
0000
0000
0001
0000
0000
0002
0000
0000
0000
0000
0000
0000
0000
0000
,
0003
0000
0000
0000
,
0100
0000
0000
0100
0000
0000
0200
0000
0000
0000
0000
0000
0000
0000
0000
0000
,
0300
0000
0000
0000
,
0000
0010
0000
0000
0010
0000
0000
0020
0000
0000
0000
0000
0000
0000
0000
0000
,
0030
0000
0000
0000
0000
0000
0000
0000
0000
0000
0000
1000
0000
0000
1000
0000
,
0000
0000
0000
0000
0000
0000
0000
0000
0000
0000
0000
0000
0000
0000
0000
0000
0000
0000
0000
0000
0000
0000
0010
0000
0000
0000
0000
0000
0000
0000
0000
0100
,
0000
0010
1000
0000
,
0001
0001
0100
0000
,
0010
0010
1000
0100
,
0010
0100
2000
3002
,
0103
0100
0020
0000
,
2030
0000
3001
0010
,
0100
0100
2000
0000
,
3020
0000
0130
0001
,
1000
0100
0020
0000
,
0032
0000
0103
0100
,
0010
1000
0001
0001
,
0010
0010
0100
1000
,
0001
1001
1000
0010
,
0010
0100
0001
1000
,
0100
2000
0000
3020
,
0000
0130
0001
1000
,
0001
0010
0100
0010
,
0010
0001
1000
0001
,
0001
0100
0010
0100
,
0100
0001
1000
0002
,
0003
1000
0000
0010
,
0100
0000
0001
0000
1000
0000
0100
0010
,
0100
1000
0001
0100
,
0010
0100
0001
1000
,
0000
1001
0002
0000
,
0203
0000
0310
0000
,
1000
0001
0010
0100
,
0010
0001
1000
1000
,
0010
0100
0001
0001
,
1000
0000
1000
0000
0100
1000
0100
0000
,
1000
0001
1000
0000
0001
0000
0001
0000
,
0100
0100
0010
1000
,
0002
0000
0023
0000
,
0130
1000
0001
0001
,
0100
0010
1000
1000
,
0001
0010
0100
1000
,
2002
0000
3003
0000
;

//---------------dance-single - Kekkle-DSP----------------
#NOTES:
     dance-single:
     Kekkle:
     Medium:
     11:
     :
0000
0000
0000
0000
,
0000
0000
0000
0000
,
0000
0000
0000
0000
,
0000
0000
0000
0000
,
1000
0000
0000
0010
0000
0000
0100
0000
0000
0001
0000
0000
1000
0000
0010
0000
,
0100
0000
0000
0001
0000
0000
0010
0000
0000
0100
0000
0000
1000
0000
0001
0000
,
1000
0010
1000
0010
0100
0001
0100
0001
,
1000
0100
0010
0002
0000
0000
0003
0000
,
1000
0000
0010
0000
1000
0000
0001
0000
0000
0001
0000
0000
0002
0000
0000
0000
,
0000
0000
0103
0000
,
0010
0000
1000
0000
0010
0000
0100
0000
0000
0100
0000
0000
0100
0000
0000
0200
,
0000
0000
0310
0000
,
1000
0000
0001
0000
0010
0000
0100
0000
0010
0000
0000
0010
0000
0000
0020
0000
,
0000
0000
0031
0000
,
0100
0000
0010
0000
1000
0000
0100
0000
0000
0100
0000
0000
0100
0000
0000
0200
,
0000
0000
0000
0300
0000
0000
2002
0000
0000
0000
0000
0000
3003
0000
0000
0000
,
1000
0000
0010
0000
0100
0000
0001
0000
0000
0001
0000
0000
0002
0000
0000
0000
,
0000
0000
1003
0000
,
0100
0000
0010
0000
0001
0000
0100
0000
0000
0100
0000
0000
0100
0000
0000
0200
,
0000
0000
0310
0000
,
1000
0000
0100
0000
0001
0000
0100
0000
1000
0000
0000
1000
0000
0000
2000
0000
,
0000
0000
3010
0000
,
0100
0000
0001
0000
0010
0000
0100
0000
0000
0100
0000
0000
0100
0000
0000
0200
,
0000
0000
0000
0300
0000
0000
2002
0000
0000
0000
0000
0000
3003
0000
0000
0000
,
1000
1000
0010
0010
,
0100
0000
0100
0000
0001
1000
0001
1000
,
0100
0000
0100
1000
0001
0000
0001
0100
,
0010
0110
2002
3003
,
0001
0000
0000
1000
0000
0000
0100
0000
0000
0010
0000
0000
0100
0000
1000
0000
,
0001
0000
0000
0100
0000
0000
0010
0000
0000
1000
0000
0000
0100
0000
0010
0000
,
0100
1000
0010
0100
0001
1000
0100
0010
,
0001
0000
0000
0000
1000
0000
0000
1000
0000
0000
1000
0000
0010
0000
0100
0000
,
0010
0000
0000
0000
0100
0000
0000
0001
0000
0000
0010
0000
0100
0000
0000
0000
,
0110
0000
0000
0000
0010
0000
0000
0001
0000
0000
1000
0000
0010
0000
0100
0000
,
0001
0000
0010
0100
0010
0100
1000
0000
,
1001
0002
2003
3020
,
0230
0000
0301
1000
0100
0000
0020
0000
,
0031
0000
1000
0010
0100
0001
0000
0000
,
1000
0001
1000
0001
0100
0000
0110
0000
,
0010
0000
0000
0010
0000
0000
0010
0000
1000
0000
0001
0000
0010
0000
0000
0000
,
0100
0000
0000
1000
0000
0000
0010
0000
0100
0000
0000
0000
0101
0000
0000
0000
,
0001
0000
0000
1000
0000
0000
0100
0000
0010
0000
0100
0000
1000
0000
0000
0000
,
0010
0100
0001
1000
0100
0000
0110
0000
,
0020
0032
0203
0320
,
1030
0001
0010
0000
0200
0000
1300
0000
,
0010
0100
0001
0010
0000
0100
1000
0001
,
1000
0002
0000
0003
0000
0000
0000
0000
,
1000
1000
0020
0000
0000
0000
0000
0000
,
0030
0000
0000
0000
0000
0000
0000
0100
,
0000
0001
0000
0000
0001
0000
0000
0002
0000
0000
0000
0000
0000
0000
0000
0000
,
0003
0000
0000
0000
,
1000
0000
0000
1000
0000
0000
2000
0000
0000
0000
0000
0000
0000
0000
0000
0000
,
3000
0000
0000
0000
0000
0000
0000
0100
,
0000
0010
0000
0000
0010
0000
0000
0020
0000
0000
0000
0000
0000
0000
0000
0000
,
0030
0000
0000
0000
0000
0000
0000
0000
0000
0000
0000
0000
0000
0000
0000
0000
0000
0000
0000
0000
0000
0000
0001
0000
0000
1000
0000
0000
0001
0000
0000
0000
,
0000
0000
0000
0000
0000
0000
0000
0000
0000
0000
0000
0000
0000
0000
0000
0000
0000
0000
0000
0000
0000
0000
0100
0000
0000
0010
0000
0000
0100
0000
0000
0010
,
0000
0000
0000
0000
1001
0000
0000
0000
0001
0000
0000
0001
0000
0000
1000
0000
,
0000
1000
0000
0000
0010
0000
0010
0000
0000
0000
0000
0100
0000
0000
0010
0000
,
0000
0010
0000
0000
1000
0000
0001
0000
0010
0000
0100
0000
1000
0000
0000
0000
,
0001
0100
0010
0000
1000
0001
1000
0001
,
0010
0110
0200
0000
,
2300
0000
3010
0200
0000
0000
0301
0000
,
1000
0100
1000
0100
0020
0000
0000
0000
,
0032
0000
0103
0020
0000
0000
1030
0000
,
0001
0010
0100
1000
0020
0000
0000
0000
,
0230
0000
0301
0020
0000
0000
0130
0000
,
1000
0010
0100
0001
1000
0100
1000
0100
,
0010
0001
0010
0200
0000
0000
1300
0020
,
0000
0130
0002
2003
,
3010
0200
0000
0000
0301
0000
0010
0100
,
0010
0001
2000
0000
0000
0000
3020
0000
,
0130
0002
0000
0000
1003
0000
0100
0010
,
0100
1000
0002
0000
0100
0000
0103
0000
,
0010
2000
0100
3100
,
0010
0001
1000
0010
,
0100
0002
0000
0000
1003
0200
0000
0000
,
0310
0000
0001
0000
1000
0000
0010
0100
,
0001
1000
0100
0010
0001
0010
0100
1000
,
0010
0000
0100
0000
0001
1000
0100
0010
,
0001
0010
0000
0100
1000
0001
0100
0010
,
0100
0101
0002
2003
,
3200
0000
0320
0000
0031
1000
0010
0000
,
0200
0000
0310
0000
1000
0001
0010
0100
,
0000
0000
1000
0001
1000
0001
0100
0000
,
0110
0000
0101
0000
0001
1000
0100
0010
,
0100
0000
1100
0000
1000
0001
1000
0001
,
0010
0000
0100
1000
0001
1000
0010
0000
,
0100
0001
0010
0100
1000
0000
1100
0000
,
0110
0000
0010
0001
1000
0010
0100
0010
,
0100
0001
1000
0100
0010
0001
0010
0000
,
0100
1000
0001
0100
0010
0100
0001
1000
,
0000
0100
0010
0001
1000
0010
0000
0000
,
0220
0000
0330
0000
;

//---------------dance-single - Marten-ESP----------------
#NOTES:
     dance-single:
     Marten:
     Hard:
     16:
     :
0000
0000
0000
0000
,
0000
0000
0000
0000
,
0000
0000
0000
0000
,
0000
0000
0000
0000
,
1000
0000
0000
1000
0000
0000
0001
0000
0000
0001
0000
0000
0100
0010
0100
0010
,
0100
0000
0000
0100
0000
0000
0001
0000
0000
0001
0000
0000
0010
0001
0010
0001
,
0010
0000
0100
0000
1000
0010
1000
0010
1000
0000
0100
0000
1000
0000
0001
0100
,
0010
1000
0001
0010
0100
0000
2002
0000
0000
0000
0000
0000
3003
0000
0000
0000
,
1000
0000
0100
0000
1000
0000
1010
0000
0000
1001
0000
0000
0102
0000
0000
0000
,
0000
0000
0013
0000
,
0001
0100
0010
0100
0001
0000
0011
0000
0000
0110
0000
0000
1100
0000
0000
2001
,
0000
0000
0000
3100
0110
0000
0000
0000
,
0010
0001
1000
0010
1000
0001
1000
0100
0010
0000
0000
0011
0000
0000
1020
0000
,
0000
0000
0000
0000
0130
0000
0000
0001
,
1000
0100
1000
0010
0100
0000
0110
0000
0000
1010
0000
0000
1001
0000
0000
0202
,
0000
0000
0303
0000
0000
0000
2100
0000
0000
0000
3001
0100
0010
0100
0001
0000
,
1000
0001
1000
0010
0100
0001
1000
0000
0000
1100
0000
0000
0012
0000
0000
0000
,
0000
0000
0000
0000
1003
0000
0000
0010
,
0100
0001
0010
0100
0010
0000
0011
0000
0000
1001
0000
0000
1100
0000
0000
0102
,
0000
0000
0000
0000
0000
0000
1003
0000
1010
0000
0000
0000
0000
0000
0001
0100
,
0010
1000
0010
0001
0010
1000
0100
1000
0001
0000
0000
1001
0000
0000
1020
0000
,
0000
0000
0000
0000
0130
0000
0000
0001
,
0010
0001
0010
0100
1000
0000
1100
0000
0000
0110
0000
0000
0011
0000
0000
0202
,
0000
0303
0000
2002
0000
0000
3003
0000
,
0001
0000
1000
0010
0100
0010
0000
1000
0000
0010
1000
0000
0010
0000
0100
0000
,
0110
0000
0000
0000
1001
0000
0000
0000
0001
0000
1000
0000
0001
0010
0100
1000
,
0001
0000
0100
0010
0000
1000
0010
0100
0000
0001
0100
0000
0001
0000
0010
0000
,
0100
0110
1001
0000
,
1000
0000
0000
1000
0000
0000
0001
0000
0000
0001
0000
0000
0010
0001
1000
0001
,
0010
0000
0000
0010
0000
0000
0100
0000
0000
0100
0000
0000
1000
0100
0010
0100
,
1000
0001
1000
0010
1000
0001
0100
1000
0100
0010
0100
0001
1000
0100
0010
0001
,
1000
0000
0000
0000
1000
0000
0000
1000
0000
0000
0100
0000
1000
0000
0001
0000
,
0100
0000
0000
0000
0010
0000
0100
0010
0000
0000
0010
0000
1000
0000
0001
0000
,
1000
0100
1000
0100
0010
0000
0001
0010
0000
0000
0100
0000
0100
0000
0010
0000
,
0100
0000
0000
0000
1000
0000
0001
0100
0001
0000
0010
0000
0110
0000
0000
0000
,
1001
0000
0000
0001
0100
0010
0001
0010
1000
0001
0010
0100
,
1000
0000
0001
0000
0100
0000
0001
0000
0001
0000
0000
0010
0100
0000
0000
0000
,
1000
0000
0010
1000
0001
0000
0100
0000
0100
0000
0010
0000
0000
0000
0000
0000
,
0010
0100
0110
0010
0010
0000
0110
0000
,
1001
0000
0001
0010
0001
0000
0100
0000
0100
0000
0010
0000
0100
0000
0000
0000
,
0001
0000
1000
0000
0100
0000
0010
0100
0000
0000
0100
0000
2000
0000
0000
0000
,
3010
0000
0100
0010
0100
0000
0001
0000
0100
0000
0010
0000
0010
0000
0000
0000
,
1000
0000
0100
1000
0100
0000
0010
0000
0110
0000
0000
0000
1001
0000
0000
0000
,
1000
0000
0100
0000
0010
0000
1000
0000
0010
0000
0001
0000
1000
0000
0010
0000
0100
0000
0001
0000
0000
1000
0000
0000
,
1001
0000
0001
0000
0001
0000
0000
0000
0200
0000
0000
0000
0310
0000
1000
0001
,
1000
0100
1000
0001
0001
0000
0100
0110
,
0000
2002
0000
0000
0000
0000
3003
0000
,
1000
1100
0120
0000
0000
0000
0000
0031
,
0011
0000
0000
0000
0000
0000
0000
0001
,
0000
0101
0000
0000
1001
0000
0000
1020
0000
0000
0000
0000
0000
0000
1030
0000
,
1100
0000
0000
0000
,
1001
0000
0000
0101
0000
0000
0012
0000
0000
0000
0000
0000
0000
0000
0103
0000
,
0110
0000
0000
0000
0000
0000
0000
1000
,
0000
1010
0000
0000
1001
0000
0000
0022
0000
0000
0000
0033
0000
0000
0220
0000
,
0000
0000
0000
0000
0000
0000
0000
0000
0330
0000
0000
0000
0000
0000
0000
0000
1001
0000
0000
0000
0000
0000
0001
0000
0000
1000
0000
0000
0100
0000
0000
0000
,
0000
0000
0000
0000
0000
0000
0000
0000
0000
0000
0000
0000
0000
0000
0000
0000
0000
0000
0000
0000
0000
0000
1000
0000
0000
0010
0000
0000
0100
0000
0000
0001
,
0000
0000
0000
0000
0100
0000
0000
0000
0101
0000
0000
0100
0000
0000
0100
0000
,
0000
0100
0000
0000
0001
0010
0100
1000
0000
0000
0000
0100
0000
0000
0100
0000
,
0000
0100
0000
0000
1000
0010
1000
0000
0000
0000
0000
0000
0001
0000
0011
0000
,
0000
1001
0000
0000
1010
0000
0000
0202
0000
0000
0000
0000
0000
0303
0000
0000
,
0100
0000
0100
0000
0001
0000
0000
0000
2000
0000
0000
0000
3100
0000
1000
0001
,
0200
0000
0000
0000
0310
0100
0002
0000
0010
0000
0000
0000
0103
0000
0000
0000
,
0100
0000
0001
0010
1000
0010
0001
0000
2000
0000
0000
0000
3010
0000
1000
0001
,
0020
0000
0000
0000
0031
0100
0020
0000
0100
0000
0000
0000
1030
0000
0000
0000
,
1000
0100
0001
0100
0010
0001
0100
0000
0002
0000
0000
0000
0103
0000
0001
1000
,
0200
0000
0000
0000
0310
0100
2000
0000
0010
0000
0000
0000
3100
0000
0000
0000
,
0100
0000
1000
0010
0001
0010
1000
0000
0001
1000
0001
0010
0100
1000
0001
0100
,
0001
1000
0100
1000
0010
0100
0002
0000
0000
0000
1003
0000
0100
0010
0200
0000
,
0000
0000
0310
0000
0110
0000
0000
0000
1001
0000
0001
1000
0020
0000
0000
0000
,
1030
0001
0020
0000
0100
0000
0000
0000
0031
0000
0000
0000
1000
0000
0010
1000
,
0100
0001
0100
0000
0020
0000
0000
0000
0031
0000
1000
0010
0200
0000
0000
0000
,
0301
1000
0002
0000
0010
0000
0000
0000
1003
0000
0000
0000
0001
0100
1000
0100
,
0010
0000
0000
1000
0000
0000
0100
0000
0000
0000
0000
0000
0020
0000
0000
0000
0000
0000
0000
0000
0000
0000
0000
0000
0000
0000
0000
0000
0000
0000
0031
0000
0000
1000
0000
0000
0010
0000
0000
0000
0100
0000
0000
0000
0010
0000
0000
0000
,
0100
0000
0001
0000
0000
0000
1000
0000
1000
0000
0000
0000
1001
0000
0001
0100
,
0001
0010
0100
0000
1000
0100
0010
0001
0100
0010
1000
0100
0010
0001
0100
0010
,
1000
0001
2000
0000
0000
0000
0000
0000
3100
1000
0002
0000
0000
0000
0000
0000
,
0003
0000
0000
0000
0000
0000
0100
0000
0000
0000
0010
0000
0000
0000
0010
0000
0000
0000
1000
0000
0000
0100
0000
0000
,
0100
1000
0001
0100
0010
1000
0100
1000
0010
0000
0000
0000
0100
0000
0010
0000
,
0010
0000
0000
0000
2000
0000
0000
0000
3001
0000
0010
0001
0010
0000
0100
0000
,
0100
0010
0000
0000
0010
0100
0110
0001
,
1001
0000
0000
0110
0000
0000
1000
0010
0001
1000
0100
0010
,
1000
0000
0000
0000
0001
0000
0000
0000
0010
0000
0000
0000
0100
0000
0000
0000
0000
0000
1000
0000
0000
0000
0000
0000
1001
0000
0000
0000
0000
0000
0001
0000
0000
0000
0000
0000
0001
0000
0000
0000
0000
0000
0000
0000
0000
0001
0000
0000
,
0100
0000
0000
0000
0010
0000
1000
0001
1000
0000
0100
0000
0100
0000
0010
0000
,
0000
0000
0010
0100
0110
0010
0010
0000
,
0011
0000
0000
0000
1100
0000
1000
0010
1000
0100
0010
0001
1000
0000
0001
0000
,
0101
0000
0000
0000
1010
0000
1000
0001
0100
0000
0010
1000
0000
1000
0100
0010
,
0002
0000
0000
0000
0013
0001
0010
1000
0010
0000
0100
0010
0000
0000
0001
0000
,
0101
0000
0000
0000
1010
0000
1000
0001
1000
0000
0010
0000
0110
0000
0000
0000
,
0110
0000
0000
0100
0000
0000
1001
0000
0000
0000
0000
0000
0001
0000
0100
0000
1000
0000
0100
0000
0001
0000
1000
0000
,
0100
0000
0000
0000
0001
0000
0000
0000
0100
0000
0000
0000
1000
0000
0000
0000
0000
0000
0010
0000
0000
0000
0000
0000
0110
0000
0000
0000
0000
0000
0010
0000
0000
0000
0000
0000
0010
0000
0000
1000
0000
0000
0100
0000
0000
0010
0000
0000
,
0001
0000
0001
0000
1000
0001
0100
1000
0100
0000
0001
0000
0010
0000
0100
0000
,
1100
1000
0001
0101
0000
0220
0000
0330
,
2002
3003
0000
0000
;

//---------------dance-single - leeium-CSP----------------
#NOTES:
     dance-single:
     leeium:
     Challenge:
     18:
     :
0000
0000
0000
0000
,
0000
0000
0000
0000
,
0000
0000
0000
0000
,
0000
0000
0000
0000
0000
0000
0000
0000
0000
0000
0000
0000
0101
0000
0000
0001
,
1000
0000
0000
1000
0000
0000
0100
0000
0000
0100
0000
0000
0010
0001
0010
0001
,
0010
0000
0000
0010
0000
0000
0001
0000
0000
0001
0000
0000
1000
0001
1000
0001
,
1000
0000
0010
0000
1000
0001
1000
0001
1000
0000
0100
0010
0100
0000
1000
0001
,
0100
0010
1000
0100
0010
0000
2002
0000
0000
0000
0000
0000
0000
0000
3003
0000
,
0001
0000
1000
0000
0010
0000
0110
0000
0000
1010
0000
0000
0102
0000
0000
0000
,
0000
0000
0000
0000
0000
0000
0000
0000
1003
0000
0000
0000
0000
0000
0100
0010
,
0001
0010
0100
1000
0100
0000
1100
0000
0000
1001
0000
0000
1010
0000
0000
0120
,
0000
0000
0000
0000
0000
0000
0130
0000
0101
0000
0000
0000
0000
0000
0001
0010
,
0001
0000
0000
1000
0000
0000
0100
0000
0000
0010
0000
0000
0001
0000
0000
1000
0000
0000
0010
0000
0100
0000
0001
0000
0100
0000
0000
0000
0000
0000
0000
0000
0000
0110
0000
0000
0000
0000
0000
0000
0000
0000
2010
0000
0000
0000
0000
0000
,
0000
0000
0000
0000
3001
0000
0000
0010
,
0001
1000
0001
1000
0010
0000
0110
0000
0000
0101
0000
0000
0011
0000
0000
2200
,
0000
0000
0000
3300
0000
0000
2002
0000
0000
0000
0000
0000
3003
0000
0000
0000
,
0001
0100
0010
1000
0100
0010
0001
0000
0000
0110
0000
0000
2100
0000
0000
0000
,
0000
0000
0000
0000
0000
0000
0000
0000
3010
0000
0000
0000
0000
0000
0000
0010
,
1000
0010
0100
0001
0010
0000
0011
0000
0000
1001
0000
0000
1010
0000
0000
0210
,
0000
0000
0000
0000
0000
0000
0301
0000
0011
0000
0000
0000
0000
0000
0001
1000
,
0010
0000
0000
1000
0000
0000
0100
0000
0000
0010
0000
0000
0001
0000
0000
0100
0000
0000
0001
0000
0010
0000
0100
0000
1000
0000
0000
0000
0000
0000
0000
0000
0000
1100
0000
0000
0000
0000
0000
0000
0000
0000
0201
0000
0000
0000
0000
0000
,
0000
0000
0310
0000
,
0100
0001
1000
0001
0010
0000
0110
0000
0000
1100
0000
0000
1001
0000
0000
0202
,
0000
0000
0000
0303
0000
0000
0022
0000
0000
0000
0000
0000
0000
0000
0033
0000
,
1001
1000
1000
1000
,
0010
0010
0010
0010
,
0100
0100
0100
0100
,
0001
0000
0000
0000
0001
0000
0000
0000
0001
0000
0000
0000
0001
0000
0000
0001
,
0010
0000
0000
0010
0000
0000
0001
0000
0000
0001
0000
0000
0100
0001
0100
0001
,
0100
0000
0000
0100
0000
0000
0010
0000
0000
0010
0000
0000
1000
0001
1000
0001
,
1000
0100
1000
0100
0010
0001
0010
0001
1000
0010
0100
0001
0010
0100
1000
0001
,
1000
0000
0000
0000
0100
0000
0001
0100
0001
0000
0101
0000
0101
0000
0001
0000
,
0100
0000
0000
0000
0101
0000
0001
0100
0001
0000
0101
0000
0102
0000
0000
0013
,
0100
0010
0100
1000
0001
0000
0001
1000
0001
0000
1001
0000
1001
0000
0001
0000
,
1000
0000
0000
0000
1001
0000
0001
1000
0010
0000
0100
0000
0101
0000
0000
0000
,
1100
0000
0000
0000
0000
0000
0000
0000
0000
0000
0000
0000
0010
0000
0000
0000
0000
0000
0001
0000
0000
1000
0000
0000
0001
0000
0100
0000
0001
0000
0100
0000
0001
0000
0100
0000
0001
0000
0100
0000
0001
0000
0100
0000
0001
0000
0100
0000
,
0001
0000
0001
0000
0101
0000
0010
0000
0100
0000
0000
0001
2000
0000
0000
3100
,
1000
0000
0000
0100
1000
0100
1000
0100
1000
0100
1000
0100
1000
0000
0000
1000
0000
0000
0000
0000
0000
0000
0000
0000
,
1000
0100
0110
0100
1000
0000
1001
0000
,
1001
0000
0001
0000
1001
0000
0001
1000
0001
0000
1001
0000
1000
0000
0100
0000
,
1001
0000
0001
0000
1001
0000
0001
1000
0001
0000
1000
0020
0000
2030
0000
3100
,
0010
0000
0001
0010
0001
0000
0001
0010
0001
0000
0011
0000
0010
0000
0001
0000
,
1001
0000
1000
0001
1000
0000
0010
0000
0110
0000
0000
0000
0101
0000
0000
0000
,
0001
0100
0010
1000
0100
0010
0001
0010
0001
0010
0001
0010
0001
0010
0001
0010
0001
0010
0001
0000
0000
0001
0000
0000
,
1001
0000
1000
0000
1010
0000
0000
0000
0010
1000
0010
1000
0010
0000
0100
0001
,
0100
0000
0100
0001
0100
0000
0101
0000
0001
0000
0000
0000
1000
0000
1100
0000
,
0000
2002
0000
0000
0000
0000
3003
0000
,
0001
0101
0120
0000
0000
0000
0000
1030
,
1010
0000
0000
0000
0000
0000
0000
1000
,
0000
1100
0000
0000
1001
0000
0000
0021
0000
0000
0000
0000
0000
0000
0031
0000
,
0101
0000
0000
0000
,
1001
0000
0000
1100
0000
0000
2010
0000
0000
0000
0000
0000
0000
0000
3100
0000
,
0110
0000
0000
0000
0000
0000
0000
0001
,
0000
0011
0000
0000
1001
0000
0000
2020
0000
0000
0000
3030
0000
0000
0220
0000
,
0000
0330
1001
0100
,
0100
0100
0100
0100
,
0100
0000
0000
0000
0100
0000
0000
0000
1100
0000
0000
0100
0000
0000
0100
0000
,
0000
0100
0000
0000
1000
0100
0010
0001
0000
0000
0000
0001
0000
0000
0001
0000
,
0000
0001
0000
0000
0001
0100
0010
0100
0010
0100
0010
1000
0001
0000
0010
0001
,
0010
0100
1000
0001
1000
0001
0100
0020
2000
0000
0000
0000
0000
0000
0000
0000
,
3030
0000
MMMM
0000
0001
0100
1000
0100
,
0010
1000
0100
0010
0100
0001
0100
0010
,
0001
0010
0001
0010
0100
1000
0100
0000
1000
0000
0010
0000
0100
0000
1000
0000
,
0100
0010
1000
0001
1000
0100
0010
0001
,
1000
0100
1000
0100
0010
0001
1000
0000
0010
0000
1000
0000
0001
0000
1000
0000
,
0100
0010
0001
0010
1000
0010
0100
0001
,
0100
0010
0100
0010
0001
0010
0001
0000
1000
0001
1000
0010
0100
0001
0100
0010
,
1000
0100
0010
0001
1000
0001
0200
0000
0000
0000
0000
0000
0310
1000
0002
0000
,
0000
0000
0103
0000
1010
0000
MMMM
0000
1001
0000
0001
0100
0000
0010
0000
0100
,
0000
0001
0100
0001
1000
0100
0010
0000
0100
1000
0010
1000
0001
0010
0001
0010
,
0100
1000
0100
0000
0010
0001
1000
0000
0001
1000
0001
0100
0000
0010
0000
0100
,
0000
0001
0100
0001
1000
0100
0010
0000
0100
1000
0010
1000
0010
0100
0001
1000
,
0100
0000
0000
0010
0000
0000
0100
0000
0000
1000
0000
0000
0002
0000
0000
0000
0000
0000
0000
0000
0000
0000
0000
0000
0000
0000
0000
0000
0000
0000
0013
0000
0000
0000
0000
0000
0100
0000
0000
0000
1000
0000
0000
0000
0010
0000
0000
0000
,
0100
0000
0000
0000
0010
0000
0000
0000
1000
0000
0000
0000
0001
0000
0000
0000
0000
0000
0010
0000
0000
0000
0000
0000
0011
0000
0000
0000
0000
0000
1000
0000
0000
0000
0000
0000
0010
0000
0000
1000
0000
0000
0010
0000
0000
1000
0000
0000
,
0001
0010
0100
0000
0010
0001
0010
0001
1000
0010
1000
0100
0010
0100
1000
0010
,
0100
0001
0020
0000
0000
0000
0000
0000
0031
1000
0020
0000
0000
0000
0000
0000
,
0130
0000
0000
0001
0000
0000
1000
0000
0000
0100
0000
0000
0010
0000
0000
0000
0000
0000
0000
0000
0001
0000
0000
0000
0000
0000
0000
0000
1000
0000
0000
0000
0000
0000
0000
0000
0110
0000
0000
0000
0000
0000
0010
0000
0000
0000
0000
0000
,
1000
0010
1000
0010
1000
0010
1000
0010
1000
0010
1000
0010
1000
0000
0000
1000
0000
0000
1010
0000
0000
1000
0000
0000
,
2000
0000
0000
0000
3001
0010
0001
0100
0010
0000
0010
1000
0010
0000
1010
0000
,
1010
0010
0000
0000
0010
0010
1010
0010
,
0110
0000
0000
0000
0000
0000
0101
0000
0000
0000
0000
0000
0001
0010
0001
0010
0001
0010
0001
0010
0001
0010
0001
0010
,
0001
0000
0010
0000
0001
0000
0010
0000
0001
0000
0010
0000
0001
0000
0000
0000
0000
0000
0001
0000
0000
0000
0000
0000
1001
0000
0000
0000
0000
0000
0001
0000
0000
0000
0000
0000
0002
0000
0000
0000
0000
0000
0000
0000
0000
1003
0000
0000
,
0020
0000
0000
0000
0000
0000
0000
0000
0000
1030
0100
1000
0100
1000
0100
1000
0100
1000
0100
0000
0000
0100
0000
0000
,
0000
0000
0100
0100
1100
0100
0100
0000
,
1001
0000
0010
0000
1001
0000
1000
0000
1001
0000
1000
0001
1000
0000
1001
0000
,
0001
0000
0100
0000
1001
0000
0001
0000
1001
0000
0001
1000
0002
0000
1003
0020
,
0000
0230
0000
0310
1000
0000
0010
1000
0010
0000
0010
1000
0010
0000
1010
0000
,
1000
0000
0001
0000
1100
0000
0100
0000
1100
0000
0100
0010
0001
0000
0100
0001
,
1000
0000
0001
1000
0001
0000
0100
0000
0001
0100
0000
0100
0001
0010
0001
0010
,
0100
0000
0010
0100
0010
0000
0100
0000
1000
0000
0100
0000
0100
1000
0100
1000
,
0001
0000
0000
0000
0000
0000
0001
0000
0000
0000
0000
0000
1000
0000
0000
0010
0000
0000
1000
0000
0000
0010
0000
0000
0100
0000
0001
0000
0100
0000
0010
0000
1000
0000
0010
0000
0100
0000
0000
0000
0000
0000
0100
0000
0000
0000
0000
0000
,
0001
2000
3010
0110
1000
0022
0000
0033
,
2002
3003
0000
0000
;

//---------------dance-double - Kekkle-BDP----------------
#NOTES:
     dance-double:
     Kekkle:
     Easy:
     7:
     :
00000000
00000000
00000000
00000000
,
00000000
00000000
00000000
00000000
,
00000000
00000000
00000000
00000000
,
00000000
00000000
00000000
00000000
,
10000000
10000000
00010000
00010000
,
01000000
01000000
00001000
00001000
,
00010000
00010000
00000010
00000010
,
00000100
00000001
00000100
00000001
00000000
00000000
00000000
00000000
,
00001001
00000000
00000000
00000000
00000000
00000000
00001000
00000000
00000000
00001000
00000000
00000000
00002000
00000000
00000000
00000000
,
00000000
00000000
00003000
00000000
,
00001100
00000000
00000000
00000000
00000000
00000000
00000100
00000000
00000000
00000100
00000000
00000000
00000100
00000000
00000000
00000200
,
00000000
00000000
00000300
00000000
,
00010100
00000000
00000000
00000000
00000000
00000000
00000000
00000000
00010000
00000000
00000000
00010000
00000000
00000000
00020000
00000000
,
00000000
00000000
00030000
00000000
,
00011000
00000000
00000000
00000000
00000000
00000000
00001000
00000000
00000000
00001000
00000000
00000000
00001000
00000000
00000000
00002000
,
00000000
00000000
00000000
01003000
00000000
00000000
00000000
00000000
,
01010000
00000000
00000000
00000000
00000000
00000000
00010000
00000000
00000000
00010000
00000000
00000000
00020000
00000000
00000000
00000000
,
00000000
00000000
00030000
00000000
,
10010000
00000000
00000000
00000000
00000000
00000000
10000000
00000000
00000000
10000000
00000000
00000000
10000000
00000000
00000000
20000000
,
00000000
00000000
30000000
00000000
,
11000000
00000000
00000000
00000000
00000000
00000000
00000000
00000000
01000000
00000000
00000000
01000000
00000000
00000000
02000000
00000000
,
00000000
00000000
03000000
00000000
,
01100000
00000000
00000000
00000000
00000000
00000000
00100000
00000000
00000000
00100000
00000000
00000000
00100000
00000000
00000000
00200000
,
00000000
00000000
00000000
00301000
00000000
00000000
00000000
00000000
,
00010000
00010000
00000010
00000010
,
00000100
00000100
00000001
00000001
,
00001000
00001000
00000100
00000100
,
00010000
00010000
00010000
00000000
,
00001000
00001000
01000000
00100000
,
10000000
10000000
01000000
00100000
,
00010000
00000000
00100000
00000000
01000000
10000000
01000000
00000000
,
10000000
00010000
00010000
01010000
,
01000000
00001000
00010000
00000100
,
00000000
00001000
00001000
00001001
,
00000001
00000100
00000010
00000010
,
00001000
00000200
00000000
00020300
,
00000000
00031000
00000000
01000000
,
01000000
00010000
00010000
10000000
,
01000000
00100000
00010000
10000000
,
00100000
00100000
01100000
01000000
,
00010000
00100000
00001000
00000000
,
00010000
00010000
00010010
00000010
,
00000100
00000001
00000001
00001000
,
00000200
00000000
00020300
00000000
,
00031000
00000000
01000000
01000000
,
00100000
00100000
00010000
00001000
,
00020000
00030000
00000000
00000000
,
00000000
00002000
00000000
00000000
,
00003000
00000000
00000000
00000000
,
00000000
00010000
00000000
00000000
00010000
00000000
00000000
00020000
00000000
00000000
00000000
00000000
00000000
00000000
00000000
00000000
,
00030000
00000000
00000000
00000000
,
00000010
00000000
00000000
00000010
00000000
00000000
00000020
00000000
00000000
00000000
00000000
00000000
00000000
00000000
00000000
00000000
,
00000030
00000000
00000000
00000000
,
00000000
00001000
00000000
00000000
00001000
00000000
00000000
00002000
00000000
00000000
00000000
00000000
00000000
00000000
00000000
00000000
,
00003000
00000000
00000000
00000000
00000000
00000000
00000000
00000000
00000000
00000000
00000000
00000001
00000000
00000000
00000001
00000000
,
00000000
00000000
00000000
00000000
00000000
00000000
00000000
00000000
00000000
00000000
00000000
00000000
00000000
00000000
00000000
00000000
00000000
00000000
00000000
00000000
00000000
00000000
00001000
00000000
00000000
00000000
00000000
00000000
00000000
00000000
00000000
00001000
,
00000000
00001000
00000100
00000000
,
00010000
00001000
01000000
00000000
,
00100000
10000000
00010000
00010000
,
00100000
00100000
00002000
00023000
,
00030010
00000010
00000200
00000000
,
00000302
00000000
00001003
00000100
,
00010000
00001000
02000000
00000000
,
03020000
00000000
10030000
01000000
,
10000000
01000000
00200000
00000000
,
00302000
00000000
00013000
00000010
,
00000100
00000000
00000001
00000001
,
00001000
00001000
00000100
00010000
,
00002000
00003000
00010000
00001000
,
01000000
00100000
00100000
10000000
,
00000000
02000000
00000000
03200000
,
00000000
00301000
00010000
00000100
,
00001000
00000200
00000000
00000310
,
00000000
00000002
00000000
00000103
,
00000000
00000010
00000010
00001000
,
00001000
00000100
00010000
00001000
,
00000000
01000000
00000000
00100000
,
00000000
00000000
10000000
00000000
10000000
00000000
00010000
01000000
,
00010000
10000000
00000000
00010000
,
00000000
00000000
01000000
00000000
00001000
00000000
00010000
00001000
,
00010000
00000100
00000020
00000000
,
00000032
00000000
00001003
00000000
,
00000100
00001000
00000100
00000100
,
00010000
00001000
00010000
00000000
,
00001000
00001000
01000000
00000000
,
00010000
00010000
10000000
01000000
,
00100000
00100000
00001000
00000000
,
00010000
00000010
00000100
00000000
,
00000001
00000001
00001000
00000100
,
00010000
00010000
00001000
01000000
,
00100000
00100000
10000000
01000000
,
00100000
00100000
00010000
00000000
,
20020000
00000000
30030000
00000000
;

//---------------dance-double - Kekkle-DDP----------------
#NOTES:
     dance-double:
     Kekkle:
     Medium:
     12:
     :
00000000
00000000
00000000
00000000
,
00000000
00000000
00000000
00000000
,
00000000
00000000
00000000
00000000
,
00000000
00000000
00000000
00000000
,
10000000
00000000
00000000
00100000
00000000
00000000
01000000
00000000
00000000
00010000
00000000
00000000
00100000
00000000
00001000
00000000
,
00010000
00000000
00000000
00000010
00000000
00000000
00000100
00000000
00000000
00000001
00000000
00000000
00001000
00000000
00000100
00000000
,
00010000
00001000
00010000
00001000
01000000
00010000
01000000
00100000
,
10000000
01000000
00100000
00020000
00000000
00000000
00030000
00000000
,
10000000
00000000
00100000
00000000
01000000
00000000
00001000
00000000
00000000
00001000
00000000
00000000
00002000
00000000
00000000
00000000
,
00000000
00000000
00013000
00000000
,
00000010
00000000
00000100
00000000
00000001
00000000
00001000
00000000
00000000
00001000
00000000
00000000
00001000
00000000
00000000
00002000
,
00000000
00000000
00003100
00000000
,
00010000
00000000
00001000
00000000
00010000
00000000
00100000
00000000
10000000
00000000
00000000
10000000
00000000
00000000
20000000
00000000
,
00000000
00000000
31000000
00000000
,
00100000
00000000
00001000
00000000
00010000
00000000
00000100
00000000
00000000
00000100
00000000
00000000
00000100
00000000
00000000
00000200
,
00000000
00000000
00000000
00000300
00000000
00000000
00002002
00000000
00000000
00000000
00000000
00000000
00003003
00000000
00000000
00000000
,
00000001
00000000
00000010
00000000
00000100
00000000
00010000
00000000
00000000
00010000
00000000
00000000
00020000
00000000
00000000
00000000
,
00000000
00000000
00031000
00000000
,
01000000
00000000
00100000
00000000
00010000
00000000
00100000
00000000
00000000
00100000
00000000
00000000
00100000
00000000
00000000
00200000
,
00000000
00000000
10300000
00000000
,
01000000
00000000
00010000
00000000
00001000
00000000
00010000
00000000
00000010
00000000
00000000
00000010
00000000
00000000
00000020
00000000
,
00000000
00000000
00001030
00000000
,
00000001
00000000
00001000
00000000
00000100
00000000
00010000
00000000
00000000
00010000
00000000
00000000
00010000
00000000
00000000
00020000
,
00000000
00000000
00000000
00030000
00000000
00000000
00022000
00000000
00000000
00000000
00000000
00000000
00033000
00000000
00000000
00000000
,
00001000
00001000
01000000
01000000
,
00100000
00000000
00100000
00000000
10000000
00000000
10000000
01000000
,
00100000
00000000
00100000
00001000
00010000
00000000
00010000
00000010
,
00000100
00000110
00002002
00003003
,
00000001
00000000
00000000
00001000
00000000
00000000
00000100
00000000
00000000
00010000
00000000
00000000
00001000
00000000
00100000
00000000
,
01000000
00000000
00000000
10000000
00000000
00000000
00100000
00000000
00000000
01000000
00000000
00000000
00001000
00000000
00010000
00000000
,
00001000
00010000
00000010
00001000
00000100
00000010
00000001
00000010
,
00000100
00000000
00000000
00000000
00010000
00000000
00000000
00010000
00000000
00000000
00010000
00000000
00001000
00000000
01000000
00000000
,
00100000
00000000
00000000
00000000
10000000
00000000
00000000
01000000
00000000
00000000
00100000
00000000
00010000
00000000
00000000
00000000
,
01010000
00000000
00000000
00000000
01000000
00000000
00000000
00100000
00000000
00000000
00010000
00000000
00001000
00000000
00010000
00000000
,
00000100
00000000
00000010
00000001
00000010
00000100
00001000
00000000
,
00001100
00000200
00020300
00032000
,
00023000
00000000
00130000
01000000
00010000
00000000
20000000
00000000
,
31000000
00000000
00100000
01000000
00100000
00001000
00000000
00000000
,
00010000
00000010
00000100
00001000
00000100
00000000
00000001
00000000
,
00000010
00000000
00000000
00000010
00000000
00000000
00000010
00000000
00000100
00000000
00010000
00000000
00001000
00000000
00000000
00000000
,
01000000
00000000
00000000
00010000
00000000
00000000
00100000
00000000
01000000
00000000
00000000
00000000
11000000
00000000
00000000
00000000
,
10000000
00000000
00000000
00100000
00000000
00000000
00010000
00000000
00001000
00000000
00010000
00000000
01000000
00000000
00000000
00000000
,
00100000
00001000
00010000
00001000
00000100
00000000
00000101
00000000
,
00000002
00000203
00000320
00020030
,
00031000
01000000
00100000
00000000
20000000
00000000
31000000
00000000
,
00100000
00001000
00010000
00001000
00000000
00000010
00000100
00001000
,
00000001
00000200
00000000
00000300
00000000
00000000
00000000
00000000
,
00000010
00000010
00000020
00000000
00000000
00000000
00000000
00000000
,
00000030
00000000
00000000
00000000
00000000
00000000
00000000
00010000
,
00000000
00010000
00000000
00000000
00010000
00000000
00000000
00020000
00000000
00000000
00000000
00000000
00000000
00000000
00000000
00000000
,
00030000
00000000
00000000
00000000
,
01000000
00000000
00000000
01000000
00000000
00000000
02000000
00000000
00000000
00000000
00000000
00000000
00000000
00000000
00000000
00000000
,
03000000
00000000
00000000
00000000
00000000
00000000
00000000
00010000
,
00000000
00010000
00000000
00000000
00010000
00000000
00000000
00020000
00000000
00000000
00000000
00000000
00000000
00000000
00000000
00000000
,
00030000
00000000
00000000
00000000
00000000
00000000
00000000
00000000
00000000
00000000
00000000
00000000
00000000
00000000
00000000
00000000
00000000
00000000
00000000
00000000
00000000
00000000
00000100
00000000
00000000
00001000
00000000
00000000
00000001
00000000
00000000
00000000
,
00000000
00000000
00000000
00000000
00000000
00000000
00000000
00000000
00000000
00000000
00000000
00000000
00000000
00000000
00000000
00000000
00000000
00000000
00000000
00000000
00000000
00000000
00001000
00000000
00000000
00000100
00000000
00000000
00010000
00000000
00000000
00001000
,
00000000
00000000
00000000
00000000
01001000
00000000
00000000
00000000
01000000
00000000
00000000
00100000
00000000
00000000
10000000
00000000
,
00000000
01000000
00000000
00000000
00100000
00000000
00100000
00000000
00000000
00000000
00000000
00001000
00000000
00000000
00010000
00000000
,
00000000
00000010
00000000
00000000
00000100
00000000
00000001
00000000
00001000
00000000
00000100
00000000
00010000
00000000
00001000
00000000
,
01000000
00010000
00100000
00000000
01000000
10000000
00100000
01000000
,
00010000
01010000
02000000
00000000
,
03200000
00000000
00310000
00002000
00000000
00000000
00013000
00000000
,
00000100
00000010
00000001
00000010
00000200
00000000
00000000
00000000
,
00002300
00000000
00003010
00000200
00000000
00000000
00000301
00000000
,
00000010
00000100
00010000
00001000
00020000
00000000
00000000
00000000
,
00230000
00000000
01300000
00020000
00000000
00000000
10030000
00000000
,
01000000
00100000
00010000
00100000
01000000
00100000
00001000
00010000
,
00000100
00001000
00000010
00000200
00000000
00000000
00000301
00002000
,
00000000
00003100
00020000
00032000
,
01003000
00200000
00000000
00000000
00310000
00000000
00001000
00010000
,
01000000
00010000
00002000
00000000
00000000
00000000
00003200
00000000
,
00000301
00000020
00000000
00000000
00000130
00000000
00010000
00001000
,
00010000
00100000
02000000
00000000
00000000
00000000
03010000
00000000
,
00000000
00200000
00001000
00310000
,
00000000
00000000
01000000
00100000
00010000
00001000
00010000
01000000
,
00010000
00002000
00000000
00000000
00003100
00000002
00000000
00000000
,
00001003
00000000
00000100
00000000
00010000
00000000
00001000
01000000
,
00100000
00010000
00100000
01000000
00010000
00000000
10000000
01000000
,
00100000
00000000
00001000
00000000
00010000
00000100
00010000
00001000
,
01000000
00100000
00000000
00000000
10000000
00010000
00100000
01000000
,
00100000
00101000
00002000
00023000
,
00030020
00000000
00000230
00000000
00000301
00001000
00000100
00000000
,
00020000
00000000
00031000
00000000
00000100
00000001
00000010
00000100
,
00000000
00000000
00010000
00001000
00010000
00001000
01000000
00000000
,
00100000
00000000
10000000
00010000
00100000
01000000
00100000
00001000
,
00010000
00000000
00000100
00000000
00001000
00000001
00000100
00000010
,
00001000
00000000
00000100
00010000
00001000
00010000
00000100
00001000
,
00000010
00000000
00000100
00001000
00010000
00100000
01000000
00000000
,
00010000
00000000
10000000
01000000
00100000
01000000
10000000
00010000
,
01000000
00001000
00010000
00000000
00000100
00001000
00000010
00000000
,
00000100
00000001
00000010
00000100
00001000
00000100
00010000
00000000
,
00001000
01000000
00010000
00100000
01000000
10000000
00000000
00000000
,
20020000
00000000
30030000
00000000
;

//---------------dance-double - Kekkle-EDP----------------
#NOTES:
     dance-double:
     Kekkle:
     Hard:
     16:
     :
00000000
00000000
00000000
00000000
,
00000000
00000000
00000000
00000000
,
00000000
00000000
00000000
00000000
,
00000000
00000000
00000000
00000000
,
10000000
00000000
00000000
01000000
00000000
00000000
00010000
00000000
00000000
00001000
00000000
00000000
00000100
00000010
00000100
00000010
,
00000100
00000000
00000000
00000001
00000000
00000000
00000010
00000000
00000000
00001000
00000000
00000000
00100000
01000000
00100000
01000000
,
00100000
00000000
01000000
00000000
10000000
00010000
10000000
00010000
01000000
00000000
00001000
00000000
00010000
00000000
00000010
00001000
,
00000100
00000010
00000001
00001000
00000010
00000000
00020020
00000000
00000000
00000000
00000000
00000000
00030030
00000000
00000000
00000000
,
00010000
00000000
00001000
00000000
01000000
00000000
01100000
00000000
00000000
10100000
00000000
00000000
02010000
00000000
00000000
00000000
,
00000000
00000000
03010000
00000000
,
01000000
00001000
00010000
00001000
01000000
00000000
01010000
00000000
00000000
01001000
00000000
00000000
00011000
00000000
00000000
00020100
,
00000000
00000000
00000000
00030010
00010010
00000000
00000000
00000000
,
00000010
00000100
00000010
00001000
00000001
00000010
00000100
00000000
00010100
00000000
00000000
00011000
00000000
00000000
02001000
00000000
,
00000000
00000000
03100000
00000000
,
10000000
00100000
01000000
00001000
00010000
00000000
00011000
00000000
00000000
00010010
00000000
00000000
00000110
00000000
00000000
00000202
,
00000000
00000303
00000000
00002002
00000000
00000000
00003003
00000000
,
00000001
00000010
00000100
00010000
00001000
01000000
00010000
00000000
00000000
10010000
00000000
00000000
12000000
00000000
00000000
00000000
,
00000000
00000000
00000000
00000000
03100000
00000000
00000000
00010000
,
00100000
01000000
00100000
00001000
00010000
00000000
00010100
00000000
00000000
00001010
00000000
00000000
00000101
00000000
00000000
00000012
,
00000000
00000000
00000000
00000000
00000000
00000000
00001003
00000000
00001100
00000000
00000000
00000000
00000000
00000000
00000100
00010000
,
00001000
00010000
00001000
01000000
00010000
10000000
01000000
00100000
01000000
00000000
00000000
01100000
00000000
00000000
00201000
00000000
,
00000000
00000000
00310000
00000000
,
10000000
01000000
00100000
00001000
00010000
00000000
00010010
00000000
00000000
00000110
00000000
00000000
00000101
00000000
00000000
00002002
,
00000000
00003003
00000000
00000220
00000000
00000000
00000330
00000000
,
00000010
00000000
00001000
00000001
00000010
00000100
00000000
00010000
00000000
00001000
01000000
00000000
00100000
00000000
10000000
00000000
,
11000000
00000000
00000000
00000000
01100000
00000000
00000000
00000000
00101000
00000000
00001000
00000000
00010000
00000010
00000100
00000010
,
00000100
00000000
00000001
00001000
00000000
00000100
00010000
00001000
00000000
00010000
00100000
00000000
01000000
00000000
00010000
00000000
,
10010000
01010000
02002000
03003000
,
00001000
00000000
00000000
01000000
00000000
00000000
10000000
00000000
00000000
01000000
00000000
00000000
00001000
00010000
00001000
00010000
,
00001000
00000000
00000000
00000010
00000000
00000000
00000001
00000000
00000000
00000010
00000000
00000000
00001000
00010000
00001000
00010000
,
00001000
01000000
00100000
01000000
00010000
10000000
01000000
00100000
01000000
00100000
00001000
00010000
00001000
00000100
00000010
00000100
,
00000010
00000000
00000000
00000000
00001000
00000000
00000000
00001000
00000000
00000000
00001000
00000000
00000001
00000000
00000010
00000000
,
00000100
00000000
00000000
00000000
00010000
00000000
00001000
01000000
00000000
00000000
00100000
00000000
10000000
00000000
01000000
00000000
,
00100000
00001000
00100000
00001000
00010000
00000000
00000100
00001000
00000000
00000000
00000001
00000000
00000010
00000000
00000100
00000000
,
00000010
00000000
00000000
00000000
00000001
00000000
00001000
00000100
00001000
00000000
00000100
00000000
00010100
00000000
00000000
00000000
,
00011000
00000000
00000000
00010000
00001000
00010000
01000000
10000000
01000000
00010000
00001000
00000100
,
00000010
00000000
00000100
00000000
00000001
00000000
00001000
00000000
00000100
00000000
00000000
00010000
00001000
00000000
00000000
00000000
,
01000000
00000000
00010000
10000000
01000000
00000000
00100000
00000000
01000000
00000000
00010000
00000000
00000000
00000000
00000000
00000000
,
00001000
00010000
00001000
00000010
00000001
00000000
00001001
00000000
,
00001100
00000000
00000100
00010000
00001000
00000000
01000000
00000000
00100000
00000000
00010000
00000000
00100000
00000000
00000000
00000000
,
10000000
00000000
01000000
00000000
00100000
00000000
00001000
00010000
00000000
00000000
00000010
00000000
00001000
00000000
00000000
00000000
,
00000100
00000000
00000010
00000001
00000010
00000000
00000100
00000000
00000000
00010000
00000000
00000000
00001000
00000000
01000000
00100000
,
01000000
00010000
10010000
00000000
11000000
00000000
01100000
00000000
,
00100000
01000000
10000000
00100000
00010000
00001000
00000010
00000001
00000010
00001000
00010000
01000000
,
10000000
00000000
00010000
00000000
00110000
00000000
00000000
00000000
00100000
00000000
01000000
00000000
10000000
00000000
01000000
00100000
,
00010000
00000000
01000000
00000000
00001000
00000000
00010000
00000000
00000000
00000000
00001000
00000000
00000100
00000010
00000100
00000000
,
00000001
00002002
00000000
00000000
00000000
00000000
00003003
00000000
,
00001000
00001100
00020100
00000000
00000000
00000000
00000000
00031000
,
01001000
00000000
00000000
00000000
00000000
00000000
00000000
10100000
,
00000000
01100000
00000000
00000000
01001000
00000000
00000000
00021000
00000000
00000000
00000000
00000000
00000000
00000000
00000000
00000000
,
00030010
00000000
00000000
00000000
,
00000110
00000000
00000000
00010010
00000000
00000000
00012000
00000000
00000000
00000000
00000000
00000000
00000000
00000000
01003000
00000000
,
01001000
00000000
00000000
00000000
00000000
00000000
00000000
00011000
,
00000000
00010100
00000000
00000000
00000110
00000000
00000000
00000012
00000000
00000000
00000000
00000000
00000000
00000000
00000000
00000000
,
00001003
00000000
00000000
00000000
00000000
00000000
00000000
00000000
00000000
00000000
00000000
00000000
00000000
00000000
00000000
00000000
00011000
00000000
00000000
00000000
00000000
00000000
00010000
00000000
00000000
00001000
00000000
00000000
01000000
00000000
00000000
00000000
,
00000000
00000000
00000000
00000000
00000000
00000000
00000000
00000000
00000000
00000000
00000000
00000000
00000000
00000000
00000000
00000000
00000000
00000000
00000000
00000000
00000000
00000000
00100000
00000000
00000000
10000000
00000000
00000000
00100000
00000000
00000000
00001000
,
00000000
00000000
00000000
00000000
00001001
00000000
00000000
00000000
00001100
00000000
00000000
00000100
00000000
00000000
00010000
00000000
,
00000000
00001000
00000000
00000000
01000000
00100000
10000000
00010000
00000000
00000000
00000000
00100000
00000000
00000000
01000000
00000000
,
00000000
00100000
00000000
00000000
00001000
00010000
00001000
00000000
00000000
00000000
00000000
00000000
00000100
00000000
00000101
00000000
,
00000000
00001001
00000000
00000000
00001100
00000000
00000000
00020200
00000000
00000000
00000000
00000000
00000000
00000000
00000000
00000000
,
00030300
00000000
00010000
00000000
00002000
00000000
00013000
01000000
,
00200000
00000000
00000000
00000000
00310000
10000000
00200000
00000000
01000000
00000000
00000000
00000000
00310000
00000000
00000000
00000000
,
00001000
00010000
00001000
00000100
00000010
00000100
00000010
00000000
00002000
00000000
00000000
00000000
00003001
00000000
00000010
00000000
,
00000200
00000000
00000000
00000300
00010000
00000000
00002000
00000000
01000000
00000000
00000000
00000000
00103000
00000000
00000000
00000000
,
00010000
01000000
00010000
00100000
01000000
00000000
00100000
00000000
00002000
00000000
00000000
00000000
00013000
00000000
00000010
00000000
,
00000200
00000000
00000000
00000000
00000301
00001000
00000200
00000000
00000010
00000000
00000000
00000000
00010300
00000000
00000000
00000000
,
00001000
00010000
00001000
00010000
00100000
01000000
00100000
00000000
10000000
00100000
10000000
01000000
00100000
00010000
00100000
01000000
,
00100000
00001000
00010000
00000100
00010000
00001000
02000000
00000000
00000000
00000000
00000000
00000000
03100000
00010000
00002000
00000000
,
00000000
00000000
00000000
00000000
00003000
00000000
00000000
00000000
01001000
00000000
01000000
00100000
20000000
00000000
00000000
00000000
,
31000000
00100000
00002000
00000000
00010000
00000000
00000000
00000000
00003010
00000000
00000000
00000000
00000001
00000000
00000100
00000010
,
00010000
00001000
00010000
00000000
00002000
00000000
00000000
00000000
00103000
00000000
01000000
00000000
20000000
00000000
00000000
00000000
,
30100000
01000000
00002000
00000000
00010000
00000000
00000000
00000000
00003100
00000000
00000000
00000000
00000010
00000100
00000001
00000100
,
00000010
00000000
00000000
00001000
00000000
00000000
00000100
00000000
00000000
00010000
00000000
00000000
00002000
00000000
00000000
00000000
00000000
00000000
00000000
00000000
00000000
00000000
00000000
00000000
01003000
00000000
00000000
00000000
00000000
00000000
00010000
00000000
00000000
00100000
00000000
00000000
01000000
00000000
00000000
00000000
10000000
00000000
00000000
00000000
01000000
00000000
00000000
00000000
,
10000000
00200000
00000000
01300000
00001000
00010000
00010000
00100000
,
00010000
00000000
00000100
00000000
00001000
00000001
00001000
00000100
00000010
00000100
00010000
00001000
00010000
00001000
01000000
00010000
,
00100000
01000000
00200000
00000000
00000000
00000000
00000000
00000000
00310000
10000000
00200000
00000000
00000000
00000000
00000000
00000000
,
01300000
00000000
00000000
00000000
00000000
00000000
00010000
00000000
00000000
00000000
10000000
00000000
00000000
00000000
01000000
00000000
00000000
00000000
00010000
00000000
00000000
00001000
00000000
00000000
,
00010000
00000010
00001000
00000010
00000100
00000001
00000100
00000010
00001000
00000000
00000100
00000000
00010000
00000000
00001000
00000000
,
01001000
00000000
00000000
00000000
02000000
00000000
00000000
00000000
03100000
10000000
00100000
01000000
00010000
00000000
00100000
00000000
,
00001000
00021000
00000000
00000000
00030010
00000100
00001000
00000100
,
00000001
00000000
00000000
00001001
00000000
00000000
00001000
00000100
00001000
00010000
01000000
10000000
,
01000000
00000000
00010000
00000000
00001000
00000000
00000010
00000000
00000000
00000100
00000000
00000000
00000001
00000000
00000000
00001000
00000000
00000000
00001100
00000000
00000000
00000000
00000000
00000000
,
00000100
00000000
00010000
00000000
00001000
00000000
01000000
00100000
01000000
00000000
10000000
00000000
01000000
00000000
00200000
00000000
,
00000000
00000000
01300000
00001000
00010000
00000100
00000010
00000000
,
00000001
00000000
00000010
00000100
00000000
00000010
00000000
00000001
00000000
00001000
00000000
00000000
00000100
00000000
00010000
00000000
,
00011000
00000000
00000000
00000000
01001000
00000000
00000000
00000000
10100000
00000000
10000000
00000000
01000000
00100000
00010000
00100000
,
00001000
00000000
00010000
00001000
00010000
00000010
00001000
00000100
00000000
00000010
00000001
00000000
00001000
00000000
00000100
00000000
,
00010100
00000000
00000000
00000000
00011000
00000000
00000000
00000000
01001000
00000000
01000000
00100000
10000000
00000000
01000000
00100000
,
00010000
00000000
00000000
00000000
00000000
00000000
00100000
00000000
00000000
00001000
00000000
00000000
00010000
00000000
00000000
00000100
00000000
00000000
00010000
00000000
00000000
00001000
00000000
00000000
00010000
00000000
00000000
00000000
00000100
00000000
00000000
00000000
00000010
00000000
00000000
00000000
00000001
00000000
00000000
00000000
00000010
00000000
00000000
00000000
00001000
00000000
00000000
00000000
,
00010000
00000000
00000000
00000000
01000000
00000000
00000000
00000000
10000000
00000000
00000000
00000000
00100000
00000000
00000000
00000000
00000000
00000000
01000000
00000000
00000000
00000000
00000000
00000000
00010000
00000000
00000000
00100000
00000000
00000000
00010000
00000000
00000000
00000000
00000000
00000000
01000000
00000000
00000000
00001000
00000000
00000000
00010000
00000000
00000000
00001000
00000000
00000000
,
00010000
00000000
00000100
00001000
00000001
00000100
00000010
00000100
00000010
00000000
00001000
00000100
00001000
00000000
00000100
00010000
,
00001000
01000000
00100000
10000000
01000000
00020000
00000000
00030000
,
00022000
00000000
00033000
00000000
;

//---------------dance-double - Kekkle-CDP----------------
#NOTES:
     dance-double:
     Kekkle:
     Challenge:
     18:
     :
00000000
00000000
00000000
00000000
,
00000000
00000000
00000000
00000000
,
00000000
00000000
00000000
00000000
,
00000000
00000000
00000000
00000000
00000000
00000000
00000000
00000000
00000000
00000000
00000000
00000000
00000000
00000000
00000000
10000000
,
00100000
00000000
00000000
01000000
00000000
00000000
00001000
00000000
00000000
00010000
00000000
00000000
00000010
00001000
00000010
00000100
,
00000010
00000000
00000000
00001000
00000000
00000000
00000001
00000000
00000000
00000010
00000000
00000000
00000100
00010000
00000100
00010000
,
00001000
00000000
01000000
00000000
00010000
00100000
01000000
00100000
00010000
00000000
10000000
00000000
10000000
00000000
00010000
01000000
,
00100000
01000000
00001000
00010000
00000100
00001000
00002200
00000000
00000000
00000000
00000000
00000000
00000000
00000000
00003300
00000000
,
00001001
00000000
00000001
00000000
00001000
00000000
00001100
00000000
00000000
00010100
00000000
00000000
01002000
00000000
00000000
00000000
,
00000000
00000000
00000000
00000000
00000000
00000000
00000000
00000000
00013000
00000000
00000000
00000000
00000000
00000000
00100000
01000000
,
00001000
00010000
00000010
00001000
00000100
00000000
00000110
00000000
00000000
00000011
00000000
00000000
00001001
00000000
00000000
00010200
,
00000000
00000000
00000000
00000000
00000000
00000000
00000000
00000000
00001300
00000000
00000000
00000000
00000000
00000000
00010000
00001000
,
00010000
00001000
00010000
00100000
01000000
10000000
00100000
01000000
00010000
00000000
00000000
10010000
00000000
00000000
01002000
00000000
,
00000000
00000000
00013000
00000000
,
00000010
00001000
00000001
00000010
00000100
00000000
00010100
00000000
00000000
00011000
00000000
00000000
01001000
00000000
00000000
02200000
,
00000000
00000000
00000000
00000000
03300000
00000000
10010000
00000000
00000000
00000000
00010000
01000000
00001000
00010000
00000010
00001000
,
00000100
00000010
00000001
00000100
00000010
00001000
00000010
00000000
00000000
00010010
00000000
00000000
00021000
00000000
00000000
00000000
,
00000000
00000000
00000000
00000000
00000000
00000000
00000000
00000000
01030000
00000000
00000000
00000000
00000000
00000000
00000000
00100000
,
00010000
10000000
00100000
01000000
00001000
00000000
00011000
00000000
00000000
00010010
00000000
00000000
00001001
00000000
00000000
00000102
,
00000000
00000000
00000000
00000000
00000000
00000000
00000000
00000000
00001003
00000000
00000000
00000000
00000000
00000000
00000100
00010000
,
00001000
00000000
00000000
01000000
00000000
00000000
00010000
00000000
00000000
01000000
00000000
00000000
00100000
00000000
00000000
10000000
00000000
00000000
00010000
00000000
00100000
00000000
01000000
00000000
10000000
00000000
00000000
00000000
00000000
00000000
00000000
00000000
00000000
10010000
00000000
00000000
00000000
00000000
00000000
00000000
00000000
00000000
01002000
00000000
00000000
00000000
00000000
00000000
,
00000000
00000000
00000000
00000000
00000000
00000000
00000000
00000000
00003100
00000000
00000000
00000000
00000000
00000000
00000000
00000001
,
00000010
00000100
00010000
00000010
00001000
00000000
00001100
00000000
00000000
00010100
00000000
00000000
01001000
00000000
00000000
02020000
,
00000000
00000000
03030000
20020000
00000000
00000000
30030000
00000000
,
10000000
10000000
00010000
00010000
,
00001000
00000000
00001000
00000000
00000010
00000000
00000100
00000001
,
00001000
00001000
00010000
00010000
,
10000000
00000000
00000000
00000000
00000000
00000000
10000000
00000000
00000000
00000000
00000000
00000000
00200000
00000000
00000000
00000000
00000000
00000000
00300000
00000000
00000000
10000000
01000000
00100000
,
00010000
00000000
00000000
01000000
00000000
00000000
00001000
00000000
00000000
00010000
00000000
00000000
00000010
00001000
00000100
00000010
,
00000001
00000000
00000000
00001000
00000000
00000000
00000100
00000000
00000000
00010000
00000000
00000000
00001000
01000000
00010000
01000000
,
00100000
00000000
00000000
10000000
00000000
00000000
00010000
00000000
00000000
00100000
00000000
00000000
01000000
00000000
00000000
00100000
00000000
00000000
00001000
00000000
00000000
00010000
00000000
00000000
00000010
00000000
00000000
00001000
00000000
00000000
00000010
00000000
00000000
00000100
00000000
00000000
00000001
00000000
00001000
00000000
00000001
00000000
00001000
00000000
00000001
00000000
00001000
00000000
,
00000001
00000000
00000000
00000000
00001001
00000000
00001000
00000100
00010000
00000000
00011000
00000000
00001000
01000000
00100000
00000000
,
01100000
00000000
00000000
00000000
10010000
00000000
10000000
00010000
01000000
00000000
01001000
00000000
00001000
00010000
00000010
00000000
,
00000100
00001000
00000100
00000001
00000100
00000000
00000010
00001000
00000100
00000000
00010100
00000000
00010000
00001000
00100000
00000000
,
01100000
00000000
01000000
10000000
10010000
01000000
01001000
00000000
,
00011000
00000000
00000000
00000000
00000000
00000000
00001000
00000000
00000000
00010000
00000000
00000000
00000010
00001000
00000010
00001000
00000000
00000000
00000010
00000100
00000010
00000100
00000010
00000100
,
00000010
00000000
00001000
00000000
00000001
00000010
00000100
00000000
00020000
00000000
00000000
00000000
00031000
01000000
00100000
01000000
,
00010000
00000000
10000000
01000000
00100000
00000000
01000000
00010000
00001000
00000000
00020000
00000000
00000000
00000000
00030010
00000000
,
00001000
00000100
00000110
00001000
00002002
00003003
00001001
00000000
,
00000101
00000000
00000100
00001000
00010000
00000000
00011000
00000000
00001000
00100000
01000000
00000000
01100000
00000000
00000000
00000000
,
00110000
00000000
00010000
10000000
00100000
00000000
01100000
00000000
01000000
00001000
00010000
00000000
00000010
00002000
00000000
00003001
,
00000010
00000000
00001000
00010000
00001000
00000000
00010000
00000000
01000000
00100000
00000000
00010000
10000000
00000000
00100000
00000000
,
01100000
01000000
01001000
00011000
00010010
00000000
00000110
00000000
,
00000010
00000000
00000000
00001000
00000000
00000000
00000010
00000000
00000000
00000000
00000000
00000000
00010000
00000000
00001000
00000000
00010000
00000000
00001000
00000000
00000000
00000000
00000000
00000000
01000000
00000000
00010000
00000000
01000000
00000000
00010000
00000000
01000000
00000000
00010000
00000000
01000000
00000000
00000000
00000000
00000000
00000000
00100000
00000000
00000000
00000000
00000000
00000000
,
10000000
00000000
01000000
00000000
00020000
00000000
00000000
00000000
00031000
00000010
00000001
00001000
00000010
00000000
00000100
00001000
,
00010000
00000000
00001000
00010000
01000000
00000000
00200000
00000000
00000000
00000000
00310000
00000000
10010000
00000000
10000000
00000000
,
00100000
00120000
00000000
00000000
00000000
00000000
00000000
00000000
,
00031000
00011000
00010020
00000000
00000000
00000000
00000000
00000000
,
00000130
00000000
00000000
00000000
00000000
00000000
00000000
00000000
00000001
00001000
00000100
00010000
00001000
00000000
00011000
00000000
,
00000000
01001000
00000000
00000000
01100000
00000000
00000000
10020000
00000000
00000000
00000000
00000000
00000000
00000000
00000000
00000000
,
01030000
00000000
00000000
00000000
00000000
00000000
00000000
00000000
00010000
00000000
00100000
00000000
00001000
00010000
00000100
00001000
,
00000010
00000000
00000000
00001010
00000000
00000000
00012000
00000000
00000000
00000000
00000000
00000000
00000000
00000000
00000000
00000000
,
01003000
00000000
00000000
00000000
00000000
00000000
00000000
00000000
00010000
01000000
00100000
10000000
00010000
00000000
01010000
00000000
,
00000000
01001000
00000000
00000000
00011000
00000000
00000000
00020020
00000000
00000000
00000000
00000000
00030030
00000000
00000220
00000000
,
00000000
00000000
00000000
00000000
00000000
00000000
00000000
00000000
00000000
00000000
00000000
00000000
00000330
00000000
00000000
00000000
00001001
00000000
00000000
00000000
00000000
00000000
00001000
00000000
00000000
00010000
00000000
00000000
10000000
00000000
00000000
00000000
,
00000000
00000000
00000000
00000000
00000000
00000000
00000000
00000000
00000000
00000000
00000000
00000000
00000000
00000000
00000000
00000000
00000000
00000000
00000000
00000000
00000000
00000000
00100000
00000000
00000000
00001000
00000000
00000000
00000010
00000000
00000000
00000100
,
00000000
00000000
00000000
00000000
00000101
00000000
00000000
00000000
00000100
00000000
00000000
00010000
00000000
00000000
01000000
00000000
,
00000000
00100000
00000000
00000000
10000000
00010000
00100000
00020000
00000000
00000000
00000000
01030000
00000000
00000000
00001000
00000000
,
00000000
00010000
00000000
00000000
00000010
00001000
00000010
00000100
00000001
00001000
00000100
00000010
00000100
00010000
00001000
01000000
,
00010000
01000000
00100000
10000000
00010000
00100000
00001000
00010000
00000020
00000000
00000000
00000000
00000200
00000000
00000000
00000000
,
MMMM0000
MMMM0000
MMMM0330
00000000
00001001
00001000
00010000
01000000
,
00010000
00000010
00000100
00010000
00001000
01000000
00100000
00010000
,
00000010
00001000
00000100
00000010
00000001
00001000
00000010
00000000
00010000
00000000
00001000
00000000
01000000
00000000
00100000
00000000
,
00001000
00000100
00000001
00001000
00010000
01000000
00100000
00100000
,
00001000
00010000
00001000
00000010
00000100
00001000
00000001
00000100
00000010
00000000
00001000
00000000
00010000
00000000
01000000
00000000
,
00100000
00010000
00000010
00001000
00000100
00010000
00001000
00010000
,
01000000
00100000
00010000
10000000
00100000
01000000
00010000
00000000
01000000
00100000
01000000
00001000
00010000
00000100
00010000
00001000
,
00000010
00000100
00001000
00000001
00000100
00000010
00000200
00000000
00000000
00000000
00001300
00010000
00001000
01000000
00002000
00000000
,
00003000
00000000
00000000
00000000
0001MMMM
00000000
MMMM1000
00000000
01000000
00000000
00010000
00100000
01000000
00000000
00100000
00001000
,
00010000
00000010
00000000
00000010
00001000
00000100
00000000
00000100
00000010
00000001
00000000
00000001
00001000
00000010
00010000
00001000
,
00010000
00000100
00010000
00000000
00001000
00010000
00100000
10000000
00100000
00000000
01000000
00010000
10000000
01000000
00000000
01000000
,
00100000
00001000
00000000
00001000
00010000
00001000
00000000
00001000
00000100
00000010
00000000
00000010
00001000
00000001
00000010
00000100
,
00010000
00001000
01000000
00010000
20000000
00000000
00000000
00000000
00000000
00000000
00000000
00000000
30010000
00000000
00000000
00000000
,
00000000
02000000
00010000
03001000
,
00000000
00000000
00000000
00000000
00010000
00000010
00001000
00000010
00000100
00000001
00001000
00000100
00000001
00000100
00001000
00000100
,
00010000
00001000
02000000
00000000
00000000
00000000
03010000
10000000
01000000
00100000
00020000
00000000
00000000
00000000
00000000
00000000
,
01030000
00000000
00000000
00000000
00000000
00000000
00000000
00000000
00000000
00000000
00000000
00000000
01001000
00000000
00000000
00000000
00000000
00000000
00000000
00000000
00001000
00000000
00000000
00000000
00000000
00000000
00000000
00000000
00010000
00000000
00000000
00000000
00000000
00000000
00000000
00000000
00000010
00000000
00000000
00001000
00000000
00000000
00000001
00000000
00000000
00000000
00000000
00000000
,
00000010
00000000
00000001
00000000
00000010
00000000
00000001
00000000
00000010
00000000
00000001
00000000
00001000
00000000
00000000
00000010
00000000
00000000
00010000
00000000
00000000
00001000
00000000
00000000
00010000
00000000
00000000
00000000
00000000
00000000
00001000
00000000
00000000
00000000
00000000
00000000
01000000
00000000
00000000
00010000
00000000
00000000
10000000
00000000
00000000
00000000
00000000
00000000
,
02000000
00000000
00000000
00000000
03200000
00000000
00000000
00000000
00301000
00000000
00010000
00000010
00000100
00000000
00001000
00010000
,
00000100
00000020
00000000
00000031
00001000
00000100
00010100
00010000
,
00011000
00000000
00000000
00000000
00000000
00000000
00000000
00000000
00000000
00000000
00000000
00000000
01010000
00000000
00000000
00000000
00000000
00000000
00000000
00000000
00000000
00000000
00000000
00000000
00010000
00000000
00000000
10000000
00000000
00000000
01000000
00000000
00000000
00000000
00000000
00000000
00100000
00000000
00001000
00000000
00100000
00000000
00001000
00000000
00000000
00000000
00000000
00000000
,
00010000
00000000
00001000
00000000
00010000
00000000
00001000
00000000
00010000
00000000
00001000
00000000
00010000
00000000
00000000
00000000
00000000
00000000
00000010
00000000
00000000
00000000
00000000
00000000
00001000
00000000
00000000
00000001
00000000
00000000
00000010
00000000
00000000
00000000
00000000
00000000
00000110
00000000
00000000
00000000
00000000
00000000
00000000
00000000
00000000
00000100
00000000
00000000
,
00010000
00001000
00000000
00001000
01000000
00000000
00100000
10000000
01000000
00000000
00010000
00001000
00000010
00000000
00000200
00000000
,
00000000
00001300
00000001
00000100
00000110
00010010
00011000
00000000
,
01001000
00000000
01000000
00100000
10000000
00010000
00000000
00100000
00000000
00001000
00010000
00000000
00000010
00000000
00001000
00000000
,
00001001
00000000
00000001
00000000
00000101
00000000
00000100
00000000
00000110
00000000
00000010
00010000
00000000
00001000
01000000
00010000
,
00100000
01000000
10000000
00010000
01000000
00001000
00000000
00010000
00000000
00000010
00001000
00000000
00000010
00000000
00000100
00000000
,
00000101
00000000
00000000
00000000
00000000
00000000
00000000
00000000
00000000
00000000
00000000
00000000
00001001
00000000
00000000
00000000
00000000
00000000
00000000
00000000
00000000
00000000
00000000
00000000
00001100
00000000
00000000
00000000
00000000
00000000
00000100
00000000
00000000
00010000
00000000
00000000
00001000
00000000
00000000
00000000
00000000
00000000
01000000
00000000
00010000
00000000
01000000
00000000
,
00020000
00000000
00000000
00000000
00000000
00000000
00000000
00000000
00000000
00000000
00000000
00000000
10030000
00000000
00000000
01000000
00000000
00000000
00100000
00000000
00000000
00000000
00000000
00000000
00001000
00000000
00000000
00000000
00010000
00000000
00000000
00000000
00000010
00000000
00000000
00000000
00000100
00000000
00000010
00000000
00000100
00000000
00000010
00000000
00000000
00000000
00000000
00000000
,
00001000
00000000
00000001
00000000
00001000
00000000
00000001
00000000
00001000
00000000
00000001
00000000
00001000
00000000
00000000
00000000
00000000
00000000
00000100
00000000
00000000
00000000
00000000
00000000
00010000
00000000
00000000
00001000
00000000
00000000
01000000
00000000
00000000
00000000
00000000
00000000
00020000
00000000
00000000
00000000
00000000
00000000
00000000
00000000
00000000
10030000
00000000
00000000
,
01000000
00000000
10000000
00010000
01000000
00100000
01000000
00001000
00020000
00000000
00030010
00001000
00000100
00000000
00000100
00000010
,
00000001
00000000
00001000
00000000
00000010
00000000
00010000
00000000
00001000
00000000
00011000
00000000
00000000
MMMMMMMM
00000000
00000000
,
00022000
00033000
00000000
00000000
;
