#TITLE:New Horizons;
#ARTIST:Protostar;
#BANNER:New Horizons.png;
#BACKGROUND:New Horizons-bg.png;
#MUSIC:New Horizons.ogg;
#OFFSET:0.31;
#SAMPLESTART:43.828;
#SAMPLELENGTH:15;
#BPMS:0=174,68=87,84=174;

//---------------dance-single - Talkion-bSP----------------
#NOTES:
     dance-single:
     Talkion:
     Beginner:
     4:
     0.198867,0.274890,0.096916,0.114537,0,158,147,11,13,0,0,0.198867,0.274890,0.096916,0.114537,0,158,147,11,13,0,0:
0000
0000
0000
0000
,
0000
0000
0000
0000
,
0000
0000
0000
0000
,
0000
0000
0000
0000
,
0000
0000
0000
0000
,
0001
0000
0000
0000
,
1000
0000
0000
0000
,
0001
0000
0000
0000
,
1000
0000
0000
0000
,
0010
0010
0000
0000
,
0100
0100
0000
0000
,
0001
0001
0000
0000
,
1000
1000
0000
0000
,
0100
0100
0000
0000
,
0010
0010
0000
0000
,
0001
0001
0000
0000
,
1000
1000
0000
0000
,
0010
0000
0010
0100
,
0001
0000
0001
0010
,
0100
0000
0100
1000
,
0010
0000
0010
0100
,
0001
0001
0000
0000
,
1000
1000
0000
0000
,
0010
0010
0000
0000
,
0100
0100
0000
0000
,
0001
0000
1001
0000
,
1000
0000
1001
0000
,
0010
0010
0010
0010
,
0200
0000
0000
0300
,
0000
0110
0000
0001
,
0000
0001
0001
0001
,
0000
0110
0000
1000
,
0000
1000
1000
1000
,
0000
1001
0000
0010
,
0000
0010
0010
0010
,
0000
1001
0000
0100
,
0200
0000
0000
0300
,
0000
0110
0000
0001
,
0010
0010
0010
0000
,
0000
0110
0000
1000
,
0000
1000
1000
1000
,
0000
1001
0000
0100
,
0010
0010
0010
0000
,
0000
1001
0000
0100
,
0200
0000
0000
0300
,
0001
0001
0001
0000
,
1000
1000
1000
0000
,
0010
0010
0010
0000
,
0100
0100
0100
0000
,
0001
0001
0001
0000
,
1000
1000
1000
0000
,
0100
0100
0100
0000
,
0010
0010
0010
0000
,
0001
0001
0010
0000
,
1000
1000
0010
0000
,
0001
0001
1000
0000
,
1000
1000
0001
0000
,
0001
0001
0100
0000
,
1000
1000
0100
0000
,
0001
0001
1000
0000
,
2002
0000
0000
3003
,
0002
0000
0000
0003
,
0010
0000
0010
0000
,
0200
0000
0000
0300
,
1000
0000
1000
0000
,
0020
0000
0000
0030
,
0100
0000
0100
0000
,
0002
0000
0000
0003
,
1000
0000
1000
0000
,
0200
0000
0000
0000
,
0000
0000
0000
0300
,
0020
0000
0000
0000
,
0000
0000
0000
0030
,
0002
0000
0000
0000
,
0000
0000
0000
0003
,
2000
0000
0000
0000
,
0000
0000
0000
0000
,
0000
0000
0000
0000
,
3000
0000
0000
0000
;

//---------------dance-single - Talkion-BSP----------------
#NOTES:
     dance-single:
     Talkion:
     Easy:
     9:
     0.416614,0.515419,0.158590,0.422908,0.035242,331,313,18,48,0,0,0.416614,0.515419,0.158590,0.422908,0.035242,331,313,18,48,0,0:
0000
0000
0000
0000
,
0000
0000
0000
0000
,
0000
0000
0000
0000
,
0000
0000
0000
0000
,
0000
0000
0000
0000
,
0002
0010
0000
0013
,
0200
1000
0000
1300
,
0020
0100
0000
0130
,
0002
1000
0000
1003
,
0100
0000
0020
0001
0000
0031
1000
0000
,
0010
0000
0200
0010
0000
0310
0100
0000
,
0010
0000
2000
0100
0000
3100
0010
0000
,
0100
0000
2000
0001
0000
3001
1000
0000
,
0010
0000
0200
0001
0000
0301
1000
0000
,
0100
0000
0020
0100
0000
0130
0010
0000
,
0001
0000
0200
0010
0000
0310
1000
0000
,
0100
0000
0020
0001
0000
0031
0100
0000
,
0010
0000
0000
0010
0000
0000
1000
0000
0100
0000
0000
0100
0000
0000
0010
0000
,
0100
0000
0000
0100
0000
0000
1000
0000
0001
0000
0000
0001
0000
0000
0100
0000
,
0010
0000
0000
0010
0000
0000
0100
0000
0001
0000
0000
0001
0000
0000
0010
0000
,
1000
0000
0000
1000
0000
0000
0010
0000
0100
0000
0000
0100
0000
0000
1000
0000
,
0001
0000
0100
0001
0000
0001
0101
0000
,
1000
0000
0100
1000
0000
1000
1100
0000
,
0100
0000
0010
0001
0000
0001
1001
0000
,
0100
0000
0010
1000
0000
1000
1001
0000
,
0001
0010
0001
0000
1000
0010
1000
0000
,
0001
0100
0001
0000
1000
0100
1000
0000
,
0100
0010
0100
0010
0100
0010
0100
0000
,
2002
0000
0000
3003
,
0001
0000
0201
0000
0000
0310
1000
0000
,
0100
0010
0001
0000
0001
0010
0100
0000
,
1000
0000
1020
0000
0000
0130
0001
0000
,
1000
0100
0010
0000
0010
0001
1000
0000
,
0010
0000
0210
0000
0000
0301
1000
0000
,
0100
1000
0010
0000
0010
1000
0100
0000
,
0010
0000
0012
0000
0000
1003
0010
0000
,
0220
0000
0000
0330
,
0001
0000
2001
0000
0000
3010
1000
0000
,
0100
1000
0100
1000
0100
1000
0001
0000
,
0100
0000
0120
0000
0000
1030
0001
0000
,
0010
0100
1000
0000
1000
0100
0010
0000
,
0001
0000
2001
0000
0000
3010
1000
0000
,
0010
0100
0010
0100
0010
0100
0001
0000
,
0010
0000
0210
0000
0000
1300
0001
0000
,
2002
0000
0000
3003
,
0001
0000
0100
0000
0010
1000
0010
0000
,
1000
0000
0100
0000
0010
0001
0010
0001
,
1000
0000
0010
0000
0100
0001
0100
0000
,
0010
0000
1000
0000
0100
0010
0100
0010
,
0100
0000
1000
0000
0001
0100
0001
0000
,
1000
0000
0100
0000
0010
0001
0010
0001
,
1000
0000
0010
0000
0100
0010
0100
0000
,
0010
1000
0110
1001
,
1000
0000
0100
0000
0010
0001
0010
0000
,
0100
0000
1000
0000
0001
0100
0001
0100
,
0001
0000
1000
0000
0100
1000
0100
0000
,
0010
0000
0001
0000
1000
0010
1000
0010
,
1000
0000
0001
0000
0010
0100
0010
0000
,
0001
0000
1000
0000
0010
0100
0010
0100
,
0010
0000
1000
0000
0100
0010
0001
0000
,
2002
0000
0000
3003
,
2000
0000
0000
0010
0000
3010
1000
0000
,
0200
0000
0000
0010
0000
0310
0100
0000
,
0020
0000
0000
0001
0000
0031
1000
0000
,
0020
0000
0000
1000
0000
1030
0001
0000
,
0020
0000
0000
0100
0000
0130
1000
0000
,
0020
0000
0000
0100
0000
0130
0001
0000
,
2000
0000
0000
0100
0000
3100
0010
0000
,
0002
0000
0000
0100
0000
0103
0010
0000
,
2000
0000
0000
0000
,
3200
0000
0320
0000
,
0032
0000
0000
0000
,
0203
0000
0320
0000
,
2030
0000
0000
0000
,
3200
0000
2300
0000
,
3020
0000
0000
0000
,
0230
0000
0302
0000
,
0000
0000
0000
0000
,
0003
0000
0000
0000
;

//---------------dance-single - Talkion-DSP----------------
#NOTES:
     dance-single:
     Talkion:
     Medium:
     12:
     0.572687,0.790308,0.123348,0.722467,0.400881,455,441,14,82,0,0,0.572687,0.790308,0.123348,0.722467,0.400881,455,441,14,82,0,0:
0000
0000
0000
0000
,
0000
0000
0000
0000
,
0000
0000
0000
0000
,
0000
0000
0000
0000
,
0000
0000
0000
0000
,
0001
0000
0021
0000
0000
0100
0230
0000
,
1300
0000
0001
0100
0000
0100
1000
0000
,
0100
0000
0120
0000
0000
1000
2030
0000
,
3100
0000
0010
0001
0000
0001
1000
0000
,
0010
0000
0000
0100
0000
0000
0002
0000
0000
0000
0010
0000
0023
0000
0000
0000
,
0130
0000
0000
1000
0000
0000
0001
0000
0100
0000
0000
0001
0000
0000
1000
0000
,
0100
0000
0000
0010
0000
0000
0002
0000
0000
0000
1000
0000
2003
0000
0000
0000
,
3010
0000
0000
0100
0000
0000
0001
0000
0010
0000
0000
0100
0000
0000
1000
0000
,
0010
0000
0000
1000
0000
0000
0200
0000
0000
0000
0010
0000
0320
0000
0000
0000
,
0031
0000
0000
1000
0000
0000
0010
0000
1000
0000
0000
0001
0000
0000
0010
0000
,
0100
0000
0000
1000
0000
0000
0020
0000
0000
0000
0100
0000
0230
0000
0000
0000
,
0301
0000
0000
1000
0000
0000
0100
0000
0001
0000
0000
0100
0000
0000
1000
0000
,
0001
0000
0000
0100
0000
0000
0020
0000
0000
0000
1000
0000
1030
0000
0000
0000
0100
0000
0000
0010
0000
0000
0001
0000
0010
0000
0000
0100
0000
0000
1000
0000
,
0001
0000
0000
0100
0000
0000
0020
0000
0000
0000
0001
0000
0031
0000
0000
0000
0010
0000
0000
0100
0000
0000
0001
0000
0010
0000
0000
0100
0000
0000
1000
0000
,
0010
0000
0000
0100
0000
0000
0020
0000
0000
0000
1000
0000
1030
0000
0000
0000
0100
0000
0000
0010
0000
0000
0001
0000
0010
0000
0000
0100
0000
0000
1000
0000
,
0010
0000
0000
0100
0000
0000
0002
0000
0000
0000
1000
0000
1003
0000
0000
0000
0100
0000
0000
0000
0010
0000
0000
0100
0000
0100
0000
0000
0010
0000
0000
0000
,
0001
0000
0000
0100
0000
0000
0020
0000
0000
0000
1000
0000
1030
0000
0000
0000
,
0100
0000
0000
0001
0000
0000
0100
0000
1000
0000
0000
0001
0000
0000
0100
0000
,
0010
0000
0000
0100
0000
0000
0002
0000
0000
0000
0010
0000
0013
0000
0000
0000
,
0100
0000
0000
0001
0000
0000
0100
0000
1000
0000
0000
0001
0000
0000
0100
0000
,
0010
0000
0000
0010
1000
0000
0100
0000
0010
0000
0001
0000
1000
0000
0000
0000
,
1000
0000
0000
1000
0001
0000
0100
0000
0010
0000
1000
0000
0001
0000
0000
0000
,
0001
0010
0001
0010
0100
1000
0100
0001
,
0200
0000
0000
0300
,
0110
0000
1001
0000
0001
0100
0001
0100
,
0010
1000
0100
0001
0100
0010
0001
1000
,
0010
0000
0110
0000
0100
0001
0100
0001
,
1000
0100
0010
0001
1000
0010
0100
0010
,
1000
0000
1001
0000
0001
0010
0001
0010
,
0100
1000
0010
0001
0010
0100
0001
1000
,
0100
0000
0110
0000
0010
0001
1000
0001
,
0200
0000
0000
0300
,
0110
0000
1010
0000
1000
0200
0001
0000
,
0301
0001
0100
0100
0010
0010
0001
0001
,
0100
0000
0110
0000
0010
0100
0001
0000
,
0001
1000
0100
0010
0001
0100
0010
0100
,
0001
0000
0101
0000
0001
0020
1000
0000
,
1030
1000
0010
0010
0100
0100
1000
1000
,
0010
0000
0110
0000
0100
0001
1000
0001
,
0020
0000
0000
0030
,
1001
0000
0000
1000
0010
0000
0100
0000
0010
0000
1000
0000
0200
0000
0000
0000
,
0310
0000
0000
0010
0001
0000
0100
0000
0010
0000
0000
0010
1000
0000
0001
0000
,
0010
0000
0000
0010
0100
0000
0010
0000
0001
0000
1000
0000
0020
0000
0000
0000
,
1030
0000
0000
1000
0100
0000
0010
0000
0001
0000
0000
0001
0100
0000
0010
0000
,
1000
0000
0000
1000
0100
0000
0010
0000
0100
0000
1000
0000
0020
0000
0000
0000
,
0130
0000
0000
0100
0001
0000
0010
0000
0100
0000
0000
0100
1000
0000
0001
0000
,
0100
0000
0000
0100
0010
0000
0100
0000
0001
0000
0010
0000
0200
0000
0000
0000
,
1300
0000
0000
1000
0001
0000
0100
0000
0010
0000
1000
0000
1001
0000
0000
0000
,
0001
0000
0000
0001
0010
0000
1000
0000
0010
0000
0100
0000
0020
0000
0000
0000
,
0031
0000
0000
0001
0100
0000
0010
0000
0001
0000
0000
0001
0010
0000
0100
0000
,
0010
0000
0000
0010
1000
0000
0100
0000
0010
0000
1000
0000
0020
0000
0000
0000
,
0031
0000
0000
0001
0100
0000
0010
0000
1000
0000
0000
1000
0100
0000
0010
0000
,
0100
0000
0000
0100
1000
0000
0010
0000
0100
0000
0010
0000
0002
0000
0000
0000
,
0013
0000
0000
0010
0100
0000
0001
0000
1000
0000
0000
1000
0100
0000
0010
0000
,
0001
0000
0000
0001
0100
0000
0010
0000
1000
0000
0001
0000
0020
0000
0000
0000
,
0230
0000
0000
0300
,
2000
0000
0000
3100
0010
0000
0002
0000
0000
0000
0100
0000
0000
0000
0103
0000
,
0020
0000
0000
0130
0001
0000
2000
0000
0000
0000
3100
0000
0000
0010
0000
0000
,
0002
0000
0000
0013
0100
0000
2000
0000
0000
0000
0010
0000
0000
0000
3010
0000
,
0200
0000
0000
0310
1000
0000
0002
0000
0000
0000
0013
0000
0000
0100
0000
0000
,
2000
0000
0000
3100
0001
0000
0200
0000
0000
0000
0010
0000
0000
0000
0310
0000
,
0100
0000
0000
0100
1000
0000
0020
0000
0000
0000
0130
0000
0000
0001
0000
0000
,
2000
0000
0000
3100
0010
0000
0002
0000
0000
0000
0010
0000
0000
0000
0013
0000
,
0100
0000
0000
0100
1000
0000
0020
0000
0000
0000
0031
0000
0000
0010
0000
0000
,
0200
0000
0000
0302
0000
0000
2003
0000
0000
0000
0000
0000
0000
0000
0000
0000
,
3200
0000
0000
0320
0000
0000
0230
0000
2300
0000
0000
3002
0000
0000
0203
0000
,
0320
0000
0000
0230
0000
0000
0302
0000
0000
0000
0000
0000
0000
0000
0000
0000
,
2003
0000
0000
3200
0000
0000
0320
0000
0032
0000
0000
0023
0000
0000
0230
0000
,
2300
0000
0000
3020
0000
0000
0230
0000
0000
0000
0000
0000
0000
0000
0000
0000
,
0320
0000
0000
2030
0000
0000
3200
0000
0320
0000
0000
0032
0000
0000
0203
0000
,
0320
0000
0000
2030
0000
0000
3002
0000
0000
0000
0000
0000
0000
0000
0000
0000
,
0023
0000
0000
0230
0000
0000
2300
0000
3200
0000
0000
0320
0000
0000
0032
0000
,
0000
0000
0000
0000
,
0003
0000
0000
0000
;

//---------------dance-single - Talkion-ESP----------------
#NOTES:
     dance-single:
     Talkion:
     Hard:
     15:
     0.800503,0.996476,0.132159,0.581498,0.947137,636,621,15,66,0,0,0.800503,0.996476,0.132159,0.581498,0.947137,636,621,15,66,0,0:
0000
0000
0000
0000
,
0000
0000
0000
0000
,
0000
0000
0000
0000
,
0000
0000
0000
0000
,
0000
0000
0000
0000
,
0100
0000
0000
0001
0000
0000
2000
0000
0000
0000
0100
0000
3200
0000
0000
0000
,
0310
0000
0000
0001
0000
0000
1000
0000
0010
0000
0000
1000
0000
0000
0001
0000
,
0010
0000
0000
0100
0000
0000
2000
0000
0000
0000
0001
0000
3002
0000
0000
0000
,
0103
0000
0000
0010
0000
0000
1000
0000
0100
0000
0000
1000
0000
0000
0010
0000
,
0100
0000
0000
0100
0001
0000
2000
0000
0000
0000
0100
0000
3100
0000
0010
0000
,
0001
0000
0000
0001
0100
0000
1000
0000
0100
0000
0000
0100
0010
0000
1000
0000
,
0100
0000
0000
0100
0010
0000
0002
0000
0000
0000
0100
0000
0103
0000
0010
0000
,
0100
0000
0000
0100
0001
0000
1000
0000
0100
0000
0000
0100
0010
0100
0010
0000
,
0001
0000
0000
0001
0100
0000
0020
0000
0000
0000
1000
0000
1030
0000
0001
0000
,
0010
0000
0000
0010
0100
0000
0010
0000
0001
0000
0000
0001
1000
0001
1000
0000
,
0010
0000
0000
0010
1000
0000
0200
0000
0000
0000
0010
0000
0310
0000
0001
0000
,
1000
0000
0000
1000
0010
0000
0001
0000
0010
0000
0000
0010
0100
0000
0001
0000
,
1000
0000
0000
0100
0000
0000
0020
0000
0000
0000
0031
0000
0100
0000
1000
0000
0001
0000
0000
0010
0000
0000
0100
0000
0001
0000
0000
1000
0000
0000
0100
0000
,
0010
0000
0000
0100
0000
0000
2000
0000
0000
0000
3010
0000
0100
0000
0001
1000
0001
0000
0000
0010
0000
0000
0100
0000
0001
0000
0000
0100
0000
0000
1000
0000
,
0010
0000
0000
0100
0000
0000
0002
0000
0000
0000
1003
0000
0100
0000
0001
0000
1000
0000
0000
0010
0000
0000
0100
0000
1000
0000
0000
0001
0000
0000
0100
0000
,
0010
0000
0000
0100
0000
0000
0002
0000
0000
0000
1003
0000
0100
0000
0010
0001
0010
0000
0000
0010
0100
0000
1000
0001
0000
0100
0000
0010
0000
1000
0100
0000
,
0010
0000
0000
0010
0100
0000
2000
0000
0000
0000
0010
0000
3010
0000
0100
0000
,
0001
0000
0000
0001
0010
0000
0100
0000
0001
0000
0000
0001
0100
0000
1000
0000
,
0010
0000
0000
0010
0100
0000
0002
0000
0000
0000
0010
0000
0013
0000
0100
0000
,
1000
0000
0000
1000
0100
0000
0010
0000
0001
0000
0000
0001
1000
0001
1000
0000
,
0010
0000
0100
0010
0100
0000
0001
0000
1000
0000
0100
0000
0010
0000
0100
0000
,
1000
0000
0010
0100
0010
0000
0100
0000
0001
0000
1000
0100
0010
0000
0001
0000
,
0010
0000
0100
1000
0100
1000
0001
0000
0100
0001
0100
0001
1000
0000
0100
0000
,
0020
0000
0000
0030
,
1001
0000
0000
0000
0101
0000
0100
0010
0100
0010
1000
0000
0100
0000
0010
0001
,
1000
0010
1001
0001
0010
0100
1001
1000
,
0010
0000
0000
0000
0110
0000
0100
0001
0100
0001
1000
0000
0100
0000
0010
0100
,
1000
0000
0001
0000
0100
0000
0010
1000
0010
1000
0001
0000
0010
0000
0100
0000
,
1001
0000
0000
0000
1010
0000
0010
0100
0010
0100
0001
0000
0010
0000
0100
1000
,
0001
0100
1001
1000
0100
0010
1001
0001
,
0100
0000
0000
0000
0110
0000
0010
1000
0010
1000
0100
0000
0001
0000
0100
0010
,
0002
0000
0000
0003
,
1001
0000
0000
0000
1010
0000
1000
0001
1000
0001
0100
0000
0010
0000
1000
0000
,
0200
0010
0001
0010
2300
0001
0010
0001
,
3100
0000
0000
0100
0010
0000
0001
0100
0001
0100
0001
0000
1000
0000
0100
1000
,
0001
0000
0000
0001
0100
0000
0010
1000
0010
1000
0010
0000
0100
0000
0001
0000
,
1001
0000
0000
0000
0011
0000
0001
1000
0001
1000
0100
0000
0010
0000
0001
0000
,
0200
0010
1000
0010
0302
1000
0010
1000
,
0103
0000
0000
0100
0010
0000
1000
0100
1000
0100
0010
0000
1000
0000
0010
0001
,
0200
0000
0000
0300
,
0110
0000
0000
0010
1000
0000
0001
0010
0001
0010
0001
0000
0100
0000
0010
1000
,
0010
0000
0000
0010
0100
0000
0001
1000
0001
1000
0100
0010
0100
0000
0010
0100
,
1000
0000
0000
1000
0001
0000
0100
0001
0100
0001
0100
0000
0010
0000
1000
0001
,
1000
0000
0000
1000
0100
0000
0010
0001
0010
0001
1000
0010
1000
0000
0010
0100
,
0001
0000
0000
0001
1000
0000
0100
0010
0100
0010
0100
0000
1000
0000
0001
0100
,
0001
0000
0000
0001
0010
0000
0100
0010
0100
0010
0001
1000
0001
0000
0100
0010
,
1000
0000
0000
1000
0100
0000
0010
0001
0010
0001
0010
0000
0100
0000
1000
0001
,
1000
0000
0000
1000
0010
0000
0100
0001
0100
0001
1000
0100
1000
0000
0100
0010
,
0001
0000
0000
0001
0100
0000
0010
1000
0010
1000
0100
0000
0010
0000
0100
1000
,
0010
0000
0000
0010
0100
0000
0001
0010
0001
0010
0100
1000
0001
0000
0100
0010
,
0100
0000
0000
0100
0001
0000
1000
0100
1000
0100
0010
0000
0001
0000
0100
0001
,
0010
0000
0000
0010
0100
0000
0010
0001
0010
0001
0100
0010
1000
0000
0010
0100
,
0001
0000
0000
0001
0010
0000
0100
1000
0100
1000
0010
0000
0100
0000
0010
1000
,
0100
0000
0000
0100
0010
0000
0001
1000
0001
1000
0010
0100
0001
0000
0100
0010
,
1000
0000
0000
1000
0100
0000
0010
0001
0010
0001
0100
0000
1000
0000
0100
0010
,
2000
0000
0000
3000
,
0002
0000
0000
0013
0100
0000
0010
0001
0000
1000
0001
0000
0100
0010
0000
1000
,
0200
0000
0000
0301
0100
0000
0010
0001
0000
0100
0010
0000
0100
0001
0000
1000
,
0200
0000
0000
0310
0001
0000
0100
0001
0000
1000
0100
0000
0010
0100
0000
1000
,
0002
0000
0000
0103
0010
0000
1000
0010
0000
0100
0001
0000
0010
0000
0100
0000
,
2000
0000
0000
3100
0010
0000
0001
0100
0000
0010
1000
0000
0010
0100
0000
0001
,
0020
0000
0000
1030
0010
0000
0100
1000
0000
0001
0100
0000
0010
0100
0000
0001
,
0020
0000
0000
0130
1000
0000
0001
0100
0000
1000
0100
0000
0001
0100
0000
0010
,
2000
0000
0000
3001
0010
0000
0100
1000
0000
0100
0010
0000
0001
0000
0100
0000
,
0020
0000
0000
2030
0000
0000
3200
0000
0000
0000
0000
0000
0000
0000
0000
0000
,
0302
0000
0000
2003
0000
0000
3020
0000
0230
0000
0000
2300
0000
0000
3002
0000
,
0203
0000
0000
0320
0000
0000
2030
0000
0000
0000
0000
0000
0000
0000
0000
0000
,
3020
0000
0000
0032
0000
0000
2003
0000
3200
0000
0000
0302
0000
0000
0023
0000
,
0230
0000
0000
0302
0000
0000
2003
0000
0000
0000
0000
0000
0000
0000
0000
0000
,
3020
0000
0000
0230
0000
0000
2300
0000
3002
0000
0000
0203
0000
0000
0320
0000
,
0230
0000
0000
0302
0000
0000
0023
0000
0000
0000
0000
0000
0000
0000
0000
0000
,
0230
0000
0000
2300
0000
0000
3020
0000
0230
0000
0000
0302
0000
0000
0023
0000
,
0000
0000
0000
0000
,
0030
0000
0000
0000
;

//---------------dance-double - Talkion-BDP----------------
#NOTES:
     dance-double:
     Talkion:
     Easy:
     9:
     0.366268,0.481057,0.167401,0.440529,0.035242,291,272,19,50,0,0,0.366268,0.481057,0.167401,0.440529,0.035242,291,272,19,50,0,0:
// measure 0
00000000
00000000
00000000
00000000
,  // measure 1
00000000
00000000
00000000
00000000
,  // measure 2
00000000
00000000
00000000
00000000
,  // measure 3
00000000
00000000
00000000
00000000
,  // measure 4
00000000
00000000
00000000
00000000
,  // measure 5
00020000
00000000
00000000
00032000
00000000
00000000
00000000
00000000
,  // measure 6
00003200
00000000
00000000
00000302
00000000
00000000
00001003
00000000
,  // measure 7
00000002
00000000
00000000
00000023
00000000
00000000
00000000
00000000
,  // measure 8
00002030
00000000
00000000
00023000
00000000
00000000
01030000
00000000
,  // measure 9
10000000
00000000
00010000
02000000
00000000
00000000
00000000
00000000
,  // measure 10
03100000
00000000
00010000
00001000
00000000
00001000
00010000
00000000
,  // measure 11
00000100
00000000
00001000
00000002
00000000
00000000
00000000
00000000
,  // measure 12
00000103
00000000
00001000
00010000
00000000
00010000
00001000
00000000
,  // measure 13
00010000
00000000
01000000
00200000
00000000
00000000
00000000
00000000
,  // measure 14
00310000
00000000
01000000
00100000
00000000
00100000
01000000
00000000
,  // measure 15
00001000
00000000
00010000
00002000
00000000
00000000
00000000
00000000
,  // measure 16
00003100
00000000
00000001
00001000
00000000
00001000
00000001
00000000
,  // measure 17
00000010
00000000
00000000
00000010
00000000
00000000
00000000
00000000
00001000
00000000
00000000
00001000
00000000
00000000
00000000
00000000
,  // measure 18
00010000
00000000
00000000
00010000
00000000
00000000
00000000
00000000
00100000
00000000
00000000
00100000
00000000
00000000
00000000
00000000
,  // measure 19
10000000
00000000
00000000
10000000
00000000
00000000
00000000
00000000
00010000
00000000
00000000
00010000
00000000
00000000
00000000
00000000
,  // measure 20
00100000
00000000
00000000
00100000
00000000
00000000
00000000
00000000
00001000
00000000
00000000
00001000
00000000
00000000
00000000
00000000
,  // measure 21
00010000
00000000
00000100
00002000
00000000
00000000
00000000
00000000
,  // measure 22
00003001
00000000
00000100
00000010
00000000
00000010
00000100
00000000
,  // measure 23
00001000
00000000
00010000
00002000
00000000
00000000
00000000
00000000
,  // measure 24
00013000
00000000
01000000
00100000
00000000
00100000
01000000
00000000
,  // measure 25
10000000
00000000
10100000
00000000
00100000
00010000
00100000
00000000
,  // measure 26
00010000
00000000
00011000
00000000
00001000
00000100
00001000
00000000
,  // measure 27
00000100
00000000
00000101
00000000
00000001
00001000
00000001
00002000
,  // measure 28
00000002
00000000
00000000
00003003
,  // measure 29
00001000
00000000
00001200
00000000
00000000
00010300
00001000
00000000
,  // measure 30
00100000
00010000
00100000
00000000
00010000
00000000
10010000
00000000
,  // measure 31
10000000
00000000
10200000
00000000
00000000
01300000
00010000
00000000
,  // measure 32
00100000
00001000
00100000
00001000
00010000
00000000
00011000
00000000
,  // measure 33
00000100
00000000
00001200
00000000
00000000
00000310
00000001
00000000
,  // measure 34
00001000
00000001
00001000
00000000
00000010
00000000
00000110
00000000
,  // measure 35
00000100
00000000
00002100
00000000
00000000
00013000
00001000
00000000
,  // measure 36
00022000
00000000
00000000
00033000
,  // measure 37
00100000
00000000
00120000
00000000
00000000
10000000
10030000
00000000
,  // measure 38
00100000
01000000
00100000
01000000
00100000
01000000
00010000
00000000
,  // measure 39
00100000
00000000
00102000
00000000
00000000
00010000
00013000
00000000
,  // measure 40
00000100
00000000
00001000
00000001
00001000
00000001
00000100
00000000
,  // measure 41
00000010
00000000
00002010
00000000
00000000
00000100
00003100
00000000
,  // measure 42
00010000
00001000
00010000
00001000
00010000
00001000
00100000
00000000
,  // measure 43
00010000
00000000
10020000
00000000
00000000
01000000
01030000
00000000
,  // measure 44
02200000
00000000
00000000
03300000
,  // measure 45
10000000
00000000
01000000
00000000
00100000
00010000
00100000
00000000
,  // measure 46
00001000
00000000
00010000
00000000
00000010
00001000
00000010
00000000
,  // measure 47
00000100
00000000
00000001
00000000
00001000
00000001
00001000
00000000
,  // measure 48
00000100
00000000
00010000
00000000
00001000
00010000
00001000
00000000
,  // measure 49
00100000
00000000
00010000
00000000
01000000
00100000
01000000
00000000
,  // measure 50
00100000
00000000
10000000
00000000
01000000
00100000
01000000
00000000
,  // measure 51
00010000
00000000
00001000
00000000
00010000
00001000
00010000
00000000
,  // measure 52
00000100
00001000
00001001
00000110
,  // measure 53
00000001
00000000
00000010
00000000
00001000
00000010
00001000
00000000
,  // measure 54
00010000
00000000
00001000
00000000
00100000
00010000
00100000
00000000
,  // measure 55
00010000
00000000
01000000
00000000
10000000
01000000
10000000
00000000
,  // measure 56
01000000
00000000
00010000
00000000
00100000
00010000
00100000
00000000
,  // measure 57
01000000
00000000
00010000
00000000
00001000
00010000
00001000
00000000
,  // measure 58
00000100
00000000
00000010
00000000
00001000
00000001
00001000
00000000
,  // measure 59
00000001
00000000
00000010
00000000
00000100
00001000
00000100
00000000
,  // measure 60
00022000
00000000
00000000
00033000
,  // measure 61
00200000
00000000
00000000
00010000
00000000
00310000
00000000
00000000
,  // measure 62
20000000
00000000
00000000
00100000
00000000
30100000
00000000
00000000
,  // measure 63
02000000
00000000
00000000
00001000
00000000
03001000
00000000
00000000
,  // measure 64
00020000
00000000
00000000
00000100
00000000
00030100
00000000
00000000
,  // measure 65
00002000
00000000
00000000
00000001
00000000
00003001
00000000
00000000
,  // measure 66
00000200
00000000
00000000
00000010
00000000
00000310
00000000
00000000
,  // measure 67
00020000
00000000
00000000
00001000
00000000
00031000
00000000
00000000
,  // measure 68
00200000
00000000
00000000
00010000
00000000
00310000
00000000
00000000
,  // measure 69
02000000
00000000
00000000
00000000
,  // measure 70
03200000
00000000
00320000
00000000
,  // measure 71
00032000
00000000
00000000
00000000
,  // measure 72
00003020
00000000
00000230
00000000
,  // measure 73
00020300
00000000
00000000
00000000
,  // measure 74
00032000
00000000
00003200
00000000
,  // measure 75
00000302
00000000
00000000
00000000
,  // measure 76
00002003
00000000
00003200
00000000
,  // measure 77
00000000
00000000
00000000
00000000
,  // measure 78
00000300
00000000
00000000
00000000
;

//---------------dance-double - Talkion-DDP----------------
#NOTES:
     dance-double:
     Talkion:
     Medium:
     12:
     0.568911,0.790308,0.114537,0.625551,0.400881,452,439,13,71,0,0,0.568911,0.790308,0.114537,0.625551,0.400881,452,439,13,71,0,0:
// measure 0
00000000
00000000
00000000
00000000
,  // measure 1
00000000
00000000
00000000
00000000
,  // measure 2
00000000
00000000
00000000
00000000
,  // measure 3
00000000
00000000
00000000
00000000
,  // measure 4
00000000
00000000
00000000
00000000
,  // measure 5
00001000
00000000
00012000
00000000
00000000
00000100
00003100
00000000
,  // measure 6
00000001
00000000
00000010
00000100
00000000
00000100
00010000
00000000
,  // measure 7
00001000
00000000
00021000
00000000
00000000
01000000
01030000
00000000
,  // measure 8
10000000
00000000
00100000
01000000
00000000
01000000
00001000
00000000
,  // measure 9
00010000
00000000
00000000
01000000
00000000
00000000
20000000
00000000
00000000
00000000
00010000
00000000
30020000
00000000
00000000
00000000
,  // measure 10
01030000
00000000
00000000
00100000
00000000
00000000
00010000
00000000
00001000
00000000
00000000
00000100
00000000
00000000
00000010
00000000
,  // measure 11
00001000
00000000
00000000
00000100
00000000
00000000
00000002
00000000
00000000
00000000
00000100
00000000
00000203
00000000
00000000
00000000
,  // measure 12
00001300
00000000
00000000
00010000
00000000
00000000
00100000
00000000
01000000
00000000
00000000
10000000
00000000
00000000
00100000
00000000
,  // measure 13
00010000
00000000
00000000
00100000
00000000
00000000
20000000
00000000
00000000
00000000
00010000
00000000
30020000
00000000
00000000
00000000
,  // measure 14
00130000
00000000
00000000
01000000
00000000
00000000
00010000
00000000
00001000
00000000
00000000
00000010
00000000
00000000
00000100
00000000
,  // measure 15
00001000
00000000
00000000
00000010
00000000
00000000
00000002
00000000
00000000
00000000
00000010
00000000
00000023
00000000
00000000
00000000
,  // measure 16
00001030
00000000
00000000
00010000
00000000
00000000
00100000
00000000
01000000
00000000
00000000
10000000
00000000
00000000
00010000
00000000
,  // measure 17
01000000
00000000
00000000
00100000
00000000
00000000
00020000
00000000
00000000
00000000
00001000
00000000
00031000
00000000
00000000
00000000
00000010
00000000
00000000
00000100
00000000
00000000
00010000
00000000
00001000
00000000
00000000
00010000
00000000
00000000
00100000
00000000
,  // measure 18
00010000
00000000
00000000
00001000
00000000
00000000
00000020
00000000
00000000
00000000
00001000
00000000
00001030
00000000
00000000
00000000
00010000
00000000
00000000
01000000
00000000
00000000
00100000
00000000
00010000
00000000
00000000
00001000
00000000
00000000
00010000
00000000
,  // measure 19
00100000
00000000
00000000
01000000
00000000
00000000
00020000
00000000
00000000
00000000
00001000
00000000
00031000
00000000
00000000
00000000
00000100
00000000
00000000
00000010
00000000
00000000
00010000
00000000
00001000
00000000
00000000
00010000
00000000
00000000
01000000
00000000
,  // measure 20
00010000
00000000
00000000
00001000
00000000
00000000
00000200
00000000
00000000
00000000
00001000
00000000
00001300
00000000
00000000
00000000
00010000
00000000
00000000
00000000
01000000
00000000
00000000
00100000
00000000
00100000
00000000
00000000
01000000
00000000
00000000
00000000
,  // measure 21
10000000
00000000
00000000
00100000
00000000
00000000
00020000
00000000
00000000
00000000
00001000
00000000
00031000
00000000
00000000
00000000
,  // measure 22
00000010
00000000
00000000
00000001
00000000
00000000
00000100
00000000
00000010
00000000
00000000
00000100
00000000
00000000
00000001
00000000
,  // measure 23
00000010
00000000
00000000
00001000
00000000
00000000
00020000
00000000
00000000
00000000
01000000
00000000
01030000
00000000
00000000
00000000
,  // measure 24
10000000
00000000
00000000
00100000
00000000
00000000
00010000
00000000
00001000
00000000
00000000
00010000
00000000
00000000
00100000
00000000
,  // measure 25
10000000
00000000
00000000
10000000
01000000
00000000
00100000
00000000
00001000
00000000
00010000
00000000
00001000
00000000
00000000
00000000
,  // measure 26
00010000
00000000
00000000
00010000
00000100
00000000
00001000
00000000
00000001
00000000
00000100
00000000
00000010
00000000
00000000
00000000
,  // measure 27
00000100
00001000
00010000
01000000
10000000
00010000
01000000
00200000
,  // measure 28
02000000
00000000
00000000
03300000
,  // measure 29
01100000
00000000
10010000
00000000
10000000
01000000
00010000
00000000
,  // measure 30
00010000
00001000
00010000
00001000
00000010
00000100
00001000
00000001
,  // measure 31
00000100
00000000
00001001
00000000
00000001
00000010
00001000
00000000
,  // measure 32
00001000
00010000
00001000
00010000
01000000
00100000
00010000
10000000
,  // measure 33
00100000
00000000
10010000
00000000
10000000
00100000
01000000
00000000
,  // measure 34
01000000
00001000
00010000
01000000
00010000
00001000
00000100
00000010
,  // measure 35
00001000
00000000
00001001
00000000
00000001
00000010
00000100
00020000
,  // measure 36
00002000
00000000
00000000
00033000
,  // measure 37
00011000
00000000
00101000
00000000
00100000
02000000
00010000
00000000
,  // measure 38
13000000
10000000
00010000
00010000
01000000
00100000
00010000
00001000
,  // measure 39
00010000
00000000
00011000
00000000
00001000
00000100
00000001
00000000
,  // measure 40
00000001
00000100
00001000
00010000
00100000
10000000
00010000
00100000
,  // measure 41
00001000
00000000
00010100
00000000
00000100
00000020
00001000
00000000
,  // measure 42
00000031
00000001
00001000
00001000
00000010
00000100
00001000
00010000
,  // measure 43
00001000
00000000
00011000
00000000
00010000
01000000
10000000
02000000
,  // measure 44
00200000
00000000
00000000
03300000
,  // measure 45
10010000
00000000
00000000
10000000
01000000
00000000
00100000
00000000
00001000
00000000
00010000
00000000
00001000
00000000
00000000
00000000
,  // measure 46
00001000
00000000
00000000
00001000
00000100
00000000
00000001
00000000
00001000
00000000
00000000
00001000
00000100
00000000
00000010
00000000
,  // measure 47
00000001
00000000
00000000
00000001
00000010
00000000
00000100
00000000
00010000
00000000
00001000
00000000
00010000
00000000
00000000
00000000
,  // measure 48
00010000
00000000
00000000
00010000
00100000
00000000
10000000
00000000
00010000
00000000
00000000
00010000
00100000
00000000
01000000
00000000
,  // measure 49
10000000
00000000
00000000
10000000
01000000
00000000
00010000
00000000
00001000
00000000
00010000
00000000
00001000
00000000
00000000
00000000
,  // measure 50
00001000
00000000
00000000
00001000
00000100
00000000
00000001
00000000
00001000
00000000
00000000
00001000
00000100
00000000
00000010
00000000
,  // measure 51
00000001
00000000
00000000
00000001
00000010
00000000
00001000
00000000
00010000
00000000
00001000
00000000
00010000
00000000
00000000
00000000
,  // measure 52
00010000
00000000
00000000
00010000
00100000
00000000
10000000
00000000
00010000
00000000
00000000
00010000
00100000
00000000
01000000
00000000
,  // measure 53
10000000
00000000
00000000
10000000
00010000
00000000
01000000
00000000
00001000
00000000
00010000
00000000
00000100
00000000
00000000
00000000
,  // measure 54
00000100
00000000
00000000
00000100
00000010
00000000
00001000
00000000
00010000
00000000
00000000
00010000
00000010
00000000
00001000
00000000
,  // measure 55
00000001
00000000
00000000
00000001
00001000
00000000
00000100
00000000
00010000
00000000
00001000
00000000
01000000
00000000
00000000
00000000
,  // measure 56
01000000
00000000
00000000
01000000
00100000
00000000
00010000
00000000
00001000
00000000
00000000
00001000
00100000
00000000
00010000
00000000
,  // measure 57
10000000
00000000
00000000
10000000
00010000
00000000
01000000
00000000
00100000
00000000
00010000
00000000
00001000
00000000
00000000
00000000
,  // measure 58
00001000
00000000
00000000
00001000
00000010
00000000
00000100
00000000
00001000
00000000
00010000
00000000
00100000
00000000
01000000
00000000
,  // measure 59
10000000
00000000
00000000
10000000
00010000
00000000
01000000
00000000
00100000
00000000
00010000
00000000
00002000
00000000
00000000
00000000
,  // measure 60
00020000
00000000
00000000
00033000
,  // measure 61
00000100
00000000
00000000
00000100
00000010
00000000
00000002
00000000
00000000
00000000
00001000
00000000
00000000
00000000
00001003
00000000
,  // measure 62
00000020
00000000
00000000
00000130
00001000
00000000
00020000
00000000
00000000
00000000
01030000
00000000
00000000
00100000
00000000
00000000
,  // measure 63
00010000
00000000
00000000
00010000
10000000
00000000
00200000
00000000
00000000
00000000
01000000
00000000
00000000
00000000
01300000
00000000
,  // measure 64
00001000
00000000
00000000
00001000
00010000
00000000
00000200
00000000
00000000
00000000
00000310
00000000
00000000
00000001
00000000
00000000
,  // measure 65
00000100
00000000
00000000
00000100
00001000
00000000
00020000
00000000
00000000
00000000
00100000
00000000
00000000
00000000
00130000
00000000
,  // measure 66
10000000
00000000
00000000
10000000
00010000
00000000
00200000
00000000
00000000
00000000
01300000
00000000
00000000
00010000
00000000
00000000
,  // measure 67
00001000
00000000
00000000
00001000
00000010
00000000
00000002
00000000
00000000
00000000
00001000
00000000
00000000
00000000
00001003
00000000
,  // measure 68
00000010
00000000
00000000
00000010
00000100
00000000
00002000
00000000
00000000
00000000
00013000
00000000
00000000
00100000
00000000
00000000
,  // measure 69
20000000
00000000
00000000
32000000
00000000
00000000
03020000
00000000
00000000
00000000
00000000
00000000
00000000
00000000
00000000
00000000
,  // measure 70
00032000
00000000
00000000
00003020
00000000
00000000
00000032
00000000
00002003
00000000
00000000
00003020
00000000
00000000
00002030
00000000
,  // measure 71
00003002
00000000
00000000
00000023
00000000
00000000
00002030
00000000
00000000
00000000
00000000
00000000
00000000
00000000
00000000
00000000
,  // measure 72
00023000
00000000
00000000
02030000
00000000
00000000
23000000
00000000
30020000
00000000
00000000
02030000
00000000
00000000
03020000
00000000
,  // measure 73
20030000
00000000
00000000
32000000
00000000
00000000
03020000
00000000
00000000
00000000
00000000
00000000
00000000
00000000
00000000
00000000
,  // measure 74
00032000
00000000
00000000
00023000
00000000
00000000
00230000
00000000
00320000
00000000
00000000
00032000
00000000
00000000
00003200
00000000
,  // measure 75
00000302
00000000
00000000
00000023
00000000
00000000
00002030
00000000
00000000
00000000
00000000
00000000
00000000
00000000
00000000
00000000
,  // measure 76
00023000
00000000
00000000
00032000
00000000
00000000
00003200
00000000
00002300
00000000
00000000
00023000
00000000
00000000
02030000
00000000
,  // measure 77
00000000
00000000
00000000
00000000
,  // measure 78
03000000
00000000
00000000
00000000
;

//---------------dance-double - Talkion-EDP----------------
#NOTES:
     dance-double:
     Talkion:
     Hard:
     16:
     0.794210,0.996476,0.149780,0.625551,0.920705,631,614,17,71,0,0,0.794210,0.996476,0.149780,0.625551,0.920705,631,614,17,71,0,0:
// measure 0
00000000
00000000
00000000
00000000
,  // measure 1
00000000
00000000
00000000
00000000
,  // measure 2
00000000
00000000
00000000
00000000
,  // measure 3
00000000
00000000
00000000
00000000
,  // measure 4
00000000
00000000
00000000
00000000
,  // measure 5
00010000
00000000
00000000
00001000
00000000
00000000
00000200
00000000
00000000
00000000
00000010
00000000
00000310
00000000
00000000
00000000
,  // measure 6
00001000
00000000
00000000
00000001
00000000
00000000
00000010
00000000
00001000
00000000
00000000
00010000
00000000
00000000
00000100
00000000
,  // measure 7
00010000
00000000
00000000
01000000
00000000
00000000
00200000
00000000
00000000
00000000
00010000
00000000
00310000
00000000
00000000
00000000
,  // measure 8
10000000
00000000
00000000
00100000
00000000
00000000
00010000
00000000
00001000
00000000
00000000
00010000
00000000
00000000
01000000
00000000
,  // measure 9
10000000
00000000
00000000
10000000
00100000
00000000
00020000
00000000
00000000
00000000
00001000
00000000
00031000
00000000
00000100
00000000
,  // measure 10
00000001
00000000
00000000
00000001
00001000
00000000
00000100
00000000
00000010
00000000
00000000
00000010
00001000
00000000
00010000
00000000
,  // measure 11
00001000
00000000
00000000
00001000
00000010
00000000
00000002
00000000
00000000
00000000
00001000
00000000
00001003
00000000
00000010
00000000
,  // measure 12
00000100
00000000
00000000
00000100
00001000
00000000
00010000
00000000
00100000
00000000
00000000
00100000
10000000
00000000
00010000
00000000
,  // measure 13
10000000
00000000
00000000
10000000
01000000
00000000
00020000
00000000
00000000
00000000
00001000
00000000
00031000
00000000
00000010
00000000
,  // measure 14
00000001
00000000
00000000
00000001
00001000
00000000
00000010
00000000
00000100
00000000
00000000
00000100
00001000
00000000
00010000
00000000
,  // measure 15
00001000
00000000
00000000
00001000
00000100
00000000
00000002
00000000
00000000
00000000
00001000
00000000
00001003
00000000
00000100
00000000
,  // measure 16
00000010
00000000
00000000
00000010
00001000
00000000
00010000
00000000
00100000
00000000
00000000
00100000
10000000
00000000
00010000
00000000
,  // measure 17
00100000
00000000
00000000
00010000
00000000
00000000
00002000
00000000
00000000
00000000
00003100
00000000
00000010
00000000
00001000
00000000
00020000
00000000
00000000
00000100
00000000
00000000
00000010
00000000
00032000
00000000
00000000
01000000
00000000
00000000
00100000
00000000
,  // measure 18
00013000
00000000
00000000
00100000
00000000
00000000
02000000
00000000
00000000
00000000
03001000
00000000
00010000
00000000
00001000
00010000
00002000
00000000
00000000
00000010
00000000
00000000
00013000
00000000
00020000
00000000
00000000
00100000
00000000
00000000
00031000
00000000
,  // measure 19
00001000
00000000
00000000
00000100
00000000
00000000
00000002
00000000
00000000
00000000
00000013
00000000
00001000
00000000
00010000
00000000
00002000
00000000
00000000
00000100
00000000
00000000
00003001
00000000
00000020
00000000
00000000
00001000
00000000
00000000
00010030
00000000
,  // measure 20
00001000
00000000
00000000
00100000
00000000
00000000
02000000
00000000
00000000
00000000
13000000
00000000
00010000
00000000
10000000
00010000
10000000
00000000
00000000
00010000
00100000
00000000
00001000
00010000
00000000
00010000
00000000
00100000
00000000
00100000
01000000
00000000
,  // measure 21
00100000
00000000
00000000
00100000
10000000
00000000
02000000
00000000
00000000
00000000
00010000
00000000
03010000
00000000
00001000
00000000
,  // measure 22
00010000
00000000
00000000
00010000
00100000
00000000
00010000
00000000
00001000
00000000
00000000
00001000
00000100
00000000
00000001
00000000
,  // measure 23
00000010
00000000
00000000
00000010
00000100
00000000
00002000
00000000
00000000
00000000
00000001
00000000
00003001
00000000
00000010
00000000
,  // measure 24
00001000
00000000
00000000
00001000
00010000
00000000
00001000
00000000
00000100
00000000
00000000
00000100
00001000
00000000
00010000
00000000
,  // measure 25
01000000
00000000
00100000
01000000
00100000
00000000
00010000
00000000
10000000
00000000
00100000
00000000
00010000
00000000
00001000
00000000
,  // measure 26
00010000
00000000
00000100
00001000
00000100
00000000
00010000
00000000
00000010
00000000
00000100
00000001
00000100
00000000
00000010
00000000
,  // measure 27
00001000
00000000
00000001
00000010
00000001
00000010
00000100
00000000
00010000
00001000
00010000
00001000
00100000
00000000
00010000
00000000
,  // measure 28
02000000
00000000
00000000
03000000
,  // measure 29
10010000
00000000
00000000
00000000
11000000
00000000
10000000
00010000
10000000
00010000
00100000
00000000
01000000
00000000
00100000
00010000
,  // measure 30
01000000
00100000
01010000
00010000
00001000
00000100
00001010
00001000
,  // measure 31
00000001
00000000
00000000
00000000
00000101
00000000
00000100
00000001
00000100
00000001
00001000
00000000
00000100
00000000
00000010
00001000
,  // measure 32
00000010
00000000
00001000
00000000
00010000
00000000
00001000
00100000
00001000
00100000
00010000
00000000
01000000
00000000
00100000
00000000
,  // measure 33
01100000
00000000
00000000
00000000
10100000
00000000
10000000
00010000
10000000
00010000
00100000
00000000
01000000
00000000
00100000
00010000
,  // measure 34
01000000
00100000
01010000
00010000
00001000
00000100
00001010
00001000
,  // measure 35
00000001
00000000
00000000
00000000
00001001
00000000
00001000
00000100
00001000
00000100
00010000
00000000
00001000
00000000
00100000
00010000
,  // measure 36
02000000
00000000
00000000
03000000
,  // measure 37
01100000
00000000
00000000
00000000
10100000
00000000
00100000
01000000
00100000
01000000
00010000
00000000
00100000
00000000
01000000
00000000
,  // measure 38
00020000
00001000
00000100
00030010
00002000
00010000
01000000
00100000
,  // measure 39
00013000
00000000
00000000
00010000
00001000
00000000
00000100
00000010
00000100
00000010
00001000
00000000
00000001
00000000
00000010
00000100
,  // measure 40
00001000
00000000
00000000
00001000
00000010
00000000
00010000
00001000
00010000
00001000
01000000
00000000
00010000
00000000
10000000
00000000
,  // measure 41
10010000
00000000
00000000
00000000
11000000
00000000
01000000
00100000
01000000
00100000
00010000
00000000
01000000
00000000
00100000
00000000
,  // measure 42
00020000
00001000
00000010
00000100
00032000
00010000
00100000
01000000
,  // measure 43
00013000
00000000
00000000
00010000
00001000
00000000
00000010
00000100
00000010
00000100
00001000
00000000
00000010
00000000
00000100
00000001
,  // measure 44
00002000
00000000
00000000
00003000
,  // measure 45
00001100
00000000
00000000
00000100
00000010
00000000
00000001
00001000
00000001
00001000
00000001
00000000
00000100
00000000
00001000
00010000
,  // measure 46
00001000
00000000
00000000
00001000
00100000
00000000
00010000
00100000
00010000
00100000
00010000
10000000
00100000
00000000
01000000
00100000
,  // measure 47
10000000
00000000
00000000
10000000
01000000
00000000
00010000
00001000
00010000
00001000
00010000
00000000
00001000
00000000
00100000
00010000
,  // measure 48
00100000
00000000
00000000
00100000
00001000
00000000
00010000
00000100
00010000
00000100
00001000
00000001
00000100
00000000
00000001
00000100
,  // measure 49
00000010
00000000
00000000
00000010
00000100
00000000
00000001
00001000
00000001
00001000
00000001
00000000
00000010
00000000
00001000
00010000
,  // measure 50
00001000
00000000
00000000
00001000
01000000
00000000
00010000
01000000
00010000
01000000
00010000
10000000
01000000
00000000
00100000
01000000
,  // measure 51
10000000
00000000
00000000
10000000
00100000
00000000
00010000
00001000
00010000
00001000
00010000
00000000
00001000
00000000
00000100
00000010
,  // measure 52
00000100
00000000
00000000
00000100
00000001
00000000
00000100
00001000
00010000
00000000
00001000
00000000
00011000
00000000
00000000
00000000
,  // measure 53
01010000
00000000
00000000
01000000
00100000
00000000
00010000
10000000
00010000
10000000
00010000
00000000
01000000
00000000
00100000
00010000
,  // measure 54
00100000
00000000
00000000
00100000
00010000
00000000
00001000
00010000
00001000
00010000
00000100
00001000
00000010
00000000
00000100
00000001
,  // measure 55
00000100
00000000
00000000
00000100
00000010
00000000
00001000
00000001
00001000
00000001
00001000
00000000
00000100
00000000
00000010
00001000
,  // measure 56
00000010
00000000
00000000
00000010
00001000
00000000
00010000
00001000
00010000
00001000
01000000
00010000
00100000
00000000
00010000
10000000
,  // measure 57
00010000
00000000
00000000
00010000
01000000
00000000
10000000
01000000
10000000
01000000
00100000
00000000
10000000
00000000
00010000
00100000
,  // measure 58
00010000
00000000
00000000
00010000
00001000
00000000
00000100
00001000
00000100
00001000
00000001
00000100
00000001
00000000
00001000
00000010
,  // measure 59
00001000
00000000
00000000
00001000
00000100
00000000
00000001
00000100
00000001
00000100
00000010
00000000
00000100
00000000
00010000
00002000
,  // measure 60
00020000
00000000
00000000
00033000
,  // measure 61
02000000
00000000
00000000
13000000
00010000
00000000
01000000
00100000
00000000
00010000
00100000
00000000
00010000
00001000
00000000
00010000
,  // measure 62
00200000
00000000
00000000
01300000
00010000
00000000
00100000
00001000
00000000
00010000
00000100
00000000
00001000
00000001
00000000
00000100
,  // measure 63
00000020
00000000
00000000
00001030
00000001
00000000
00000010
00001000
00000000
00010000
00001000
00000000
00000100
00000010
00000000
00001000
,  // measure 64
00000200
00000000
00000000
00000310
00000001
00000000
00000010
00000100
00000000
00010000
00001000
00000000
00100000
00000000
00010000
00000000
,  // measure 65
02000000
00000000
00000000
03100000
00010000
00000000
00100000
10000000
00000000
00010000
00100000
00000000
00001000
00010000
00000000
01000000
,  // measure 66
00200000
00000000
00000000
00301000
00010000
00000000
00001000
00000100
00000000
00000010
00001000
00000000
00000001
00001000
00000000
00000100
,  // measure 67
00000020
00000000
00000000
00000130
00001000
00000000
00000001
00000100
00000000
00001000
00010000
00000000
01000000
00100000
00000000
00010000
,  // measure 68
20000000
00000000
00000000
30100000
00010000
00000000
00001000
00000010
00000000
00000001
00001000
00000000
00000010
00000000
00000100
00000000
,  // measure 69
00000002
00000000
00000000
00000023
00000000
00000000
00002030
00000000
00000000
00000000
00000000
00000000
00000000
00000000
00000000
00000000
,  // measure 70
00203000
00000000
00000000
02300000
00000000
00000000
03020000
00000000
00032000
00000000
00000000
00023000
00000000
00000000
02030000
00000000
,  // measure 71
23000000
00000000
00000000
30200000
00000000
00000000
00320000
00000000
00000000
00000000
00000000
00000000
00000000
00000000
00000000
00000000
,  // measure 72
00030020
00000000
00000000
00000230
00000000
00000000
00002300
00000000
00023000
00000000
00000000
00032000
00000000
00000000
00003200
00000000
,  // measure 73
00000302
00000000
00000000
00000023
00000000
00000000
00002030
00000000
00000000
00000000
00000000
00000000
00000000
00000000
00000000
00000000
,  // measure 74
00203000
00000000
00000000
00320000
00000000
00000000
02030000
00000000
03200000
00000000
00000000
00320000
00000000
00000000
00230000
00000000
,  // measure 75
20300000
00000000
00000000
32000000
00000000
00000000
03020000
00000000
00000000
00000000
00000000
00000000
00000000
00000000
00000000
00000000
,  // measure 76
00030200
00000000
00000000
00002300
00000000
00000000
00003020
00000000
00000230
00000000
00000000
00002300
00000000
00000000
00020000
00000000
,  // measure 77
00000000
00000000
00000000
00000000
,  // measure 78
00033000
00000000
00000000
00000000
;
