#VERSION:0.83;
#TITLE:NEPHILIM DELTA(XX-Special);
#ARTIST:L.E.D.-G;
#BANNER:NEPHILIM DELTA(XX-Special).png;
#BACKGROUND:NEPHILIM DELTA(XX-Special)-bg.png;
#JACKET:NEPHILIM DELTA(XX-Special)-jacket.png;
#MUSIC:NEPHILIM DELTA(XX-Special).ogg;
#SAMPLESTART:30.56;
#SAMPLELENGTH:15;
#DISPLAYBPM:220;
#BPMS:0=220,40=55,68=220;
#WARPS:40.021=12,53=15;
#SPEEDS:0=0.5=0=0,4=1=4=0,8=0.6=3=0,11=1=1=0,12=0.6=3=0,15=1=1=0,16=0.6=3=0,19=1=1=0,20=0.8=2=0,22=1=2=0,24=0.6=3=0,27=1=1=0,28=0.8=3=0,31=1=1=0,66=0.5=1=0,68=1=4=0,100=0.85=2=0,102=1=2=0,108=0.85=2=0,110=1=2=0,116=0.85=2=0,118=1=2=0,124=0.85=2=0,126=1=2=0,132=0.85=2=0,134=1=2=0,296=0.2=6=0,302=0.6=2=0,304=0.4=3=0,307=0.75=5=0,312=1=16=0,392=0.25=12=0;
#SCROLLS:0=1,52=0,53=0.25,66=1,228=2,228.25=0,228.5=2,228.875=0,229.25=2,229.625=0,230=2,230.375=0,230.75=2,231.125=0,231.5=2,231.75=0,232=1,260=2,260.25=0,260.5=2,260.875=0,261.25=2,261.625=0,262=2,262.375=0,262.75=2,263.125=0,263.5=2,263.75=0,264=1;

//---------------dance-single - NewbStepper-CSP----------------
#NOTEDATA:;
#CHARTNAME:NewbStepper-CSP;
#STEPSTYPE:dance-single;
#DESCRIPTION:NewbStepper-CSP;
#DIFFICULTY:Challenge;
#METER:18;
#CREDIT:NewbStepper;
#NOTES:
0000
0000
0000
0000
,
0000
0000
0000
0000
,
2002
0000
0000
3003
,
2020
0000
0000
3030
,
0202
0000
0000
0303
,
0220
0000
0000
0000
0330
0000
0000
0000
0001
0100
0001
0100
0010
1000
0010
1000
,
0002
0000
0000
0003
,
0022
0000
0000
0000
0000
0000
0000
0000
0033
0000
0000
0000
0001
0100
0001
0100
,
0010
1000
0100
0010
0110
0100
0001
0100
,
1100
0000
1000
0000
0010
0000
0100
0000
0001
1000
0001
1000
0001
1000
0100
0010
,
0001
0000
0000
0000
,
0000
0000
0000
0000
,
0000
0000
0000
0000
,
0000
0000
0000
0000
MMMM
MMMM
MMMM
MMMM
,
MMMM
MMMM
MMMM
MMMM
MMMM
MMMM
MMMM
MMMM
,
MMMM
MMMM
MMMM
MMMM
MMMM
0000
0000
0000
,
0000
0000
0000
0000
,
0000
0000
0000
0000
,
1001
0001
0100
0020
0000
0031
0010
1000
,
1100
0100
0010
0200
0000
0301
0100
1000
,
1010
0010
0100
2000
0000
3100
0001
0010
,
0011
0001
0100
0120
0000
0031
0010
1000
,
1001
1000
0100
0020
0000
1030
0010
0001
,
0101
0100
0010
0200
0000
1300
0100
0001
,
0011
0010
0100
0002
0000
0103
1000
0010
,
1010
0000
0000
1001
0000
0000
0101
0000
0011
0000
0000
1001
0000
0000
1000
0100
,
0010
0000
0001
0000
0010
0000
0100
0001
0100
0000
1000
0000
0001
0000
0100
0000
,
0101
0000
0000
1001
0000
0000
1010
0000
1100
0000
0000
1001
0000
0000
0001
0100
,
0010
0000
0001
0000
0010
0000
0100
1000
0100
0000
0001
0000
1000
0000
0100
0000
,
1100
0000
0000
1001
0000
0000
0011
0000
0101
0000
0000
1001
0000
0000
1000
0010
,
0100
0000
1000
0000
0100
0000
0010
0001
0010
0000
1000
0000
0001
0000
0010
0000
,
0011
0000
0000
1001
0000
0000
1100
0000
1010
0000
0000
1001
0000
0000
0001
0010
,
0100
0000
0001
0000
0100
0000
0010
1000
0010
0000
0001
0000
1000
0000
0010
0000
,
0200
0000
0001
0000
0001
0000
0320
0000
1000
0000
1000
0000
0130
0010
0100
0010
,
1000
0000
0001
0010
0001
0000
1000
0000
0001
0010
0001
0000
0100
0020
1000
0030
,
0000
0020
0100
0030
0000
0020
0001
0030
0000
0020
1000
0030
0000
0100
0010
0000
,
0001
0000
1000
0010
1000
0000
0001
0000
1000
0010
1000
0000
0100
0020
0001
0030
,
0000
0020
0100
0030
0000
0020
1000
0030
0000
0020
0001
0030
0000
0100
0010
0000
,
1000
0000
0001
0100
0001
0000
1000
0000
0001
0100
0001
0000
0010
0200
1000
0300
,
0000
0200
0010
0300
0000
0200
0001
0300
0000
0200
1000
0300
0000
0010
0100
0000
,
0001
0000
1000
0100
1000
0000
0001
0000
1000
0100
1000
0000
0001
0000
0101
0000
,
0100
0000
1100
0000
0100
0000
0110
0000
0010
0000
1000
0000
0001
0100
0001
0100
,
0010
1000
0010
1000
0001
0000
0010
0001
0010
0001
1000
0000
0001
0020
0100
0030
,
0000
0200
1000
0300
0000
2000
0010
3000
0000
0020
0100
0030
0000
0100
0001
0000
,
0010
0001
0010
0001
1000
0000
0010
1000
0010
1000
0001
0000
1000
0020
0100
0030
,
0000
0200
0001
0300
0000
0002
0010
0003
0000
0020
0100
0030
0000
0100
1000
0000
,
0100
1000
0100
1000
0001
0000
0100
0001
0100
0001
1000
0000
0001
0200
0010
0300
,
0000
0020
1000
0030
0000
2000
0100
3000
0000
0200
0010
0300
0000
0010
0001
1000
,
0001
0001
0100
0100
0010
0010
1000
1000
,
0001
0100
0001
0100
0010
1000
0010
1000
0100
0010
0100
0010
0001
0100
0001
0100
,
0010
1000
0100
0020
0000
1000
0000
0031
,
0010
0001
0100
0020
0000
0001
0000
1030
,
0010
1000
0001
0200
0000
1000
0000
0301
,
0100
1000
0001
0010
1000
0100
0001
1000
,
0010
0001
0100
0020
0000
0001
0000
1030
,
0010
1000
0100
0020
0000
1000
0000
0031
,
0010
0001
0100
0020
0000
0001
0000
1030
,
1010
0000
0110
0000
0000
0101
0000
0000
1001
0000
0000
1001
0000
0000
1001
0000
,
0101
0000
0001
0100
0010
0000
0002
0000
0000
0000
0013
0000
1000
0000
0100
0000
,
1100
0000
1000
0100
0010
0000
2000
0000
0000
0000
3010
0000
0001
0000
0100
0000
,
0101
0000
0001
1000
0001
0000
0011
0000
0000
0000
0100
0000
0010
0000
0100
0000
,
1000
1000
1000
1000
0001
0001
0001
0001
,
1000
0000
0200
0000
0001
0000
0000
0000
0310
0001
0000
0010
0001
0000
1000
0000
,
0001
0000
0200
0000
1000
0000
0000
0000
0310
1000
0000
0010
1000
0000
0100
0000
,
0010
0000
0001
0000
0200
0000
0000
0000
1300
0100
0000
1000
0100
0000
0001
0000
,
0011
0000
0110
0000
0000
1100
0000
0000
1001
0000
0000
1001
0000
0000
1001
0000
,
0101
0000
0100
0000
0010
0000
1010
0000
0000
0000
1000
0100
0001
0000
0100
0000
,
1100
0000
0100
0000
0010
0000
0011
0000
0000
0000
0001
0100
1000
0000
0100
0000
,
0101
0001
1000
1100
0000
0001
1000
0001
,
0010
0010
0010
0010
0100
0100
0100
0100
,
1010
0000
0001
0000
0100
0000
0000
0000
0010
0100
0000
0100
0010
0000
1000
0000
,
0011
0000
1000
0000
0100
0000
0000
0000
0010
0100
0000
0100
0010
0000
0001
0000
,
1001
0000
1000
0100
0010
0000
0001
0100
0010
0000
1000
0100
0010
0000
0001
0100
,
0001
0100
0001
0100
0010
0100
0010
1000
0010
1000
0010
0100
0001
0010
0100
1000
,
0002
0000
0000
0000
,
0000
0000
0000
0000
,
0000
0000
0000
0000
,
0000
0000
0003
0000
,
0011
0001
0200
0000
1300
0200
0000
0301
,
0101
0001
0020
0000
1030
0020
0000
0031
,
1000
0100
1000
0000
0010
0000
0100
0000
0001
0100
0001
0000
0100
0000
0010
0000
,
1000
0001
0100
0001
1000
0000
0000
0000
0001
0100
0010
1000
0100
0010
0001
0100
,
0010
0000
1000
0100
0001
0000
0100
0000
0001
0100
1000
0000
0100
0010
0002
0100
,
0003
0000
0200
1000
0300
0000
2000
0010
3000
0000
0020
0001
0030
0000
0001
1000
,
0001
0000
0010
0001
0100
0000
0001
0000
0100
0001
0010
0000
0100
0000
1100
0000
,
1000
0000
1010
0000
0010
0000
0110
0000
0100
0000
0101
0000
0001
0000
1000
0001
,
0010
0000
0001
0100
1000
0000
0100
0000
1000
0100
0001
0000
0100
0010
2000
0100
,
3000
0000
0200
0001
0300
0000
0002
0010
0003
0000
0020
1000
0030
0000
1000
0001
,
1000
0000
0100
0000
0010
0000
0001
0000
0100
0001
0100
0001
1000
0100
1000
0100
,
0020
0000
0000
0000
0000
0000
0000
0000
0030
0000
0000
0000
0001
0100
0010
1000
,
0001
0010
0001
0010
0100
0000
1000
0010
1000
0010
0100
0000
0010
0000
2000
0000
,
3100
0000
0002
0000
1003
0000
0020
0000
0031
0000
0200
0000
0301
0000
1000
0001
,
1000
0010
1000
0010
0100
0000
0001
0010
0001
0010
0100
0000
0010
0000
0002
0000
,
0103
0000
2000
0000
3001
0000
0020
0000
1030
0000
0200
0000
1300
0000
0001
1000
,
0001
0100
0001
0100
0010
0000
1000
0100
1000
0100
0010
0000
0001
0000
0200
0000
,
1300
0000
0200
0000
0301
0000
0020
0000
1030
0000
0020
0000
0031
0000
0100
0010
,
1000
1000
0100
0100
0010
0010
0001
0001
,
1000
0100
0010
0100
1000
0010
0100
0001
0010
0100
0010
0001
0100
0010
1000
0100
,
0020
0000
0000
0000
,
0000
0000
0000
0000
,
0000
0000
0000
0000
,
0030
0000
0000
0000
;

//---------------dance-double - NewbStepper-CDP----------------
#NOTEDATA:;
#CHARTNAME:NewbStepper-CDP;
#STEPSTYPE:dance-double;
#DESCRIPTION:NewbStepper-CDP;
#DIFFICULTY:Challenge;
#METER:18;
#CREDIT:NewbStepper;
#NOTES:
00000000
00000000
00000000
00000000
,
00000000
00000000
00000000
00000000
,
20020000
00000000
00000000
30030000
,
00220000
00000000
00000000
00330000
,
00202000
00000000
00000000
00303000
,
00022000
00000000
00000000
00000000
00033000
00000000
00000000
00000000
00010000
00000100
00010000
00000100
00001000
00000001
00001000
00000001
,
00002000
00000000
00000000
00003000
,
00002020
00000000
00000000
00000000
00000000
00000000
00000000
00000000
00003030
00000000
00000000
00000000
00000010
00010000
00000010
00010000
,
00001000
00000100
00000010
00001000
00000001
00000100
00000010
00001000
,
00010000
00000000
01000000
00000000
00100000
00000000
10000000
00000000
00010000
10000000
00010000
10000000
00010000
10000000
01000000
00100000
,
00010000
00000000
00000000
00000000
,
00000000
00000000
00000000
00000000
,
00000000
00000000
00000000
00000000
,
00000000
00000000
1MM11MM1
01100110
,
1MM11MM1
1MM11MM1
01100110
1MM11MM1
,
1MM11MM1
01100110
1MM11MM1
00000000
,
00000000
00000000
00000000
00000000
,
00000000
00000000
00000000
00000000
,
00011000
00001000
00000100
00002000
00000000
00013000
00000100
00000010
,
00001000
00010000
01000000
00200000
00000000
00310000
00100000
10000000
,
00010000
01000000
00100000
00020000
00000000
10030000
01000000
00010000
,
00011000
00001000
00000100
00000002
00000000
00001003
00000100
00010000
,
00011000
00010000
00001000
00020000
00000000
00031000
01000000
00100000
,
00010000
00001000
00000100
00000020
00000000
00001030
00000010
00000001
,
00001000
00000100
00000010
00002000
00000000
00003001
00000100
00001000
,
00011000
00000000
00000000
00011000
00000000
00000000
00001000
00010000
00100000
00000000
00000000
01100000
00000000
00000000
01000000
00010000
,
10000000
00000000
01000000
00000000
00010000
00000000
00001000
00100000
00001000
00000000
01000000
00000000
00100000
00000000
00010000
00000000
,
00011000
00000000
00000000
00011000
00000000
00000000
00010000
00001000
00000010
00000000
00000000
00000110
00000000
00000000
00000100
00001000
,
00000001
00000000
00000100
00000000
00001000
00000000
00010000
00000010
00010000
00000000
00000100
00000000
00000010
00000000
00001000
00000000
,
00011000
00000000
00000000
00011000
00000000
00000000
00001000
00010000
01000000
00000000
00000000
01100000
00000000
00000000
00100000
00010000
,
10000000
00000000
00100000
00000000
00010000
00000000
00001000
01000000
00001000
00000000
00100000
00000000
01000000
00000000
00010000
00000000
,
00011000
00000000
00000000
00011000
00000000
00000000
00010000
00001000
00000100
00000000
00000000
00000110
00000000
00000000
00000010
00001000
,
00000001
00000000
00000010
00000000
00001000
00000000
00010000
00000100
00010000
00000000
00000010
00000000
00000100
00000000
00001000
00000000
,
00020000
00000000
00000100
00000000
00000100
00000000
00032000
00000000
01000000
00000000
01000000
00000000
00013000
00001000
00010000
00001000
,
00100000
00000000
00010000
10000000
00010000
00000000
00100000
00000000
00010000
10000000
00010000
00000000
00100000
00002000
01000000
00003000
,
00000000
00002000
00100000
00003000
00000000
00002000
00010000
00003000
00000000
00002000
00000010
00003000
00000000
00000001
00000100
00000000
,
00000010
00000000
00001000
00000001
00001000
00000000
00000010
00000000
00001000
00000001
00001000
00000000
00000010
00020000
00000100
00030000
,
00000000
00020000
00000010
00030000
00000000
00020000
00001000
00030000
00000000
00020000
00100000
00030000
00000000
10000000
00100000
00000000
,
01000000
00000000
00010000
10000000
00010000
00000000
01000000
00000000
00010000
10000000
00010000
00000000
01000000
00002000
00100000
00003000
,
00000000
00002000
01000000
00003000
00000000
00002000
00010000
00003000
00000000
00002000
00000100
00003000
00000000
00000001
00000010
00000000
,
00000100
00000000
00001000
00000001
00001000
00000000
00000100
00000000
00001000
00000001
00001000
00000000
00000100
00000000
00010000
00000000
,
01000000
00000000
00001000
00000000
00000010
00000000
00010000
00000000
00100000
00000000
10000000
00000000
00010000
01000000
00100000
10000000
,
00010000
00000000
10000000
01000000
00100000
00000000
00010000
00000000
00100000
00001000
00010000
00000000
00001000
00000020
00000100
00000030
,
00000000
00000200
00001000
00000300
00000000
00002000
00000001
00003000
00000000
00000002
00000100
00000003
00000000
00000100
00000010
00000000
,
00001000
00000000
00000001
00000100
00000010
00000000
00001000
00000000
00000010
00010000
00001000
00000000
00010000
00200000
01000000
00300000
,
00000000
02000000
00010000
03000000
00000000
00020000
10000000
00030000
00000000
20000000
01000000
30000000
00000000
01000000
00100000
00000000
,
00010000
00000000
10000000
00100000
01000000
00000000
00010000
00000000
01000000
00001000
00010000
00000000
00001000
00000200
00000010
00000300
,
00000000
00000020
00001000
00000030
00000000
00002000
00000001
00003000
00000000
00000002
00000010
00000003
00000000
00000010
00000100
00000000
,
00001000
00000001
00000100
00000010
00001000
00010000
01000000
00100000
,
10000000
01000000
10000000
01000000
00100000
00010000
00100000
00010000
00001000
00000100
00001000
00000100
00000010
00000001
00000010
00000001
,
00001000
00000001
00000100
00002000
00000000
01000000
00000000
00013000
,
01000000
10000000
00100000
00020000
00000000
00000010
00000000
00031000
,
00000100
00000001
00000010
00002000
00000000
00100000
00000000
00013000
,
01000000
00010000
00001000
00000100
00000010
00010000
00001000
01000000
,
00010000
10000000
01000000
00020000
00000000
00000100
00000000
00031000
,
00000100
00000001
00000010
00002000
00000000
00100000
00000000
00013000
,
01000000
10000000
00100000
00020000
00000000
00000010
00000000
00031000
,
00011000
00000000
00010100
00000000
00000000
00000110
00000000
00000000
00001001
00000000
00000000
00001001
00000000
00000000
00001001
00000000
,
00000101
00000000
00000100
00000010
00001000
00000000
00000200
00000000
00000000
00000000
00010300
00000000
01000000
00000000
10000000
00000000
,
11000000
00000000
01000000
00100000
00010000
00000000
02000000
00000000
00000000
00000000
03001000
00000000
00000100
00000000
00000001
00000000
,
00000011
00000000
00000010
00000100
00001000
00000000
00000020
00000000
00000000
00000000
00010030
00000000
00001000
00000000
00010000
00000000
,
00100000
10000000
01000000
00010000
00001000
00000010
00000001
00001000
,
00000001
00000000
00000100
00000000
00002000
00000000
00000000
00000000
00013000
00001000
00000000
00001000
00010000
00000000
00100000
00000000
,
10000000
00000000
01000000
00000000
00020000
00000000
00000000
00000000
00031000
00010000
00000000
00010000
00001000
00000000
00000010
00000000
,
00000001
00000000
00000100
00000000
00002000
00000000
00000000
00000000
00013000
00001000
00000000
00001000
00010000
00000000
00001000
00000000
,
00011000
00000000
01001000
00000000
00000000
01100000
00000000
00000000
10010000
00000000
00000000
10010000
00000000
00000000
10010000
00000000
,
11000000
00000000
01000000
00000000
00010000
00000000
00011000
00000000
00000000
00000000
00001000
00000010
00000001
00000000
00000100
00000000
,
00000101
00000000
00000100
00000000
00001000
00000000
00011000
00000000
00000000
00000000
00010000
00100000
10000000
00000000
01000000
00000000
,
11000000
01000000
00010000
00011000
00000000
00001000
00000100
00000001
,
00000010
00000001
00000100
00001000
00010000
00100000
10000000
00010000
,
10000000
00000000
00100000
00000000
00020000
00000000
00000000
00000000
00031000
00010000
00000000
00010000
00001000
00000000
00000100
00000000
,
00000001
00000000
00000010
00000000
00002000
00000000
00000000
00000000
00013000
00001000
00000000
00001000
00010000
00000000
01000000
00000000
,
10000000
00000000
01000000
00100000
00010000
00000000
00100000
00010000
00001000
00000000
00010000
00001000
00000100
00000000
00001000
00000100
,
00000010
00000001
00000010
00000001
00001000
00000001
00001000
00000001
00001000
00000100
00001000
00000100
00010000
00001000
00100000
00010000
,
20000000
00000000
00000000
00000000
,
00000000
00000000
00000000
00000000
,
00000000
00000000
00000000
00000000
,
00000000
00000000
30000000
00000000
,
10100000
10000000
02000000
00000000
03010000
00002000
00000000
00003010
,
00000011
00000001
00000200
00000000
00001300
00020000
00000000
00130000
,
10100000
10000000
01000000
00010000
00011000
00001000
00000010
00000001
,
00000101
00000000
00000100
00000000
00001000
00000000
00000000
00000000
00010000
00001000
00100000
00010000
01000000
00100000
10000000
01000000
,
00100000
00000000
00001000
00010000
00100000
00000000
00010000
00000000
00100000
00010000
00001000
00000000
00010000
00000100
00002000
00000001
,
00000000
00003000
00000002
00000100
00000000
00000003
00000200
00001000
00000000
00000300
00002000
00010000
00000000
00003000
00010000
00001000
,
00010000
00000000
01000000
00010000
00001000
00000000
00010000
00000000
00001000
00010000
01000000
00000000
10000000
00000000
00100000
00000000
,
00010000
00000000
00001000
00000000
00000010
00000000
00000001
00000000
00000100
00000000
00000010
00000000
00001000
00000000
00000001
00000100
,
00000010
00000000
00010000
00001000
00000010
00000000
00001000
00000000
00000010
00001000
00010000
00000000
00001000
01000000
00020000
10000000
,
00000000
00030000
20000000
01000000
00000000
30000000
02000000
00010000
00000000
03000000
00020000
00001000
00000000
00030000
00001000
00010000
,
00001000
00000000
00000100
00000000
00000010
00000000
00001000
00000000
00000001
00000100
00000001
00000100
00000010
00001000
00000010
00001000
,
00000200
00000000
00000000
00000000
00000000
00000000
00000000
00000000
00000300
00000000
00000000
00000000
00010000
00001000
00010000
00001000
,
00100000
00010000
00100000
00010000
10000000
00000000
00100000
10000000
00100000
10000000
00010000
00000000
00100000
00000000
02000000
00000000
,
03010000
00000000
00002000
00000000
00103000
00000000
00020000
00000000
00031000
00000000
00000200
00000000
00010300
00000000
00001000
00000100
,
00000010
00001000
00000010
00001000
00000001
00000000
00000010
00000001
00000010
00000001
00001000
00000000
00000010
00000000
00000200
00000000
,
00001300
00000000
00020000
00000000
00030010
00000000
00002000
00000000
00013000
00000000
02000000
00000000
03001000
00000000
00010000
00100000
,
01000000
00010000
01000000
00010000
10000000
00000000
01000000
10000000
01000000
10000000
00010000
00000000
01000000
00000000
00200000
00000000
,
00310000
00000000
00002000
00000000
01003000
00000000
00020000
00000000
00031000
00000000
00000020
00000000
00010030
00000000
00001000
00000100
,
00000001
00000100
00000010
00001000
00010000
01000000
00100000
10000000
,
01000000
10000000
00100000
01000000
00010000
00100000
00001000
00010000
00000100
00001000
00000010
00000100
00000001
00000010
00000001
00000100
,
00000020
00000000
00000000
00000000
,
00000000
00000000
00000000
00000000
,
00000000
00000000
00000000
00000000
,
00000030
00000000
00000000
00000000
;
