#TITLE:Multiplex;
#ARTIST:Dolphin feat. bhyper;
#BANNER:Multiplex.png;
#BACKGROUND:Multiplex-bg.png;
#MUSIC:Multiplex.ogg;
#SAMPLESTART:83.335;
#SAMPLELENGTH:15;
#BPMS:0=100,50=105,52=110,54=115,56=120,58=125,60=130,62=135,64=140,144=160,193=162,197=164,201=166,205=168,209=170,213=172,217=174,221=176,225=178,257=180;
#STOPS:144=5.625;
#BGCHANGES:-0.250=Multiplex.avi=1=0=0=0=StretchNoLoop====,99999=-nosongbg-=1=0=0=0 // don't automatically add -songbackground-;

//---------------dance-single - NewbStepper-bSP----------------
#NOTES:
     dance-single:
     NewbStepper:
     Beginner:
     2:
     0.105353,0.186489,0,0.058998,0,100,100,0,8,0,0,0.105353,0.186489,0,0.058998,0,100,100,0,8,0,0:
0000
0000
0000
0000
,
0000
0000
0000
0000
,
0000
0000
0000
0000
,
0000
0000
0000
0000
,
0000
0001
0000
0000
,
0000
1000
0000
0000
,
0000
0001
0000
0000
,
0000
1000
0000
0000
,
0002
0000
0000
0003
,
0100
0000
0100
0000
,
0010
0010
0000
0000
,
1000
0000
0001
0000
,
1000
0000
1000
0000
,
0001
0000
0001
0000
,
0100
0000
0100
0000
,
0010
0000
0010
0000
,
2000
0000
0000
3000
,
0002
0000
0000
0003
,
2000
0000
0000
3000
,
0002
0000
0000
0003
,
1000
0000
0000
1000
,
1000
0000
0010
0000
,
0001
0000
0000
0001
,
0001
0000
0010
0000
,
1000
0000
0000
1000
,
1000
0000
0100
0000
,
0001
0000
0000
0001
,
0001
0000
0100
0000
,
1000
0000
0000
0000
,
0001
0000
0000
0000
,
0100
0100
0100
0100
,
0100
0000
0010
0000
,
1000
0000
0000
0000
,
0001
0000
0000
0000
,
0020
0000
0000
0000
,
0000
0000
0000
0030
,
0000
0000
0000
0000
,
0000
0001
0000
0000
,
0000
1000
0000
0000
,
0000
0010
0000
0000
,
0000
0000
1000
0000
,
0000
0000
0001
0000
,
0000
0000
0010
0000
,
0000
0000
0010
0000
,
0000
0000
0001
0000
,
0000
0000
1000
0000
,
0000
0000
0010
0000
,
0000
0000
0010
0000
,
0000
1000
0000
1000
,
0000
1000
0000
1000
,
0000
0001
0000
0001
,
0000
0001
0000
0001
,
0000
0100
0000
0100
,
0000
0100
0000
0100
,
0000
0020
0000
0000
,
0000
0030
0000
0000
,
0000
1000
0000
0000
,
0000
0010
0000
1000
,
0000
0001
0000
0000
,
0000
0010
0000
0001
,
0000
1000
0000
0000
,
0000
0100
0000
1000
,
0000
0001
0000
0000
,
0000
0100
0000
0001
,
0000
1000
0000
1000
,
0000
0001
0000
0001
,
0000
0100
0100
0100
,
0100
0100
0000
0010
,
0000
1000
0000
0000
,
0000
0001
0000
0000
,
0000
0020
0000
0000
,
0000
0000
0000
0030
,
0000
0010
0000
0000
;

//---------------dance-single - Marten-ESP----------------
#NOTES:
     dance-single:
     Marten-ESP:
     Hard:
     12:
     0.455127,0.559466,0.294990,0.442484,0.165932,432,392,40,60,0,0,0.455127,0.559466,0.294990,0.442484,0.165932,432,392,40,60,0,0:
0000
0000
0000
0000
,
0000
0000
0000
0000
,
0000
0000
0000
0000
,
0000
0000
0000
0000
,
0001
0000
0000
1000
0010
0000
0100
0000
0001
1000
0000
1000
0100
0000
0010
0000
,
0001
0000
0000
0001
0010
0000
0001
0000
0100
0001
0000
0001
1000
0000
0100
0000
,
1000
0000
0000
1000
0010
0000
0100
0000
0001
0010
0000
0010
0100
0000
0010
0000
,
0001
0000
0000
0001
1000
0000
0010
0000
1000
0100
0000
0100
1000
0000
0010
0000
,
0210
0000
0000
0301
0100
0000
0001
0000
1000
0100
0000
0010
0100
0000
2000
0000
,
3002
0000
0103
0000
0020
0000
0130
0001
,
2001
0000
0000
0000
3002
0000
0000
0000
0013
0001
0000
1000
0100
0000
1000
0000
,
0020
0000
0100
0000
0001
0000
1030
0010
,
1000
1100
0001
0101
,
1000
1010
0001
0011
,
1000
0110
0001
0110
,
0010
0000
1001
0000
0100
0000
0010
0100
,
1001
0000
0000
0000
0101
0000
0000
0000
0001
0010
0000
0001
0000
1000
0100
0000
,
1000
0000
0000
0000
1010
0000
0000
0000
0100
0010
0000
1000
0000
0010
0100
0000
,
0001
0000
0000
0000
1001
0000
0000
0000
1000
0100
0000
0010
0000
0100
0010
0000
,
0001
0000
0000
0000
0011
0000
0000
0000
0100
1000
0000
0001
0000
1000
0010
0000
,
0120
0000
0000
0100
0000
0000
1000
0000
0000
0000
1000
0000
1030
0000
0000
0000
,
2001
0100
3020
0100
,
2030
0000
0000
3200
0000
0000
0320
0000
0000
0000
0031
0000
0002
0000
0000
0000
,
0023
0000
0100
0000
0032
0000
1003
0010
,
2010
0000
0000
0010
0000
0000
0010
0000
0000
0000
0000
0000
3001
0000
0000
0000
,
0021
0001
0230
1000
,
2300
0000
0000
3020
0000
0000
0230
0000
0000
0000
0000
0000
0301
0000
0000
0000
,
0202
0303
2200
3300
,
2000
0010
0001
0100
,
3002
0010
1000
0100
,
2003
3020
0230
0302
,
2003
0100
3002
0103
,
0021
1000
0001
0100
,
0230
0010
0001
1300
,
1001
0000
0000
0001
0100
0000
0001
0000
1000
0100
0000
0010
0000
0001
0100
0000
,
0001
0000
0000
1000
0010
0000
0010
0000
0100
0001
0000
1000
0000
0100
0010
0000
,
0220
0330
0000
0000
0000
0000
0000
0000
2000
0000
0000
0000
0000
0000
0000
0000
0010
0000
0000
0000
0000
0000
0000
0000
0000
0000
0000
0000
0000
0000
0000
0000
,
0010
3020
0100
0000
,
0100
0230
0001
0000
,
0001
0302
1000
0000
,
1003
0000
0100
1000
0001
0100
0000
0001
,
0010
0000
0001
0100
0010
0100
0001
1000
,
0100
0000
1000
0100
0010
0100
0000
1000
,
0001
0000
1000
0010
0001
0010
1000
0001
,
1000
0000
0001
0010
0001
0100
0000
0010
,
0100
0000
0001
1000
0100
1000
0001
0010
,
0100
0000
1000
0010
1000
0001
0000
0100
,
0010
0000
1000
0010
0100
0001
0100
0010
,
1000
0000
0001
0000
0011
0000
0000
0000
0011
0000
0000
0000
0011
0000
0000
0001
,
1000
0000
0100
0000
1100
0000
0000
0000
1100
0000
0000
0000
1100
0000
0000
1000
,
0001
0000
0100
0000
0101
0000
0000
0000
0101
0000
0000
0000
0101
0000
0000
0001
,
1000
0000
0010
0000
1010
0000
0000
0000
1010
0000
0000
0000
1010
0000
0000
0010
,
1000
0100
0010
0001
0010
0001
1000
0100
,
1000
0100
1000
0010
1000
0010
0100
0001
,
0100
0001
1000
0100
0010
0001
1000
0010
,
0001
0010
2000
0000
0000
0000
0000
0000
,
3001
0000
0201
0000
0001
0000
0000
0310
,
0100
0000
0001
0010
0100
0000
1000
0100
,
0010
0100
2000
0000
3020
0000
0230
0000
,
0302
0000
0013
0010
0100
0001
0100
1000
,
0010
0000
1020
0000
1000
0000
0000
0130
,
0010
0000
1000
0001
0100
0001
0010
0001
,
1000
0002
0023
0230
,
2300
0000
3001
0001
0100
1000
0100
0010
,
1000
0000
1100
0000
1001
0000
0001
0100
,
0010
0100
0001
0000
0011
0000
0010
0100
,
1000
0100
0002
0000
0203
0000
2300
0000
,
3020
0000
1030
0001
0100
0100
0001
0010
,
0100
0000
2000
0000
3100
1000
0010
1000
,
0001
0100
0002
0000
0013
0001
1000
0100
,
1000
0001
0200
0000
0010
0000
1000
0000
,
0301
0000
1000
0100
0001
0100
0010
1000
,
0010
0001
1000
0000
0000
0000
0000
0000
;

//---------------dance-double - NewbStepper-EDP----------------
#NOTES:
     dance-double:
     NewbStepper:
     Hard:
     11:
     0.421414,0.452901,0.088497,0.221242,0.066373,400,388,12,30,0,0,0.421414,0.452901,0.088497,0.221242,0.066373,400,388,12,30,0,0:
// measure 0
00000000
00000000
00000000
00000000
,  // measure 1
00000000
00000000
00000000
00000000
,  // measure 2
00000000
00000000
00000000
00000000
,  // measure 3
00000000
00000000
00000000
00000000
,  // measure 4
00001000
00000000
00000000
00010000
00001000
00000000
00000100
00000000
00000001
00000000
00000000
00000010
00000000
00000000
00000001
00000000
,  // measure 5
00000100
00000000
00000000
00000100
00000010
00000000
00001000
00000000
00000001
00000000
00000000
00000100
00000000
00000000
00001000
00000000
,  // measure 6
00010000
00000000
00000000
00001000
00010000
00000000
01000000
00000000
10000000
00000000
00000000
00100000
00000000
00000000
10000000
00000000
,  // measure 7
01000000
00000000
00000000
01000000
00100000
00000000
00010000
00000000
10000000
00000000
00000000
00000000
01000000
00000000
00010000
00000000
,  // measure 8
00011000
00000000
00000000
00000010
00000000
00000000
00010000
00000000
00001000
00010000
00000000
00010000
00000100
00000000
00000010
00000000
,  // measure 9
00002000
00000000
00013000
00000000
00200000
00000000
00310000
00001000
,  // measure 10
00000100
00000000
00000000
00000001
00000010
00000000
00001000
00000000
00000010
00000001
00000000
00000001
00000100
00000000
00001000
00000000
,  // measure 11
00020000
00000000
00031000
00000000
00000020
00000000
00001030
00010000
,  // measure 12
01000000
00000000
00000000
10000000
00000000
00000000
00010000
00000000
00100000
00000000
00000000
00000000
01000000
00000000
01000000
00000000
,  // measure 13
00010000
00000000
00000000
00001000
00000000
00000000
00010000
00000000
00100000
00000000
00010000
00000000
00001000
00000000
00000010
00000000
,  // measure 14
00000200
00000001
00002300
00010000
,  // measure 15
00003010
00000100
00001000
00000000
00010000
00000000
00100000
01000000
,  // measure 16
00020000
00100000
10000000
01000000
,  // measure 17
00032000
00000010
00000001
00000100
,  // measure 18
00023000
00100000
10000000
01000000
,  // measure 19
00032000
00000010
00000001
00003100
,  // measure 20
00001002
00000000
00000000
00000100
00000000
00000000
00000100
00000000
00000000
00000000
00001000
00000000
00001003
00000000
00000000
00000000
,  // measure 21
00000001
00000100
00001000
00000000
00010000
01000000
10000000
00000000
,  // measure 22
20010000
00000000
00000000
01000000
00000000
00000000
01000000
00000000
00000000
00000000
00010000
00000000
30010000
00000000
00000000
00000000
,  // measure 23
10000000
01000000
00010000
00000000
00001000
00000100
00000001
00000000
,  // measure 24
00000010
00000000
00000000
00000001
00000000
00000000
00000200
00000000
00000000
00000000
00001000
00000000
00001300
00000000
00000000
00000000
,  // measure 25
00010000
00001000
00000100
00000000
00001000
00010000
01000000
00000000
,  // measure 26
00100000
00010000
01000000
00100000
10000000
01000000
00010000
00000000
,  // measure 27
00001000
00010000
01000000
00000000
00010000
00001000
00000100
00000000
,  // measure 28
00000020
00000001
00000100
00001000
,  // measure 29
00020030
00000100
00001000
00130000
,  // measure 30
20000000
32000000
03200000
00320000
,  // measure 31
00032000
00000000
00020000
00033000
,  // measure 32
00200000
10000000
01000000
00010000
,  // measure 33
00302000
01000000
00010000
00003010
,  // measure 34
00000001
00000100
00001000
00000100
00000001
00000100
00001000
00000000
,  // measure 35
00000100
00001000
00010000
00001000
00000100
00001000
00010000
00000000
,  // measure 36
00011000
10200000
01000000
10000000
,  // measure 37
01000000
00320000
00001000
00100000
,  // measure 38
00001000
00030020
00001000
00000001
,  // measure 39
00001030
00000000
00000100
00000000
00000010
00000000
00000001
00000100
,  // measure 40
00000000
00000010
00000000
00000100
00000001
00000010
00000100
00000010
,  // measure 41
00000001
00000100
00000000
00000010
00001000
00000100
00010000
00001000
,  // measure 42
00000010
00001000
00000000
00010000
01000000
00010000
00001000
00010000
,  // measure 43
00100000
00010000
00000000
00001000
00010000
01000000
00010000
00001000
,  // measure 44
00010000
00100000
00000000
10000000
01000000
00100000
00010000
01000000
,  // measure 45
00100000
10000000
00000000
01000000
00010000
00001000
00010000
00100000
,  // measure 46
00010000
00001000
00000000
00010000
00001000
00000010
00001000
00010000
,  // measure 47
00001000
00000100
00000000
00000001
00000010
00001000
00000010
00000001
,  // measure 48
00000100
00000010
00002000
00000000
00000100
00000000
00000001
00000000
,  // measure 49
00000010
00023000
01000000
10000000
,  // measure 50
00100000
00032000
00000100
00000001
,  // measure 51
00000010
00023000
01000000
10000000
,  // measure 52
00100000
00000000
00031000
00000010
00000100
00000010
00001000
00000100
,  // measure 53
00000010
00000000
00000001
00000100
00000010
00000100
00000001
00000010
,  // measure 54
00001000
00000000
00010000
00001000
00000100
00000000
00001000
00010000
,  // measure 55
01000000
01100000
00000000
00000000
,  // measure 56
00000000
00000000
10000000
00000000
00100000
00000000
00010000
00100000
,  // measure 57
10000000
00000000
01000000
00010000
00001000
00010000
00001000
00000100
,  // measure 58
00000001
00000100
00001010
00000100
,  // measure 59
00011000
00000000
00010000
00001000
00000010
00000100
00010000
00001000
,  // measure 60
00000100
00000000
00000001
00000000
00000010
00000000
00001000
00000010
,  // measure 61
00000001
00000000
00000100
00001000
00010000
00001000
00010000
01000000
,  // measure 62
10000000
01000000
00110000
01000000
,  // measure 63
00011000
00000000
00001000
00010000
00100000
01000000
00001000
00010000
,  // measure 64
01000000
00000000
10000000
00010000
00100000
00010000
10000000
01000000
,  // measure 65
00010000
00000000
00001000
00100000
00010000
00100000
00001000
00010000
,  // measure 66
00000010
00001100
00000010
00000101
,  // measure 67
00000010
00000000
00000100
00001000
00010000
00000000
00010000
00001000
,  // measure 68
00000010
00000000
00000001
00001000
00000010
00001000
00000001
00000100
,  // measure 69
00001000
00000000
00010000
00000010
00001000
00000010
00010000
00001000
,  // measure 70
00100000
00000000
00010000
01000000
00100000
10000000
00010000
00100000
,  // measure 71
01000000
10000000
01000000
00010000
00001000
00000010
00000001
00000100
,  // measure 72
00000010
00001000
00000001
00000000
00000000
00000000
00000000
00000000
;

//---------------dance-single - NewbStepper-DSP----------------
#NOTES:
     dance-single:
     NewbStepper:
     Medium:
     8:
     0.302364,0.399619,0.125371,0.221242,0.011062,287,270,17,30,0,0,0.302364,0.399619,0.125371,0.221242,0.011062,287,270,17,30,0,0:
0000
0000
0000
0000
,
0000
0000
0000
0000
,
0000
0000
0000
0000
,
0000
0000
0000
0000
,
0010
0002
0000
0003
,
0100
0000
0002
0000
0000
0000
0003
1000
,
0010
2000
0000
3000
,
0100
2000
0000
3001
,
2000
0000
0010
0000
0000
0000
3010
0100
,
0002
0000
0013
0100
2000
0000
3001
0100
,
0010
0110
1000
1001
,
0220
0000
0330
0001
,
1000
0100
0010
0001
1000
0000
0001
0000
,
0010
0000
0000
0001
0000
0000
0100
0000
0010
0000
0000
0000
1000
0000
0000
0000
,
0001
0000
0010
0000
0001
0100
0001
0000
,
1000
0000
0010
0000
1000
0100
1000
0000
,
0001
0010
0100
1000
,
0001
0100
0010
1000
,
0100
0000
0001
0000
0010
0000
1000
0001
,
1000
0010
0100
0001
,
0010
0001
0010
0001
0000
1000
0001
0000
,
0020
0001
0100
0031
,
1000
0000
0000
1000
0000
0000
1000
0000
0000
0000
0001
0000
0100
0000
0000
0000
,
0020
1000
0100
1030
,
0010
1000
0010
1000
0000
0001
1000
0000
,
0020
1000
0100
1030
,
0001
0000
0000
0001
0000
0000
0001
0000
0000
0000
1000
0000
0100
0000
0000
0000
,
0020
0000
0200
0330
,
0002
0000
0203
0000
,
0320
0000
2030
0000
,
3100
0100
0010
0010
,
0002
0000
2000
3003
,
2000
0000
3200
0000
,
0320
0000
0032
0000
,
1003
0100
1000
0000
0001
0100
0001
0000
,
1000
0100
0001
0000
0001
0100
1000
0000
,
1001
0020
0000
0000
,
0000
0032
0000
0000
,
0000
2003
0000
0000
,
0000
3020
0000
0000
,
0000
0000
1030
0100
1000
0000
0001
0100
,
0000
0001
0000
1000
0100
0000
1000
0100
,
0000
0010
0000
0001
0100
0000
0001
0100
,
0000
0010
0000
1000
0001
0000
1000
0001
,
0000
0010
0001
0100
0001
0000
1000
0100
,
0000
1000
0000
0001
0100
0000
0001
0100
,
0000
0010
0000
1000
0100
0000
1000
0100
,
0000
0010
0000
0001
1000
0000
0001
1000
,
0000
0010
1000
0000
1000
0000
1000
0000
,
1000
0001
0001
0001
,
0001
0100
0100
0100
,
0100
0010
0010
0010
,
0010
1001
0000
1001
,
0000
0110
0000
0110
,
0000
2002
0000
0000
,
0000
3003
0000
0000
,
0000
0000
0001
0100
0001
0000
1000
0000
,
1000
0000
0010
1000
0010
1000
0010
0000
,
0100
0101
1100
0101
,
1100
0001
1000
0100
,
0000
0000
1000
0100
1000
0000
0001
0000
,
0001
0000
0010
0001
0010
0001
0010
0000
,
0100
1100
0101
1100
,
0101
1000
0001
0100
,
0000
0000
0010
0000
0010
0000
1000
0001
,
0100
0000
0010
0000
0010
0000
1000
0001
,
0100
0001
1000
0001
,
1000
0000
0010
0100
0010
0100
0001
0000
,
0000
0000
0010
0000
0010
0000
0001
1000
,
0100
0000
0010
0000
0010
0000
0001
1000
,
0100
0000
0010
0000
0001
0000
1000
0100
,
0001
0000
0100
0000
1000
0000
0001
0100
,
1000
0100
0000
0000
;

//---------------dance-single - NewbStepper-BSP----------------
#NOTES:
     dance-single:
     NewbStepper:
     Easy:
     5:
     0.200172,0.239771,0.029499,0.258116,0,190,186,4,35,0,0,0.200172,0.239771,0.029499,0.258116,0,190,186,4,35,0,0:
0000
0000
0000
0000
,
0000
0000
0000
0000
,
0000
0000
0000
0000
,
0000
0000
0000
0000
,
0000
0002
0000
0000
,
1000
2003
0000
0000
,
0010
3020
0000
0000
,
0100
0230
0000
0301
,
2002
0000
0000
3003
,
0010
1000
0010
1000
,
0001
0001
0000
0000
,
0020
0000
0000
0030
,
0001
0100
1000
0100
,
0001
0010
1000
0010
,
0001
0001
1000
1000
,
0010
0100
0010
0100
,
0002
0000
2003
0000
,
3002
0000
0023
0000
,
0230
0000
2300
0000
,
3001
0000
0000
1001
,
1000
0010
0100
0001
,
0020
0000
0002
0033
,
0001
1000
0010
0100
,
0002
0000
2000
3003
,
0001
0010
0100
1000
,
0020
0000
2000
3030
,
1000
0001
0010
0100
,
2000
0000
0002
3003
,
0010
1000
0001
0000
,
0010
0001
1000
0000
,
0001
0010
0100
1000
,
0001
0100
0001
0000
,
0010
0001
1000
0010
,
1000
0001
0010
0001
,
2000
0010
0000
0010
,
3002
0010
0000
0013
,
1001
2000
0000
0000
,
0000
3002
0000
0000
,
0000
0203
0000
0000
,
0000
0320
0000
0000
,
0000
1030
0100
1000
,
0001
0000
0100
0001
,
1000
0100
1000
0001
,
0100
0000
0010
1000
,
0000
0001
0100
0001
,
1000
0000
0100
1000
,
0001
0100
0001
1000
,
0100
0000
0010
0001
,
0000
1000
0100
1000
,
0000
0001
0100
0001
,
0000
1000
0010
1000
,
0000
0001
0010
0001
,
0000
0010
0100
0010
,
0000
0100
0010
0100
,
0000
2002
0000
0000
,
0000
3003
0000
0000
,
0000
0010
0001
0010
,
0001
1000
0010
1000
,
0000
0001
0100
1000
,
0100
0001
0000
1000
,
0000
0010
1000
0010
,
1000
0001
0010
0001
,
0000
1000
0100
0001
,
0100
1000
0000
0001
,
0000
2000
0000
0000
,
0000
3002
0000
0000
,
0000
1003
0100
0010
,
0001
2000
0000
0002
,
3003
0002
0000
0000
,
0000
2003
0000
0000
,
0000
3001
0100
0010
,
1000
0100
0001
0100
,
1000
0001
0000
0000
;

//---------------dance-double - NewbStepper-DDP----------------
#NOTES:
     dance-double:
     NewbStepper:
     Medium:
     9:
     0.282347,0.372977,0.066373,0.228617,0.011062,268,259,9,31,0,0,0.282347,0.372977,0.066373,0.228617,0.011062,268,259,9,31,0,0:
// measure 0
00000000
00000000
00000000
00000000
,  // measure 1
00000000
00000000
00000000
00000000
,  // measure 2
00000000
00000000
00000000
00000000
,  // measure 3
00000000
00000000
00000000
00000000
,  // measure 4
00000010
00020000
00000000
00030000
,  // measure 5
00000100
00000000
00020000
00000000
00000000
00000000
00030000
00001000
,  // measure 6
00100000
00002000
00000000
00003000
,  // measure 7
01000000
00002000
00000000
00013000
,  // measure 8
00200000
00000000
00000000
00000000
00300000
00000000
10000000
01000000
,  // measure 9
00010000
00000000
00001000
00000100
00000010
00000000
00001000
00000001
,  // measure 10
00000010
00000110
00001000
00001001
,  // measure 11
00000220
00000000
00000330
00001000
,  // measure 12
00000001
00000100
00000010
00001000
00000001
00000000
00000100
00000000
,  // measure 13
00001000
00000000
00000000
00010000
00000000
00000000
00001000
00000000
00100000
00000000
00000000
00000000
00010000
00000000
00000000
00000000
,  // measure 14
10000000
00000000
00100000
00000000
01000000
00010000
01000000
00000000
,  // measure 15
00001000
00000000
00010000
00000000
00000010
00001000
00000010
00000000
,  // measure 16
00010000
00001000
00000100
00000001
,  // measure 17
00000010
00000001
00001000
00000100
,  // measure 18
00010000
00000000
00001000
00000000
00100000
00000000
00010000
10000000
,  // measure 19
00010000
00100000
01000000
10000000
,  // measure 20
00100000
10000000
00100000
10000000
00000000
01000000
00010000
00000000
,  // measure 21
00002000
00000000
00020000
00033000
,  // measure 22
00000010
00000000
00000000
00000010
00000000
00000000
00000010
00000000
00000000
00000000
00001000
00000000
00000001
00000000
00000000
00000000
,  // measure 23
00000020
00000000
00000200
00000330
,  // measure 24
00000010
00000001
00000010
00000001
00000000
00000100
00001000
00000000
,  // measure 25
00020000
00000000
00002000
00033000
,  // measure 26
00100000
00000000
00000000
00100000
00000000
00000000
00100000
00000000
00000000
00000000
00010000
00000000
10000000
00000000
00000000
00000000
,  // measure 27
00200000
00000000
02000000
03300000
,  // measure 28
00020000
00000000
20030000
00000000
,  // measure 29
32000000
00000000
03020000
00000000
,  // measure 30
00031000
00000100
00000001
00000010
,  // measure 31
00000002
00000000
00002000
00003003
,  // measure 32
00002000
00000000
00003002
00000000
,  // measure 33
00000203
00000000
00002300
00000000
,  // measure 34
00013000
01000000
10000000
00100000
,  // measure 35
10000000
01000000
00010000
00000000
00001000
00000100
00000001
00000000
,  // measure 36
00001001
00000002
00000000
00000000
,  // measure 37
00000000
00002003
00000000
00000000
,  // measure 38
00000000
00023000
00000000
00000000
,  // measure 39
00000000
20030000
00000000
00000000
,  // measure 40
00000000
00000000
30010000
01000000
00010000
00000000
10000000
01000000
,  // measure 41
00000000
10000000
00000000
01000000
00010000
00000000
01000000
00010000
,  // measure 42
00000000
00001000
00000000
00010000
00000010
00000000
00010000
00000010
,  // measure 43
00000000
00001000
00000000
00000001
00000100
00000000
00000001
00000100
,  // measure 44
00000000
00000010
00001000
00000100
00001000
00000000
00000001
00000100
,  // measure 45
00000000
00000001
00000000
00000100
00001000
00000000
00000100
00001000
,  // measure 46
00000000
00010000
00000000
00001000
00100000
00000000
00001000
00100000
,  // measure 47
00000000
00010000
00000000
10000000
01000000
00000000
10000000
01000000
,  // measure 48
00000000
00100000
00010000
00000000
00010000
00000000
00010000
00000000
,  // measure 49
00010000
00100000
00100000
00100000
,  // measure 50
00100000
00001000
00001000
00001000
,  // measure 51
00001000
00010000
00010000
00010000
,  // measure 52
00010000
00011000
00000000
00011000
,  // measure 53
00000000
00011000
00000000
00011000
,  // measure 54
00000000
00022000
00000000
00000000
,  // measure 55
00000000
00033000
00000000
00000000
,  // measure 56
00000000
00000000
00000001
00000100
00000001
00000000
00001000
00000000
,  // measure 57
00001000
00000000
00000010
00010000
00000010
00010000
00001000
00000000
,  // measure 58
00100000
00010000
01000000
10000000
,  // measure 59
00100000
00010000
01000000
00100000
,  // measure 60
00000000
00000000
10000000
01000000
10000000
00000000
00010000
00000000
,  // measure 61
00010000
00000000
00100000
00001000
00100000
00001000
00010000
00000000
,  // measure 62
00000010
00001000
00000100
00000001
,  // measure 63
00000010
00001000
00000100
00000010
,  // measure 64
00000000
00000000
00000001
00000000
00000001
00000000
00000100
00001000
,  // measure 65
00010000
00000000
00001000
00000000
00001000
00000000
00010000
01000000
,  // measure 66
10000000
00010000
00100000
01000000
,  // measure 67
10000000
00100000
01000000
00010000
,  // measure 68
00000000
00000000
10000000
00000000
10000000
00000000
01000000
00010000
,  // measure 69
00001000
00000000
00010000
00000000
00010000
00000000
00001000
00000100
,  // measure 70
00000001
00000000
00001000
00000000
00001000
00000000
00000001
00000100
,  // measure 71
00001000
00000000
00010000
00000000
00001000
00000000
00010000
01000000
,  // measure 72
10000000
01000000
00000000
00000000
;

//---------------dance-double - NewbStepper-BDP----------------
#NOTES:
     dance-double:
     NewbStepper:
     Easy:
     5:
     0.200172,0.239771,0.029499,0.258116,0,190,186,4,35,0,0,0.200172,0.239771,0.029499,0.258116,0,190,186,4,35,0,0:
// measure 0
00000000
00000000
00000000
00000000
,  // measure 1
00000000
00000000
00000000
00000000
,  // measure 2
00000000
00000000
00000000
00000000
,  // measure 3
00000000
00000000
00000000
00000000
,  // measure 4
00000000
20000000
00000000
00000000
,  // measure 5
00010000
30020000
00000000
00000000
,  // measure 6
00100000
00230000
00000000
00000000
,  // measure 7
00001000
00302000
00000000
00013000
,  // measure 8
00022000
00000000
00000000
00033000
,  // measure 9
00000010
00001000
00000010
00001000
,  // measure 10
00000001
00000001
00000000
00000000
,  // measure 11
00000020
00000000
00000000
00000030
,  // measure 12
00000001
00000100
00001000
00010000
,  // measure 13
01000000
10000000
00100000
01000000
,  // measure 14
00010000
00010000
10000000
10000000
,  // measure 15
00100000
01000000
00100000
01000000
,  // measure 16
00002000
00000000
00023000
00000000
,  // measure 17
00030200
00000000
00000320
00000000
,  // measure 18
00000032
00000000
00002003
00000000
,  // measure 19
00003010
00000000
00000000
00001001
,  // measure 20
00001000
00000010
00010000
00001000
,  // measure 21
00200000
00000000
00020000
00330000
,  // measure 22
10000000
00010000
00100000
01000000
,  // measure 23
20000000
00000000
00020000
30030000
,  // measure 24
00010000
00100000
00001000
00010000
,  // measure 25
00000020
00000000
00002000
00003030
,  // measure 26
00000001
00001000
00000010
00000100
,  // measure 27
00000002
00000000
00002000
00003003
,  // measure 28
00000010
00001000
00000001
00000000
,  // measure 29
00000010
00000001
00001000
00000000
,  // measure 30
00000001
00000100
00001000
00010000
,  // measure 31
01000000
10000000
00010000
00000000
,  // measure 32
00100000
00010000
10000000
00000000
,  // measure 33
00100000
10000000
00010000
00000000
,  // measure 34
20000000
01000000
00000000
31000000
,  // measure 35
00020000
01000000
00000000
01030000
,  // measure 36
00011000
00002000
00000000
00000000
,  // measure 37
00003020
00000000
00000000
00000000
,  // measure 38
00002030
00000000
00000000
00000000
,  // measure 39
00023000
00000000
00000000
00000000
,  // measure 40
00030000
00001000
00000100
00000001
,  // measure 41
00001000
00000000
00000100
00001000
,  // measure 42
00000001
00000100
00000010
00010000
,  // measure 43
00001000
00000000
01000000
00001000
,  // measure 44
00000000
00010000
01000000
10000000
,  // measure 45
00010000
00000000
01000000
00010000
,  // measure 46
10000000
01000000
00100000
00001000
,  // measure 47
00010000
00000000
00000100
00010000
,  // measure 48
00000000
00001000
00000010
00001000
,  // measure 49
00000000
00000010
00000001
00000010
,  // measure 50
00000000
00000001
00000100
00000001
,  // measure 51
00000000
00000100
00001000
00000100
,  // measure 52
00000000
00001000
00010000
00001000
,  // measure 53
00000000
00010000
00001000
00010000
,  // measure 54
00000000
00022000
00000000
00000000
,  // measure 55
00000000
00033000
00000000
00000000
,  // measure 56
00000000
00100000
10000000
00100000
,  // measure 57
10000000
00010000
00100000
00010000
,  // measure 58
00000000
10000000
01000000
00010000
,  // measure 59
00001000
00000100
00000001
00001000
,  // measure 60
00000000
00000010
00000001
00000010
,  // measure 61
00000001
00001000
00000010
00001000
,  // measure 62
00000000
00000001
00000100
00001000
,  // measure 63
00010000
01000000
10000000
00010000
,  // measure 64
00000000
20000000
00000000
00000000
,  // measure 65
00000000
30020000
00000000
00000000
,  // measure 66
00000000
10030000
01000000
00100000
,  // measure 67
00010000
20000000
00000000
02000000
,  // measure 68
33000000
00020000
00000000
00000000
,  // measure 69
00000000
00032000
00000000
00000000
,  // measure 70
00000000
00003100
00000001
00000010
,  // measure 71
00000100
00001000
00000010
00000100
,  // measure 72
00001000
00010000
00000000
00000000
;
