#TITLE:Miss You;
#ARTIST:RiraN;
#BANNER:Miss You.png;
#BACKGROUND:Miss You-bg.png;
#MUSIC:Miss You.ogg;
#OFFSET:-0.052;
#SAMPLESTART:28.86;
#SAMPLELENGTH:15;
#BPMS:0=150;

//---------------dance-single - leeium-bSP----------------
#NOTES:
     dance-single:
     leeium:
     Beginner:
     4:
     0.165590,0.278493,0.037634,0.022580,0,154,149,5,3,0,0,0.165590,0.278493,0.037634,0.022580,0,154,149,5,3,0,0:
0000
0000
0000
0000
,
0000
0000
0000
0000
,
0000
0000
1000
0000
,
0000
0000
1000
0000
,
0000
0000
0001
0000
,
0000
0000
0001
0000
,
0000
0000
0010
0000
,
0000
0000
0010
0000
,
0000
0000
0100
0000
,
0000
0000
0100
0000
,
1000
0000
0000
0000
,
0100
0000
0000
0000
,
0010
0000
0000
0000
,
0001
0000
0000
0000
,
0100
0100
0100
0100
,
0010
0010
0010
0010
,
1000
1000
1000
1000
,
0002
0000
0000
0003
,
1001
0000
0000
0000
0000
0000
0000
0100
,
0000
0000
0000
0000
,
0010
0000
0000
0000
0000
0000
0000
0001
,
0000
0000
0001
0000
,
0001
0000
0000
0000
0010
0000
0000
0010
,
0000
0000
0100
0000
,
1000
0000
0000
0000
0100
0000
0000
0100
,
0000
0000
1000
1000
,
1001
0000
0000
0000
0000
0000
0000
0010
,
0000
0000
0000
0000
,
0100
0000
0000
0000
0000
0000
0000
0010
,
0000
0000
1000
0000
,
0010
0000
0000
0000
0100
0000
0000
0100
,
0000
0000
0010
0100
,
0100
0000
0000
0000
0010
0000
0000
0010
,
0000
0000
0000
1001
,
0001
0000
0000
0000
,
0010
0000
0000
0000
,
0001
0000
0000
0000
,
1000
0000
0000
0000
,
0100
0100
0100
0100
,
0010
0010
0010
0010
,
0001
0001
0001
0001
,
2000
0000
0000
3000
,
0001
0000
0000
0000
0000
0000
0000
0010
,
0000
0000
0000
0000
0000
0000
0000
0001
,
0000
0000
0000
0000
0000
0000
0000
0100
,
0000
0000
0001
0100
,
0001
0000
0000
0000
0000
0000
0000
1000
,
0000
0000
0000
0000
0000
0000
0000
0100
,
0000
0000
0000
0000
0000
0000
0000
1000
,
0000
0000
0010
1000
,
0010
0000
0000
0000
,
0100
0000
0000
0000
,
0001
0000
0000
0000
,
1000
0000
0000
0000
,
0100
0100
0100
0100
,
1000
1000
1000
1000
,
0001
0001
0001
0001
,
0020
0000
0000
0030
,
0010
0000
0010
0000
,
0001
0000
0001
0000
,
0100
0000
0100
0000
,
0010
0000
0010
0000
,
1000
0000
1000
0000
,
0001
0000
0001
0000
,
1000
0000
1000
0000
,
0100
0000
0100
0110
,
0010
0010
0010
0010
,
0001
0001
0001
0001
,
0100
0100
0100
0100
,
0001
0001
1000
1000
,
0100
0100
0100
0100
,
0010
0010
0010
0010
,
0001
0001
0001
0001
,
0100
0100
0010
0010
,
1001
0000
0000
0000
;

//---------------dance-single - leeium-BSP----------------
#NOTES:
     dance-single:
     leeium:
     Easy:
     6:
     0.249461,0.278493,0.067741,0.022580,0,232,223,9,3,0,0,0.249461,0.278493,0.067741,0.022580,0,232,223,9,3,0,0:
0000
0000
0000
0000
,
0000
0000
0000
0000
,
0000
0000
1000
0000
,
0000
0000
1000
0000
,
0000
0000
0001
0000
,
0000
0000
0001
0000
,
0010
0000
0010
0010
,
0000
0100
0100
0100
,
1000
0000
0100
0100
,
0000
0010
0010
0010
,
0001
0001
0001
0001
,
1000
1000
1000
1000
,
0010
0010
0010
0010
,
0100
0100
0100
0100
,
0001
0100
0001
0100
,
0010
1000
0010
1000
,
0001
0100
0010
1000
,
0200
0000
0300
1001
,
1000
0000
0000
0000
0000
0000
0000
1100
,
0000
0000
0100
1000
,
0100
0000
0100
0000
0010
0000
0000
0010
,
0000
0000
0001
0010
,
0001
0000
0000
0000
0100
0000
0000
0100
,
0000
0000
0100
0001
,
0100
0000
0000
0000
0010
0000
0000
0010
,
0000
0000
0100
0110
,
0010
0000
0000
0000
0000
0000
0000
1010
,
0000
0000
1000
0010
,
1000
0000
1000
0000
0001
0000
0000
0001
,
0000
0000
0010
0001
,
0010
0000
0000
0000
0100
0000
0000
0100
,
0000
0000
0100
1000
,
0100
0000
0000
0000
1000
0000
0000
1000
,
0000
0000
0001
1001
,
1000
0000
0000
0000
,
0100
0000
0000
0000
,
0010
0000
0000
0000
,
0100
0000
0000
0000
,
1000
0100
1000
0100
,
0010
0001
0010
0001
,
1000
0010
0100
0001
,
0020
0000
0030
1001
,
0001
0000
0000
0000
0001
0000
0000
0010
,
0000
0000
0010
0000
0010
0000
0000
0001
,
0000
0000
0001
0000
0001
0000
0000
1000
,
0000
1000
1000
0100
,
1000
0000
0000
0000
1000
0000
0000
1000
,
0000
0000
0010
0000
0010
0000
0000
0010
,
0000
0000
0010
0000
0100
0000
0000
0100
,
0000
0100
0100
0001
,
0100
0100
0100
0100
,
0010
0010
0010
0010
,
1000
1000
1000
1000
,
0001
0001
0001
0001
,
1000
0100
1000
0100
,
0010
0001
0010
0001
,
1000
0100
0001
0100
,
2000
0000
3000
0110
,
0010
1000
0010
1000
,
0001
0010
0001
0010
,
0100
1000
0100
1000
,
0001
0100
1000
0100
,
0001
0100
0001
0100
,
0010
1000
0010
1000
,
0001
0010
0001
0010
,
1000
0010
0001
1001
,
1000
0100
1000
0010
,
0100
0001
0100
0010
,
1000
0100
0010
0100
,
1000
0001
0010
1000
,
0010
0001
0010
0001
,
0100
0010
1000
0010
,
0100
0001
1000
0001
,
0010
0100
0010
0010
,
1001
0000
0000
0000
;

//---------------dance-single - leeium-DSP----------------
#NOTES:
     dance-single:
     leeium:
     Medium:
     11:
     0.453761,0.501287,0.075268,0.052688,0.007527,422,412,10,7,0,0,0.453761,0.501287,0.075268,0.052688,0.007527,422,412,10,7,0,0:
0000
0000
0000
0000
,
0000
0000
0000
0000
,
0000
0000
0001
0000
,
0000
0000
0001
0000
,
0000
0000
1000
0000
,
0000
0000
1000
0000
,
0010
0000
0000
0010
0000
0010
0100
0000
,
0000
0100
0001
0000
0001
0000
1000
0000
,
0100
0000
0000
0100
0000
0100
0010
0000
,
0000
0010
0100
0000
0100
0000
1000
0000
,
0010
0010
0010
0010
,
0100
0100
0100
0100
,
0001
0001
0001
0001
,
0010
0010
0010
0010
,
0100
1000
0100
1000
0100
1000
0100
1000
,
0001
0100
0001
0100
0001
0100
0001
0100
,
0010
1000
0100
0010
0001
1000
0010
0100
,
0002
0000
0000
1003
,
1100
0100
0100
0100
0010
0000
0000
0011
,
0000
0001
0001
0001
0010
0001
0010
0001
,
1000
0001
0100
0000
0001
0100
0010
1000
,
0010
0100
0010
0100
0010
1000
0001
0000
,
0011
0000
0010
0000
0010
0000
0010
0000
0100
0000
0000
1000
0000
0000
1100
0000
,
0000
1000
1000
1000
0100
1000
0010
1000
,
0020
0000
0000
0000
1030
0100
0000
0020
,
0000
0000
0000
0000
0031
0100
0001
0000
,
0011
0010
0010
0010
0100
0000
0000
1100
,
0000
1000
1000
1000
0100
1000
0010
1000
,
0001
0100
0010
0000
0010
0100
0001
0010
,
0100
0010
0100
0010
0001
1000
0010
0000
,
1010
0000
1000
0000
1000
0000
1000
0000
0010
0000
0000
0100
0000
0000
0101
0000
,
0000
0001
0001
0001
0100
0010
0100
0001
,
0020
0000
0000
0000
0130
0010
0000
0002
,
0000
0000
0000
0000
1003
0010
1000
0000
,
0010
0010
0010
0010
,
0100
0100
0100
0100
,
0001
0001
0001
0001
,
1000
1000
1000
1000
,
0100
0010
0100
0010
0100
0010
0100
0010
,
0001
0010
0001
0010
0001
0010
0001
0010
,
0001
1000
0100
0010
0001
0100
0010
1000
,
0200
0000
0000
0310
,
0001
0000
0000
0001
0001
0010
0001
0100
,
0000
0100
0100
0100
0010
0100
0010
1000
,
0000
1000
1000
1000
0010
1000
0010
0100
,
0000
0100
0100
0100
0010
0100
0001
0010
,
0001
0001
0000
0001
0001
0010
0001
1000
,
0000
1000
1000
1000
0100
1000
0100
0010
,
0000
0010
0010
0010
0001
0010
0001
0010
,
0000
0010
0010
0010
0001
1000
0010
0100
,
0010
0010
1000
1000
,
0100
0100
0010
0010
,
0001
0001
0010
0010
,
0100
0100
1000
1000
,
0001
0100
0001
0100
0001
0100
0001
0100
,
0010
1000
0010
1000
0010
1000
0010
1000
,
0001
0010
0100
1000
0100
0010
0001
1000
,
0002
0000
0000
1003
,
0010
0000
0000
0100
0100
0010
0100
0001
,
0000
0001
0001
0001
0100
0001
0100
0010
,
0000
0010
0010
0010
1000
0010
1000
0100
,
0000
0100
0100
0100
0010
0100
1000
0001
,
1000
0000
0000
1000
1000
0100
1000
0010
,
0000
0010
0010
0010
0100
0010
1000
0100
,
0000
0100
0100
0100
0010
0100
0010
0001
,
0000
0001
0001
0001
0100
0000
1001
0000
,
1000
0000
1000
0100
0100
1000
0100
0010
,
0100
1000
1000
1000
0100
1000
0100
0010
,
0001
0010
0010
0010
0001
0010
0001
1000
,
0001
0100
0100
0100
0001
0100
0010
0010
,
0100
0000
0010
1000
0010
0100
0001
1000
,
0001
0010
0010
0010
0001
0010
0100
0010
,
0001
0100
0100
0100
0001
0100
0010
0100
,
1000
0100
0100
0100
0010
0010
1000
0001
,
1001
0000
0000
0000
;

//---------------dance-single - leeium-ESP----------------
#NOTES:
     dance-single:
     leeium:
     Hard:
     14:
     0.556986,0.724081,0.120429,0.143010,0.304837,518,502,16,19,0,0,0.556986,0.724081,0.120429,0.143010,0.304837,518,502,16,19,0,0:
0000
0000
0000
0000
,
0000
0000
0000
0000
,
0000
0000
0001
0000
,
0000
0000
0001
0000
,
0000
0000
1000
0000
,
0000
0000
1000
0000
,
0100
0000
0000
0100
0010
0100
0010
0000
,
0000
0010
0001
0000
0001
0000
1000
0000
,
0001
0000
0000
0001
0100
0001
0100
0000
,
0000
0100
0010
0000
0010
0000
0100
0000
,
0001
0001
0100
0100
,
0010
0010
1000
1000
,
0100
0100
0010
0010
,
0001
0001
1000
1000
,
0001
0000
0100
0000
0001
0000
0100
0000
0010
0000
1000
0000
0010
0000
1000
0010
,
1000
0000
0100
0000
1000
0000
0100
0000
0010
0000
0001
0000
0010
0000
0001
0010
,
0001
1000
0001
1000
0001
1000
0001
1000
0010
0100
0010
0100
0010
0100
0010
0100
,
0002
0000
0003
0110
,
1200
1000
1000
1300
0001
0000
0000
0101
,
0000
0000
0000
0000
0001
0000
0000
0000
0100
0000
0000
0000
0001
0000
0000
0000
0000
0000
0001
0000
0000
0000
0000
0000
0001
0000
0000
0000
0000
0000
1000
0000
0000
0000
0000
0000
0100
0000
0000
1000
0000
0000
0100
0000
0000
1000
0000
0000
,
0100
0020
0001
0000
0130
1000
0001
1000
,
0010
1000
0010
1000
0010
1000
0010
1000
0010
0000
0010
0000
0200
0000
0000
0000
,
0302
0000
0010
0000
0010
0000
0013
0000
0100
0000
0000
1100
0000
0000
1001
0000
,
0000
0000
0000
0000
1000
0000
0000
0000
0001
0000
0000
0000
1000
0000
0000
0000
0000
0000
1000
0000
0000
0000
0000
0000
1000
0000
0000
0000
0000
0000
0100
0000
0000
0000
0000
0000
0010
0000
0000
0001
0000
0000
0010
0000
0000
0001
0000
0000
,
0010
0200
1000
0000
0310
0001
0000
0012
,
0000
0000
0000
0000
1003
0010
0100
0000
,
0201
0001
0001
0301
1000
0000
0000
1100
,
0000
0000
0000
0000
0100
0000
0000
0000
1000
0000
0000
0000
0100
0000
0000
0000
0000
0000
0100
0000
0000
0000
0000
0000
0100
0000
0000
0000
0000
0000
0010
0000
0000
0000
0000
0000
0001
0000
0000
0010
0000
0000
0001
0000
0000
0010
0000
0000
,
0001
0200
0010
0000
0301
0100
0010
0100
,
0001
0100
0001
0100
0001
0100
0001
0100
0001
0000
1000
0000
0200
0000
0000
0000
,
2300
0000
0010
0000
0010
0000
3010
0000
0100
0000
0000
0011
0000
0000
0110
0000
,
0000
0000
0000
0000
0100
0000
0000
0000
0010
0000
0000
0000
0100
0000
0000
0000
0000
0000
0100
0000
0000
0000
0000
0000
0100
0000
0000
0000
0000
0000
1000
0000
0000
0000
0000
0000
0001
0000
0000
0100
0000
0000
0001
0000
0000
0100
0000
0000
,
0002
0000
1000
0000
0103
0010
0000
2010
,
0000
0001
3100
0110
,
0001
0001
0001
0001
,
0010
0010
0010
0010
,
0100
0100
0100
0100
,
1000
1000
1000
1000
,
0010
0000
1000
0000
0010
0000
1000
0000
0001
0000
0010
0000
0001
0000
0010
0001
,
0010
0000
0100
0000
0010
0000
0100
0000
1000
0000
0001
0000
1000
0000
0001
1000
,
0001
0100
0001
0100
0001
0100
0001
0100
0010
1000
0010
1000
0010
1000
0010
1000
,
0200
0000
0300
1001
,
0001
0000
0000
0000
0000
0000
0001
0010
0001
0000
0010
0000
0001
0000
1000
0000
,
0000
0000
1000
0000
1000
0000
1000
0010
1000
0000
0010
0000
0100
0000
0001
0000
,
0000
0000
0001
0000
0001
0000
0001
0100
0001
0000
1000
0000
0001
0000
0010
0000
,
0000
0000
0010
0000
0010
0000
0010
0001
0010
0000
0001
0000
0100
0000
0010
0000
,
1000
0000
1000
0000
0000
0000
1000
0010
1000
0000
0010
0000
0100
0000
0010
0000
,
0000
0000
0010
0000
0010
0000
0010
0100
0010
0000
1000
0000
0001
0000
1000
0000
,
0000
0000
1000
0000
1000
0000
1000
0010
1000
0000
0001
0000
0010
0000
0100
0000
,
0000
0000
0100
0000
0100
0000
0100
0010
0100
0000
0010
0000
0001
0000
1000
0000
,
0100
0100
1000
1000
,
0001
0001
0010
0010
,
0100
0100
0001
0001
,
1000
1000
0010
0010
,
0001
0000
0010
0000
0001
0000
0010
0000
0100
0000
1000
0000
0100
0000
1000
0100
,
1000
0000
0010
0000
1000
0000
0010
0000
0100
0000
0001
0000
0100
0000
0001
0100
,
0010
0100
0010
0100
0010
0100
0010
0100
0001
1000
0001
1000
0001
1000
0001
1000
,
0200
0000
0300
1001
,
0020
0000
0000
0000
0031
0000
0001
0100
0001
0000
0100
0000
0001
0000
0010
0000
,
0100
0000
0010
0000
0010
0000
0010
0001
0010
0000
0100
0000
0010
0000
0001
0000
,
1000
0000
0001
0000
0001
0000
0001
0100
0001
0000
0100
0000
0001
0000
0010
0000
,
0100
0000
1000
0000
1000
0000
1000
0100
0010
0000
0001
0000
1000
0000
0010
0000
,
0200
0000
0000
0000
0301
0000
0001
0100
0001
0000
1000
0000
0010
0000
1000
0000
,
0100
0000
0010
0000
0010
0000
0010
0100
0010
0000
0100
0000
1000
0000
0010
0000
,
0100
0000
0001
0000
0001
0000
0001
0100
0001
0000
0100
0000
0001
0000
1000
0000
,
0010
0000
0100
0000
0100
0000
0100
0001
0010
0000
0001
0000
0101
0000
0001
0000
,
0020
0000
0000
0000
1030
0000
1000
0010
1000
0000
0010
0000
0001
0000
0100
0000
,
0010
0000
0100
0000
0100
0000
0100
0010
0100
0000
0010
0000
1000
0000
0001
0000
,
0010
0000
0100
0000
0100
0000
0100
1000
0100
0000
0010
0000
0001
0000
1000
0000
,
0001
0000
0100
0000
0100
0000
0100
0010
0100
0000
0100
0000
0001
1000
0001
0000
,
0020
0000
0000
0000
1030
0000
1000
0010
1000
0000
0010
0000
0001
0000
0100
0000
,
0010
0000
0100
0000
0100
0000
0100
0010
0100
0000
0001
0000
1000
0000
0001
0000
,
0010
0000
0001
0000
0001
0000
0001
1000
0001
0000
0100
0000
0010
0000
0100
0000
,
1000
0000
0100
0000
0001
0000
1000
0000
0100
0010
0001
0000
1000
0000
0001
0000
,
1001
0000
0000
0000
;

//---------------dance-double - leeium-BDP----------------
#NOTES:
     dance-double:
     leeium:
     Easy:
     6:
     0.247310,0.278493,0.052688,0.022580,0,230,223,7,3,0,0,0.247310,0.278493,0.052688,0.022580,0,230,223,7,3,0,0:
// measure 0
00000000
00000000
00000000
00000000
,  // measure 1
00000000
00000000
00000000
00000000
,  // measure 2
00000000
00000000
00010000
00000000
,  // measure 3
00000000
00000000
00010000
00000000
,  // measure 4
00000000
00000000
00001000
00000000
,  // measure 5
00000000
00000000
00001000
00000000
,  // measure 6
00010000
00000000
00100000
00100000
,  // measure 7
00000000
00010000
00010000
00010000
,  // measure 8
00001000
00000000
00000010
00000010
,  // measure 9
00000000
00001000
00001000
00001000
,  // measure 10
00010000
00010000
00010000
00010000
,  // measure 11
00100000
00100000
00100000
00100000
,  // measure 12
01000000
01000000
01000000
01000000
,  // measure 13
10000000
10000000
10000000
10000000
,  // measure 14
01000000
00100000
01000000
00100000
,  // measure 15
00010000
10000000
00010000
10000000
,  // measure 16
00100000
01000000
00010000
10000000
,  // measure 17
02000000
00000000
03000000
10010000
,  // measure 18
00010000
00000000
00000000
00000000
00000000
00000000
00000000
01010000
,  // measure 19
00000000
00000000
00010000
01000000
,  // measure 20
00010000
00000000
00000000
00000000
00001000
00000000
00000000
00001000
,  // measure 21
00000000
00000000
00000010
00001000
,  // measure 22
00000010
00000000
00000000
00000000
00000100
00000000
00000000
00000100
,  // measure 23
00000000
00000000
00000001
00000100
,  // measure 24
00000001
00000000
00000000
00000000
00000010
00000000
00000000
00000001
,  // measure 25
00000000
00000010
00000100
00001000
,  // measure 26
00000001
00000000
00000000
00000000
00000000
00000000
00000000
00001100
,  // measure 27
00000000
00000000
00001000
00000100
,  // measure 28
00010000
00000000
00001000
00000000
00010000
00000000
00000000
00010000
,  // measure 29
00000000
00000000
00010000
00100000
,  // measure 30
00010000
00000000
00000000
00000000
01000000
00000000
00000000
01000000
,  // measure 31
00000000
00000000
00100000
10000000
,  // measure 32
00100000
00000000
00000000
00000000
01000000
00000000
00000000
00010000
,  // measure 33
00000000
00000000
00100000
00110000
,  // measure 34
00010000
00000000
00000000
00000000
,  // measure 35
00001000
00000000
00000000
00000000
,  // measure 36
00000100
00000000
00000000
00000000
,  // measure 37
00000010
00000000
00000000
00000000
,  // measure 38
00000001
00000100
00000001
00000100
,  // measure 39
00000010
00001000
00000010
00001000
,  // measure 40
00000001
00000010
00000100
00001000
,  // measure 41
00000020
00000000
00000030
00001001
,  // measure 42
00001000
00000000
00000000
00000000
00001000
00000000
00000000
00010000
,  // measure 43
00000000
00000000
00010000
00000000
00010000
00000000
00000000
00100000
,  // measure 44
00000000
00000000
00100000
00000000
00100000
00000000
00000000
00010000
,  // measure 45
00000000
00010000
00010000
00100000
,  // measure 46
00010000
00000000
00000000
00000000
00010000
00000000
00000000
01000000
,  // measure 47
00000000
00000000
01000000
00000000
01000000
00000000
00000000
00100000
,  // measure 48
00000000
00000000
00100000
00000000
00100000
00000000
00000000
10000000
,  // measure 49
00000000
10000000
01000000
00100000
,  // measure 50
01000000
01000000
01000000
01000000
,  // measure 51
10000000
10000000
10000000
10000000
,  // measure 52
00100000
00100000
00100000
00100000
,  // measure 53
01000000
01000000
01000000
01000000
,  // measure 54
00010000
00100000
00010000
00100000
,  // measure 55
00010000
01000000
00010000
01000000
,  // measure 56
00010000
00100000
00001000
00010000
,  // measure 57
00002000
00000000
00003000
00011000
,  // measure 58
00010000
00001000
00010000
00001000
,  // measure 59
00000100
00001000
00000100
00001000
,  // measure 60
00010000
00000010
00010000
00000010
,  // measure 61
00001000
00000010
00001000
00000010
,  // measure 62
00000100
00000001
00000100
00000001
,  // measure 63
00000010
00000100
00000010
00000100
,  // measure 64
00001000
00000100
00001000
00000100
,  // measure 65
00000001
00000100
00001000
00000100
,  // measure 66
00010000
00001000
00010000
00001000
,  // measure 67
00010000
00100000
00010000
01000000
,  // measure 68
00100000
10000000
00100000
01000000
,  // measure 69
00010000
01000000
00100000
10000000
,  // measure 70
01000000
00100000
00010000
00100000
,  // measure 71
00001000
00010000
00001000
00000100
,  // measure 72
00000010
00000100
00001000
00010000
,  // measure 73
00100000
01000000
00100000
00010000
,  // measure 74
00011000
00000000
00000000
00000000
;

//---------------dance-double - leeium-DDP----------------
#NOTES:
     dance-double:
     leeium:
     Medium:
     11:
     0.435481,0.501287,0.075268,0.052688,0.007527,405,395,10,7,0,0,0.435481,0.501287,0.075268,0.052688,0.007527,405,395,10,7,0,0:
// measure 0
00000000
00000000
00000000
00000000
,  // measure 1
00000000
00000000
00000000
00000000
,  // measure 2
00000000
00000000
00001000
00000000
,  // measure 3
00000000
00000000
00001000
00000000
,  // measure 4
00000000
00000000
00010000
00000000
,  // measure 5
00000000
00000000
00010000
00000000
,  // measure 6
00001000
00000000
00000000
00001000
00000000
00001000
00001000
00000000
,  // measure 7
00000000
00000100
00000100
00000000
00000100
00000000
00001000
00000000
,  // measure 8
00010000
00000000
00000000
00010000
00000000
00010000
00010000
00000000
,  // measure 9
00000000
01000000
01000000
00000000
01000000
00000000
00010000
00000000
,  // measure 10
00001000
00001000
00001000
00001000
,  // measure 11
00000100
00000100
00000100
00000100
,  // measure 12
00000010
00000010
00000010
00000010
,  // measure 13
00000001
00000001
00000001
00000001
,  // measure 14
00000100
00000001
00000100
00000001
00000100
00000001
00000100
00000001
,  // measure 15
00001000
00000010
00001000
00000010
00001000
00000010
00001000
00000010
,  // measure 16
00001000
00000100
00000010
00000001
00000010
00000100
00001000
00000001
,  // measure 17
00002000
00000000
00000000
00003001
,  // measure 18
00000101
00000100
00000100
00000100
00000010
00000000
00000000
00001010
,  // measure 19
00000000
00001000
00001000
00001000
00000010
00000000
00001000
00000000
,  // measure 20
00000100
00010000
00001000
00000000
00001000
00010000
00001000
00100000
,  // measure 21
00010000
00100000
00010000
00100000
00010000
01000000
00100000
00000000
,  // measure 22
10100000
00000000
00000000
00000000
00000000
00000000
00000000
00000000
10000000
00000000
00000000
00010000
00000000
00000000
01010000
00000000
,  // measure 23
00000000
00000000
00000000
00000000
01000000
00010000
00100000
00010000
,  // measure 24
00200000
00000000
00000000
00000000
00310000
01000000
00000000
00200000
,  // measure 25
00000000
00000000
00000000
00000000
01300000
00010000
01000000
00000000
,  // measure 26
10100000
00100000
00100000
00100000
01000000
00000000
00000000
01010000
,  // measure 27
00000000
00010000
00010000
00010000
01000000
00000000
00010000
00000000
,  // measure 28
00100000
00001000
00010000
00000000
00010000
00001000
00010000
00000010
,  // measure 29
00001000
00000010
00001000
00000010
00000100
00000010
00000100
00000000
,  // measure 30
00000101
00000000
00000000
00000000
00000000
00000000
00000000
00000000
00000001
00000000
00000000
00001000
00000000
00000000
00001100
00000000
,  // measure 31
00000000
00000000
00000000
00000000
00000100
00000010
00000100
00000010
,  // measure 32
00000002
00000000
00000000
00000000
00001003
00000010
00000000
00000200
,  // measure 33
00000000
00000000
00000000
00000000
00000310
00001000
00000010
00000000
,  // measure 34
00001000
00001000
00001000
00001000
,  // measure 35
00010000
00010000
00010000
00010000
,  // measure 36
00100000
00100000
00100000
00100000
,  // measure 37
01000000
01000000
01000000
01000000
,  // measure 38
10000000
01000000
10000000
01000000
10000000
01000000
10000000
01000000
,  // measure 39
00100000
00010000
00100000
00010000
00100000
00010000
00100000
00010000
,  // measure 40
01000000
00100000
10000000
01000000
00100000
00010000
00100000
01000000
,  // measure 41
20000000
00000000
00000000
30100000
,  // measure 42
10000000
00000000
00000000
10000000
10000000
00100000
10000000
00100000
,  // measure 43
00000000
00100000
00100000
00100000
01000000
00100000
01000000
00010000
,  // measure 44
00000000
00010000
00010000
00010000
00100000
00010000
00100000
01000000
,  // measure 45
00000000
01000000
01000000
01000000
00100000
00010000
00100000
00001000
,  // measure 46
00010000
00000000
00000000
00010000
00010000
00001000
00010000
00001000
,  // measure 47
00000000
00001000
00001000
00001000
00010000
00001000
00010000
00000010
,  // measure 48
00000000
00000010
00000010
00000010
00001000
00000010
00000100
00000010
,  // measure 49
00000000
00000010
00000010
00000010
00000100
00000010
00001000
00000100
,  // measure 50
00001000
00001000
00000100
00000100
,  // measure 51
00000010
00000010
00000001
00000001
,  // measure 52
00000100
00000100
00000010
00000010
,  // measure 53
00001000
00001000
00000100
00000100
,  // measure 54
00001000
00000010
00001000
00000010
00001000
00000010
00001000
00000010
,  // measure 55
00001000
00000100
00001000
00000100
00001000
00000100
00001000
00000100
,  // measure 56
00001000
00000010
00001000
00000100
00010000
00001000
00100000
00001000
,  // measure 57
00020000
00000000
00000000
00031000
,  // measure 58
00010000
00000000
00000000
00010000
00010000
00001000
00010000
00001000
,  // measure 59
00000000
00001000
00001000
00001000
00010000
00001000
00000100
00001000
,  // measure 60
00000000
00001000
00001000
00001000
00000100
00000010
00000100
00000010
,  // measure 61
00000000
00000010
00000010
00000010
00001000
00000010
00000100
00000010
,  // measure 62
00000100
00000000
00000000
00000100
00000100
00000010
00000100
00000001
,  // measure 63
00000000
00000001
00000001
00000001
00000100
00000001
00001000
00000001
,  // measure 64
00000000
00000001
00000001
00000001
00000010
00000100
00000010
00000100
,  // measure 65
00000000
00000100
00000100
00000100
00000010
00000000
00001001
00000000
,  // measure 66
00001000
00000000
00001000
00000100
00000100
00001000
00000100
00010000
,  // measure 67
00001000
00010000
00010000
00010000
00001000
00010000
00001000
01000000
,  // measure 68
00010000
00100000
00100000
00100000
00010000
00100000
00010000
01000000
,  // measure 69
00100000
10000000
10000000
10000000
00100000
01000000
00100000
00100000
,  // measure 70
01000000
00000000
01000000
00010000
00100000
00010000
00100000
00001000
,  // measure 71
00010000
00001000
00001000
00010000
00000100
00010000
00000010
00001000
,  // measure 72
00000010
00000100
00000100
00000010
00000100
00000001
00000100
00000001
,  // measure 73
00001000
00000010
00000010
00001000
00000100
00000100
00010000
00001000
,  // measure 74
00011000
00000000
00000000
00000000
;

//---------------dance-double - leeium-EDP----------------
#NOTES:
     dance-double:
     leeium:
     Hard:
     14:
     0.551609,0.724081,0.112902,0.127956,0.304837,513,498,15,17,0,0,0.551609,0.724081,0.112902,0.127956,0.304837,513,498,15,17,0,0:
// measure 0
00000000
00000000
00000000
00000000
,  // measure 1
00000000
00000000
00000000
00000000
,  // measure 2
00000000
00000000
00001000
00000000
,  // measure 3
00000000
00000000
00001000
00000000
,  // measure 4
00000000
00000000
00010000
00000000
,  // measure 5
00000000
00000000
00010000
00000000
,  // measure 6
01000000
00000000
00000000
10000000
00000000
10000000
01000000
00000000
,  // measure 7
00000000
01000000
00100000
00000000
00010000
00000000
00001000
00000000
,  // measure 8
00000100
00000000
00000000
00000010
00000000
00000010
00000001
00000000
,  // measure 9
00000000
00000001
00000100
00000000
00001000
00000000
00010000
00000000
,  // measure 10
00001000
00001000
00000010
00000010
,  // measure 11
00000100
00000100
00001000
00001000
,  // measure 12
00010000
00010000
00100000
00100000
,  // measure 13
01000000
01000000
10000000
10000000
,  // measure 14
01000000
00000000
00100000
00000000
01000000
00000000
00100000
00000000
00010000
00000000
00100000
00000000
00010000
00000000
00100000
00010000
,  // measure 15
00100000
00000000
00001000
00000000
00100000
00000000
00001000
00000000
00010000
00000000
00001000
00000000
00010000
00000000
00001000
00010000
,  // measure 16
00000010
00001000
00000010
00001000
00000010
00001000
00000010
00001000
00000010
00000100
00000010
00000100
00000010
00000100
00000010
00000100
,  // measure 17
00000002
00000000
00000003
00001001
,  // measure 18
00002100
00000100
00000100
00003100
00010000
00000000
00000000
01010000
,  // measure 19
00000000
00000000
00000000
00000000
01000000
00000000
00000000
00000000
00010000
00000000
00000000
00000000
01000000
00000000
00000000
00000000
00000000
00000000
01000000
00000000
00000000
00000000
00000000
00000000
00010000
00000000
00000000
00000000
00000000
00000000
01000000
00000000
00000000
00000000
00000000
00000000
00100000
00000000
00000000
10000000
00000000
00000000
00100000
00000000
00000000
10000000
00000000
00000000
,  // measure 20
00100000
02000000
00010000
00000000
03100000
01000000
00010000
00100000
,  // measure 21
01000000
10000000
01000000
10000000
01000000
10000000
01000000
10000000
01000000
00000000
00100000
00000000
00010000
00000000
00000000
00000000
,  // measure 22
01020000
00000000
01000000
00000000
01000000
00000000
01030000
00000000
00001000
00000000
00000000
00010000
00000000
00000000
00001100
00000000
,  // measure 23
00000000
00000000
00000000
00000000
00000100
00000000
00000000
00000000
00001000
00000000
00000000
00000000
00000100
00000000
00000000
00000000
00000000
00000000
00000100
00000000
00000000
00000000
00000000
00000000
00000010
00000000
00000000
00000000
00000000
00000000
00000100
00000000
00000000
00000000
00000000
00000000
00001000
00000000
00000000
00000100
00000000
00000000
00001000
00000000
00000000
00000100
00000000
00000000
,  // measure 24
00000020
00000000
00000100
00000000
00000031
00001000
00000000
00001020
,  // measure 25
00000000
00000000
00001030
00000100
00010000
00001000
00100000
00000000
,  // measure 26
00120000
00100000
00100000
00130000
00001000
00000000
00000000
00001010
,  // measure 27
00000000
00000000
00000000
00000000
00000010
00000000
00000000
00000000
00001000
00000000
00000000
00000000
00000010
00000000
00000000
00000000
00000000
00000000
00000010
00000000
00000000
00000000
00000000
00000000
00000100
00000000
00000000
00000000
00000000
00000000
00000001
00000000
00000000
00000000
00000000
00000000
00001000
00000000
00000000
00000001
00000000
00000000
00001000
00000000
00000000
00000001
00000000
00000000
,  // measure 28
00001000
00000020
00000001
00000000
00000130
00000001
00000010
00000100
,  // measure 29
00000010
00000001
00000010
00000001
00000010
00000001
00000010
00000001
00000010
00000000
00000100
00000000
00001000
00000000
00000000
00000000
,  // measure 30
00002010
00000000
00000010
00000000
00000010
00000000
00003010
00000000
00010000
00000000
00000000
00001000
00000000
00000000
00110000
00000000
,  // measure 31
00000000
00000000
00000000
00000000
00010000
00000000
00000000
00000000
00100000
00000000
00000000
00000000
00010000
00000000
00000000
00000000
00000000
00000000
00010000
00000000
00000000
00000000
00000000
00000000
01000000
00000000
00000000
00000000
00000000
00000000
00100000
00000000
00000000
00000000
00000000
00000000
10000000
00000000
00000000
00100000
00000000
00000000
10000000
00000000
00000000
00100000
00000000
00000000
,  // measure 32
10000000
02000000
00010000
00000000
03100000
00010000
00000000
00210000
,  // measure 33
00000000
00000000
00310000
01000000
00100000
00010000
00001000
00000000
,  // measure 34
00010000
00010000
00010000
00010000
,  // measure 35
01000000
01000000
01000000
01000000
,  // measure 36
00001000
00001000
00001000
00001000
,  // measure 37
00000100
00000100
00000100
00000100
,  // measure 38
00000010
00000000
00000001
00000000
00000010
00000000
00000001
00000000
00001000
00000000
00000010
00000000
00001000
00000000
00000010
00001000
,  // measure 39
00000010
00000000
00010000
00000000
00000010
00000000
00010000
00000000
00001000
00000000
00010000
00000000
00001000
00000000
00010000
00001000
,  // measure 40
00100000
00010000
00100000
00010000
00100000
00010000
00100000
00010000
01000000
00010000
01000000
00010000
01000000
00010000
01000000
00010000
,  // measure 41
20000000
00000000
30000000
10010000
,  // measure 42
00200000
00000000
00000000
00000000
00300000
00000000
00100000
10000000
00100000
00000000
01000000
00000000
00100000
00000000
10000000
00000000
,  // measure 43
00000000
00000000
10000000
00000000
10000000
00000000
10000000
01000000
10000000
00000000
01000000
00000000
00100000
00000000
00010000
00000000
,  // measure 44
00000000
00000000
00010000
00000000
00010000
00000000
00010000
00100000
00010000
00000000
00100000
00000000
00001000
00000000
00010000
00000000
,  // measure 45
00000000
00000000
00010000
00000000
00010000
00000000
00010000
00001000
00010000
00000000
00000010
00000000
00001000
00000000
00000010
00000000
,  // measure 46
00000100
00000000
00000100
00000000
00000000
00000000
00000100
00000010
00000100
00000000
00000010
00000000
00001000
00000000
00000001
00000000
,  // measure 47
00000000
00000000
00000001
00000000
00000001
00000000
00000001
00000010
00000001
00000000
00001000
00000000
00000100
00000000
00000010
00000000
,  // measure 48
00000000
00000000
00000010
00000000
00000010
00000000
00000010
00000100
00000010
00000000
00000100
00000000
00001000
00000000
00000100
00000000
,  // measure 49
00000000
00000000
00000100
00000000
00000100
00000000
00000100
00001000
00000100
00000000
00000010
00000000
00000001
00000000
00000100
00000000
,  // measure 50
00001000
00001000
00000100
00000100
,  // measure 51
00000010
00000010
00001000
00001000
,  // measure 52
00010000
00010000
00100000
00100000
,  // measure 53
01000000
01000000
10000000
10000000
,  // measure 54
00100000
00000000
01000000
00000000
00100000
00000000
01000000
00000000
00010000
00000000
01000000
00000000
00010000
00000000
01000000
00010000
,  // measure 55
01000000
00000000
00001000
00000000
01000000
00000000
00001000
00000000
00010000
00000000
00001000
00000000
00010000
00000000
00001000
00010000
,  // measure 56
00000010
00001000
00000010
00001000
00000010
00001000
00000010
00010000
00000100
00010000
00000100
00010000
00000100
00010000
00000100
00010000
,  // measure 57
00002000
00000000
00003000
00011000
,  // measure 58
00020000
00000000
00000000
00000000
00130000
00000000
10000000
00100000
10000000
00000000
00100000
00000000
01000000
00000000
00010000
00000000
,  // measure 59
00000000
00000000
00010000
00000000
00010000
00000000
00010000
01000000
00010000
00000000
00100000
00000000
00001000
00000000
00010000
00000000
,  // measure 60
00000000
00000000
00010000
00000000
00010000
00000000
00010000
00001000
00010000
00000000
00000010
00000000
00001000
00000000
00000100
00000000
,  // measure 61
00000000
00000000
00000100
00000000
00000100
00000000
00000100
00000010
00000100
00000000
00001000
00000000
00000100
00000000
00000010
00000000
,  // measure 62
00000001
00000000
00000001
00000000
00000000
00000000
00000001
00000100
00000001
00000000
00000100
00000000
00000001
00000000
00001000
00000000
,  // measure 63
00000000
00000000
00001000
00000000
00001000
00000000
00001000
00000100
00001000
00000000
00010000
00000000
00001000
00000000
00010000
00000000
,  // measure 64
00000000
00000000
00010000
00000000
00010000
00000000
00010000
00100000
00010000
00000000
00100000
00000000
00010000
00000000
01000000
00000000
,  // measure 65
00000000
00000000
01000000
00000000
01000000
00000000
01000000
00010000
01000000
00000000
00100000
00000000
10100000
00000000
01000000
00000000
,  // measure 66
00020000
00000000
00000000
00000000
01030000
00000000
10000000
01000000
10000000
00000000
01000000
00000000
00100000
00000000
01000000
00000000
,  // measure 67
00010000
00000000
00100000
00000000
00100000
00000000
00100000
00010000
00100000
00000000
00010000
00000000
01000000
00000000
00001000
00000000
,  // measure 68
00010000
00000000
00001000
00000000
00001000
00000000
00001000
00010000
00001000
00000000
00000100
00000000
00000010
00000000
00001000
00000000
,  // measure 69
00000100
00000000
00000010
00000000
00000010
00000000
00000010
00000001
00000010
00000000
00000010
00000000
00000001
00000010
00000001
00000000
,  // measure 70
00002000
00000000
00000000
00000000
00003010
00000000
00000001
00000010
00000001
00000000
00000010
00000000
00000100
00000000
00000010
00000000
,  // measure 71
00001000
00000000
00000100
00000000
00000100
00000000
00010000
00001000
00010000
00000000
00001000
00000000
01000000
00000000
00010000
00000000
,  // measure 72
01000000
00000000
00100000
00000000
00100000
00000000
00010000
00100000
00010000
00000000
00100000
00000000
01000000
00000000
00010000
00000000
,  // measure 73
00100000
00000000
01000000
00000000
00010000
00000000
01000000
00000000
00100000
00001000
00100000
00000000
00001000
00000000
00010000
00000000
,  // measure 74
00011000
00000000
00000000
00000000
;
