#TITLE:Mermaid girl -秋葉工房 MIX-;
#ARTIST:Remixed by DJ Command;
#TITLETRANSLIT:Mermaid girl -Akiba Koubou MIX-;
#BANNER:Mermaid girl -Akiba Koubou MIX-.png;
#BACKGROUND:Mermaid girl -Akiba Koubou MIX--bg.png;
#MUSIC:Mermaid girl -Akiba Koubou MIX-.ogg;
#OFFSET:-3.585;
#SAMPLESTART:55.985;
#SAMPLELENGTH:15;
#BPMS:0=150;

//---------------dance-single - Kowalski-bSP----------------
#NOTES:
     dance-single:
     Kowalski:
     Beginner:
     2:
     0.152805,0.196479,0.075860,0,0,141,131,10,0,0,0,0.152805,0.196479,0.075860,0,0,141,131,10,0,0,0:
0000
0000
0000
0000
,
0000
0000
0000
0000
,
0000
0000
0000
0000
,
0000
0000
0000
0000
,
0010
0000
0000
0000
,
0100
0000
0000
0000
,
0010
0000
0010
0000
,
1001
0000
0000
0000
,
0001
0000
0001
0000
,
0001
0000
0100
0000
,
0100
0000
0100
0000
,
1000
0000
1000
0000
,
1000
0000
0010
0000
,
0010
0000
0010
0000
,
0010
0000
0100
0000
,
0001
0000
0000
0000
,
1001
0000
0000
0000
,
0010
0000
0010
0000
,
0001
0000
0001
0000
,
0001
0000
1000
0000
,
1000
0000
1000
0000
,
0010
0000
0010
0000
,
0100
0000
0100
0000
,
1000
0000
1000
0000
,
0010
0000
0010
0000
,
0001
0001
0001
0001
,
0000
1000
1000
0000
,
0010
0010
0010
0010
,
0000
0000
0000
0000
,
0100
0100
0100
0100
,
0000
0000
0000
0000
,
0010
0000
0010
0000
,
0110
0000
0000
0000
,
0001
0000
0001
0000
,
0100
0000
0100
0000
,
0010
0000
0010
0000
,
1000
0000
1000
0000
,
0010
0000
0010
0000
,
0100
0000
0100
0000
,
0001
0000
0001
0000
,
1001
0000
0000
0000
,
0010
0000
0010
0000
,
0100
0100
0100
0000
,
0001
0000
0001
0000
,
0010
0010
0010
0000
,
1000
0000
1000
0000
,
0001
0001
0001
0000
,
0010
0000
0010
0000
,
0100
0000
0000
0000
,
1001
0000
0000
0000
,
0010
0000
0000
0000
,
0100
0000
0000
0000
,
0010
0000
0000
0000
,
0110
0000
0000
0000
,
0010
0000
1001
0000
,
0100
0000
0010
0000
,
0110
0000
0000
0000
,
0110
0000
0000
0000
,
0001
0000
0001
0000
,
0010
0000
0010
0000
,
0100
0000
0100
0000
,
1000
0000
1000
0000
,
0001
0000
0001
0000
,
0010
0000
0010
0000
,
0100
0000
0100
0000
,
1000
0000
1000
0000
,
0010
0000
0010
0000
,
0100
0000
0100
0000
,
0001
0000
0001
0000
,
1000
0000
1000
0000
,
0010
0000
0010
0000
,
0100
0000
0100
0000
,
0001
0000
0001
0000
,
0010
0000
0100
0000
,
1001
0000
0000
0000
;

//---------------dance-single - Kowalski-BSP----------------
#NOTES:
     dance-single:
     Kowalski:
     Easy:
     5:
     0.234084,0.336820,0.189651,0.060688,0,216,191,25,8,0,0,0.234084,0.336820,0.189651,0.060688,0,216,191,25,8,0,0:
0000
0000
0000
0000
,
0000
0000
0000
0000
,
0000
0000
0000
0000
,
0000
0000
0000
0000
,
0001
0000
0001
0000
,
1000
0000
1000
0000
,
1000
0100
1000
0000
,
2002
0000
0000
3003
,
0100
1000
0100
0000
,
0010
0100
0010
0000
,
0100
0001
0100
0000
,
0001
0001
1000
1001
,
0001
0010
0001
0000
,
0001
1000
0001
0000
,
0100
0100
0010
0010
,
0001
0001
0100
0010
,
0110
0000
0000
0000
,
0010
0100
1000
0000
,
0100
0010
0001
0000
,
0010
0010
0100
0100
,
0100
1001
0000
0000
,
0100
0100
0100
0000
,
0010
0010
0010
0000
,
1001
0000
0010
0000
,
0010
0100
0010
0000
,
0100
1000
0100
1000
,
0000
0010
1000
0000
,
0200
0000
0320
0000
,
2030
0000
0000
3000
,
0001
0010
0001
0010
,
0001
1001
1001
0000
,
0100
0010
0100
0010
,
0100
0110
1001
0000
,
0001
0000
0100
0000
,
1000
0010
0100
0000
,
0001
0001
0010
0011
,
0000
0010
0010
0000
,
0001
0000
0010
0000
,
0100
1000
0100
0000
,
0001
0100
0101
0000
,
0101
0000
0000
0000
,
0100
0000
0100
0000
,
0010
0010
1000
0000
,
0010
0000
0010
0000
,
1000
1000
0010
0000
,
0001
0000
0001
0000
,
0100
0100
1000
0000
,
1001
0000
1001
0000
,
1001
0000
0000
0000
,
0010
0000
0100
0000
,
0010
0000
0001
0000
,
0100
0000
2000
0000
,
0000
0000
3000
0000
,
0001
0001
0001
0001
,
0100
0100
1001
0000
,
0010
0010
0100
0100
,
0110
0110
0110
0000
,
2002
0000
0000
3003
,
0001
0000
0001
0000
,
0010
0100
0001
0000
,
0010
1000
0010
1010
,
0000
0100
0100
0000
,
0001
0000
0001
0000
,
0010
1000
0001
0000
,
0001
0001
0100
0101
,
0000
0001
0001
1001
,
0001
0010
0001
0000
,
0010
0100
0010
0000
,
1000
1000
0001
0000
,
0010
0100
0010
1001
,
0100
0100
0010
0000
,
0001
0010
0100
0000
,
0001
0001
0001
0000
,
1000
1000
1000
1000
,
1001
0000
0000
0000
;

//---------------dance-single - Kowalski-DSP----------------
#NOTES:
     dance-single:
     Kowalski:
     Medium:
     7:
     0.313195,0.392957,0.204823,0.295856,0,289,262,27,39,0,0,0.313195,0.392957,0.204823,0.295856,0,289,262,27,39,0,0:
0000
0000
0000
0000
,
0000
0000
0000
0000
,
0000
0000
0000
0000
,
0000
0000
0000
0000
,
0010
0000
0010
0000
,
0100
0000
0010
0000
,
1000
0010
1000
0000
,
2002
0000
0000
3003
,
0010
0000
1000
0000
0010
1000
0010
0000
,
0000
0010
0001
0001
,
0100
0000
0001
0000
0100
0001
0100
0000
,
0001
0001
2000
3001
,
0100
0000
0010
0000
0100
0010
0100
0000
,
0001
1000
0001
0001
,
2000
3100
0200
0310
,
0020
0031
0002
0013
,
0110
0110
1001
0000
,
0001
0100
0001
0000
,
0010
0000
0100
0100
0010
0000
0000
0000
,
0001
0000
0001
0000
1000
0000
1000
0010
,
1000
0100
0001
0000
,
1000
1000
1000
1001
,
0110
0000
0110
0000
0110
0000
1000
0100
,
1000
0100
0001
0100
,
0010
0200
0310
0000
,
0001
0000
1000
1000
0100
0000
0010
0000
,
0001
0010
1000
0000
,
2000
3001
0002
0023
,
0230
0000
0000
0300
,
1000
0000
0001
0000
0001
0010
0100
0000
,
2000
3002
1003
0000
,
0001
0001
1000
1000
,
1001
1001
0110
0000
,
0001
0000
0001
0000
0100
0100
0100
0000
,
1000
0000
0100
0000
0001
0100
0001
0000
,
1000
0001
0100
1001
,
2000
0100
3100
0000
,
0001
0000
0100
0000
1000
1000
1000
0000
,
0010
0000
0001
0000
0100
0001
0100
0000
,
0002
0103
2000
3010
,
2002
0000
0000
3003
,
0100
0000
0100
0000
0010
0100
0010
0000
,
1001
1001
1001
0000
,
1000
0000
1000
0000
0001
1000
0001
0000
,
0110
0110
0110
0000
,
1000
0000
1000
0000
1000
0100
0001
0000
,
0001
0000
0010
0000
0001
0010
0100
0000
,
0200
0310
0020
0031
,
0002
1003
0010
0100
,
0002
0000
0000
0000
,
2003
0000
0000
0000
,
3020
0000
0230
0000
,
0002
0000
0000
0303
,
0010
0000
0010
0000
0010
0100
0010
0000
,
0020
1030
1010
0000
,
0001
0010
0100
1000
,
1001
1001
1001
0000
,
0220
0000
0000
0330
,
0001
0000
0100
0000
1000
1000
1000
0000
,
0010
0000
1000
0000
0010
1000
0001
0000
,
0010
1000
0010
1001
,
0002
0010
0013
0000
,
0001
0000
0010
0000
0001
0001
0001
0000
,
0010
0000
1000
0000
0001
0010
1000
0000
,
2000
3010
0020
0031
,
0022
0000
0000
0033
,
1000
0000
0010
0000
1000
0010
1000
0000
,
0001
0000
0100
0000
0010
0001
0100
0000
,
0001
0000
0001
0000
0100
0001
0100
0000
,
0001
0100
0002
0013
,
1000
0000
0010
0000
1000
0010
1000
0000
,
0010
0000
1000
0000
1000
0100
0001
0000
,
0200
0301
0002
0013
,
0020
0000
0130
0000
0100
0100
0100
0000
,
1001
0000
0000
0000
;

//---------------dance-single - Kowalski & DDRDAIKENKAI-ESP----------------
#NOTES:
     dance-single:
     Kowalski & DDRDAIKENKAI:
     Hard:
     11:
     0.473586,0.477162,0.212409,0.136549,0.109998,437,409,28,18,0,0,0.473586,0.477162,0.212409,0.136549,0.109998,437,409,28,18,0,0:
// measure 0
0000
0000
0000
0000
,  // measure 1
0000
0000
0000
0000
,  // measure 2
0000
0000
0000
0000
,  // measure 3
0000
0000
0000
0000
,  // measure 4
0001
0000
0000
0001
0000
0000
0001
0000
0000
0000
0000
0000
0000
0000
0000
0000
,  // measure 5
1000
0000
0000
1000
0000
0000
1000
0000
0000
0000
0000
0000
0000
0000
0000
0000
,  // measure 6
0010
0000
0100
0010
0000
0100
0010
0000
0100
0000
0010
0000
0100
0000
0000
0000
,  // measure 7
2002
0000
0000
3003
,  // measure 8
0001
0010
0100
1000
0010
0100
1000
0000
,  // measure 9
1000
0100
1000
0100
0001
1000
0001
0000
,  // measure 10
1000
0100
0010
0001
0100
0010
0001
0000
,  // measure 11
0010
0000
0000
1000
0000
0000
0001
0000
0001
0000
0000
0000
1001
0000
0000
0000
,  // measure 12
0010
0100
1000
0001
0010
0001
0010
0000
,  // measure 13
0001
0010
0100
1000
0010
1000
0010
0000
,  // measure 14
1000
0100
1000
0100
0010
0100
0010
0100
,  // measure 15
0010
0000
0000
0001
0000
0000
0001
0000
0100
0000
0010
0000
1000
0000
0000
0000
,  // measure 16
1001
2002
3003
0000
,  // measure 17
0001
0010
0100
0000
1000
0000
0001
0000
,  // measure 18
1000
0100
1000
0100
0000
0010
0100
0000
,  // measure 19
1000
0000
1000
0000
0010
0000
1000
0010
,  // measure 20
1000
0010
0100
0000
0001
0000
0001
0010
,  // measure 21
1000
1010
0011
0100
,  // measure 22
1001
0000
0010
0000
1001
0000
0001
0100
,  // measure 23
0100
0001
0001
0100
,  // measure 24
0010
0100
0001
0100
0001
0010
0100
1000
,  // measure 25
1000
0000
1000
0100
0001
0100
0001
0000
,  // measure 26
0001
0010
1000
0000
1000
0000
0010
0000
,  // measure 27
1010
1000
1001
0001
,  // measure 28
0020
0000
0000
0000
0000
0030
0000
0000
,  // measure 29
0100
0010
0100
0010
0001
0010
0001
0000
,  // measure 30
0011
0001
1001
0000
,  // measure 31
1010
0010
0110
0100
,  // measure 32
0101
1010
0002
0000
,  // measure 33
1003
0000
0010
1000
0000
0010
1000
0000
0010
0000
1000
0000
0100
0000
0000
0000
,  // measure 34
0001
0100
0010
1000
0010
0100
1000
0000
,  // measure 35
0010
0000
1000
0010
0000
1000
0010
0000
0100
0000
0010
0000
0100
0000
0000
0000
,  // measure 36
0001
0010
1000
0010
0001
0000
2001
0000
,  // measure 37
3100
0000
0010
0001
0000
0010
0001
0000
0010
0000
0001
0000
0100
0000
0000
0000
,  // measure 38
0001
0010
0100
1000
0010
0100
1000
0000
,  // measure 39
0100
0000
0001
0010
0000
0001
0010
0000
0100
0000
1000
0000
0001
0000
0000
0000
,  // measure 40
0100
0000
0010
1000
0000
0010
1000
0000
0100
0000
0010
0000
0002
0000
0000
0000
,  // measure 41
1003
0100
1000
0100
1000
0010
0100
0000
,  // measure 42
0001
0001
0100
0100
0010
1000
2001
0000
,  // measure 43
3001
0100
0001
0100
0001
0010
0100
0000
,  // measure 44
1000
1000
0010
0010
0100
0000
0110
0000
,  // measure 45
0001
0100
0001
0100
0001
0010
0100
0000
,  // measure 46
1000
0100
0010
0001
0100
0010
0001
0000
,  // measure 47
0010
1000
0010
1000
0010
0001
0010
0001
,  // measure 48
0010
0000
0000
0100
0000
0000
0100
0000
0001
0000
1000
0000
0001
0000
0000
0000
,  // measure 49
2000
0000
3200
0000
,  // measure 50
0320
0000
0032
0000
,  // measure 51
0023
0230
2300
3002
,  // measure 52
0203
0000
0000
0300
,  // measure 53
0100
0001
0100
0001
0100
0010
0100
0010
,  // measure 54
0110
1010
1001
0000
,  // measure 55
1000
0010
1000
0010
1000
0001
1000
0001
,  // measure 56
1001
0010
0110
0000
,  // measure 57
1001
0000
0000
0000
,  // measure 58
1000
0000
0010
1000
0000
1000
0010
0000
0100
0000
0010
0000
0001
0000
0000
0000
,  // measure 59
0010
1000
0001
0100
0010
1000
0100
0000
,  // measure 60
0010
0000
0010
0100
0000
0010
0100
0000
0010
0000
0100
0000
0001
0000
0000
0000
,  // measure 61
0100
0001
0100
1000
0001
0000
1001
0000
,  // measure 62
1000
0000
0100
0010
0000
0010
0100
0000
1000
0000
0010
0000
0100
0000
0000
0000
,  // measure 63
0001
0100
0010
1000
0010
1000
0100
0000
,  // measure 64
1000
0000
0010
1000
0000
0010
1000
0000
1000
0000
0010
0000
1000
0000
0000
0000
,  // measure 65
0001
0000
0001
1000
0000
1000
0001
0000
0010
0000
0010
0000
0001
0000
0000
0000
,  // measure 66
0010
0100
1000
0010
0100
0010
0100
0000
,  // measure 67
1000
0100
0010
1000
0001
0010
0001
0000
,  // measure 68
1000
0010
1000
0100
1000
0100
1000
0000
,  // measure 69
0100
0000
0000
0010
0000
0000
0010
0000
0001
0000
0000
0000
1001
0000
0000
0000
,  // measure 70
1000
0100
0010
0001
0100
0010
0001
0000
,  // measure 71
0010
1000
0010
0100
0001
0100
0001
0000
,  // measure 72
0001
0010
0001
0010
0001
0010
0100
0010
,  // measure 73
0100
0000
0000
1000
0000
0000
1000
0000
0100
0000
1000
0000
0001
0000
0000
0000
,  // measure 74
1001
0000
0000
0000
;

//---------------dance-single - DDRDAIKENKAI-CSP----------------
#NOTES:
     dance-single:
     DDRDAIKENKAI:
     Challenge:
     13:
     0.607967,0.645572,0.166893,0.265512,0.436198,561,539,22,35,0,0,0.607967,0.645572,0.166893,0.265512,0.436198,561,539,22,35,0,0:
0000
0000
0000
0000
,
0000
0000
0000
0000
,
0000
0000
0000
0000
,
0000
0000
0000
0000
0000
0000
0000
0000
0000
0000
0000
0000
0000
0000
1000
0001
,
1000
0000
0000
1000
0000
0000
1000
0000
0000
1000
0001
0000
0100
0010
1000
0000
,
0001
0000
0000
0001
0000
0000
0001
0000
0000
0001
1000
0000
0010
0000
0100
0010
,
0100
0001
0100
0001
1000
0010
1000
0000
,
2002
0000
0000
0000
3003
0000
1000
0100
,
1000
0000
0001
1000
0000
0001
0100
0000
0010
0000
1000
0000
0001
0000
0000
0000
,
1000
0001
0000
1000
0000
0100
1000
0000
0001
0000
0010
0000
0100
0000
0000
0000
,
0010
0000
0001
1000
0000
0001
1000
0000
0010
0000
0100
0000
0002
0000
0000
0000
,
1003
0000
0000
0001
0000
0000
0100
0000
0010
0000
0000
0000
1002
0000
0000
0000
,
1003
0010
0000
0100
0000
0001
0100
0000
0010
0000
1000
0000
0001
0000
0000
0000
,
1000
0100
0000
0010
0000
0001
0010
0000
0001
0000
1000
0000
0001
0000
0000
0000
,
0010
0100
1000
0001
0100
0010
1000
0100
,
0010
0000
0000
0010
0000
0000
0010
0000
0001
1000
0001
0000
1002
0000
0000
0000
,
0103
0000
0200
0000
0300
0000
0001
1000
,
0010
0000
0100
0010
0000
0100
0010
0000
1000
0000
0001
0000
1000
0000
0100
0000
,
0010
0000
0100
0010
0000
0100
0010
0000
0001
0000
1000
0000
0001
0000
0100
0000
,
0010
0000
0100
0010
0000
0100
0010
0000
1000
0000
0001
0000
1000
0000
0100
0000
,
0010
0000
0100
0010
0000
0100
0010
0000
0001
0000
1000
0000
0100
0000
0100
0000
,
1000
0000
0010
1000
0000
0010
1000
0000
0001
0000
1000
0000
0001
0100
0001
0000
,
1000
0000
0100
1000
0000
0100
1000
0000
0001
0000
0010
0000
0100
1000
0100
0000
,
0010
0000
0001
0100
0000
0001
0100
0000
0010
0000
1000
0000
0001
1000
0001
0000
,
0100
0000
0010
0100
0000
0010
0100
0000
0001
1000
0001
0000
1000
0001
0200
0000
,
0310
0000
1000
0100
1000
0000
0001
0010
0001
0000
0100
0000
0010
0000
0000
0000
,
0100
0000
0001
0010
0001
0000
1000
0000
1010
0000
0000
0000
0101
0000
0001
0000
,
2000
3020
0230
0302
,
1003
0000
0001
0000
1000
0001
0000
0100
0000
0100
0002
0000
0010
0000
0013
0000
,
1000
0010
0001
1000
0100
0010
0001
1000
,
1001
0000
0110
0000
2001
0000
3010
1000
,
1100
0010
0101
0010
,
1001
0000
0000
0000
1001
0000
0000
0000
1000
0000
0001
0000
1000
0001
0100
0000
,
0010
0000
1000
0100
0000
1000
0001
0000
0010
0000
0001
0000
0100
0000
0000
0000
,
0010
0001
0010
0100
0010
1000
0001
0000
,
1000
0000
1000
0001
0000
1000
0100
0000
0010
0000
0001
0000
0100
0000
0000
0000
,
0010
1000
0100
0010
0002
0000
1003
1000
,
0001
0000
1000
0100
0000
1000
0001
0000
0010
0000
0001
0000
0100
0000
0000
0000
,
0010
0001
0010
0100
0010
1000
0010
0000
,
1000
0000
1000
0001
0000
1000
0100
0000
0010
0000
0100
0000
1000
0000
0000
0000
,
0001
0000
0001
1000
0000
0001
0100
0000
0010
0000
0000
0110
0000
0000
1001
0000
,
1000
0000
0100
1000
0000
0100
0010
0000
0001
0000
1000
0000
0001
0000
0000
0000
,
1000
1000
0100
0010
0001
0001
2001
0001
,
3001
0000
0010
0001
0000
0010
0100
0000
1000
0000
0001
0000
0200
0000
0000
0000
,
0310
0000
1000
0000
0100
0000
0010
0000
0002
0000
0000
1003
0100
0000
0100
0000
,
0010
0001
0000
1000
0000
0001
0100
0000
0010
0000
1000
0000
0001
0000
0000
0000
,
1000
0010
0000
1000
0000
0001
0100
0000
0001
0000
0010
0000
0100
0000
0000
0000
,
1000
0001
0010
0001
0100
0010
1000
0100
,
0010
0000
0100
0010
0000
0100
0010
0000
0001
1000
0001
0000
1002
0000
0000
0000
,
1003
0001
0200
0000
0310
0010
2000
0000
,
3001
1000
0100
1000
0002
0000
0023
0031
,
0200
0320
2030
3200
,
0310
0001
1000
0001
0100
0010
1000
0100
,
0010
1000
0010
1000
0010
0001
0010
0001
,
0200
0000
0320
0000
2030
0000
3100
1000
,
1010
0100
0011
0100
,
1001
0000
0000
0000
1001
0000
0000
0000
0100
0000
0010
0000
0100
0001
0100
0001
,
2000
0000
0000
0000
0000
0000
0000
0000
3001
1000
0100
0000
1000
0001
1000
0001
,
1000
0000
0100
1000
0000
0100
1000
0000
0001
0000
0010
0000
0100
0000
0000
0000
,
1000
0010
0100
0010
0001
0010
1000
0000
,
0001
0000
0001
1000
0000
0001
0100
0000
0010
0000
1000
0000
0100
0000
0000
0000
,
0010
0001
0100
0010
2000
0000
3001
0001
,
1000
0000
1000
0001
0000
1000
0100
0000
0010
0000
0001
0000
1000
0000
0000
0000
,
0001
0100
0010
0100
1000
0100
0001
0000
,
1000
0000
0001
0100
0000
0010
1000
0000
0001
0000
1000
0000
0001
0000
0000
0000
,
1000
0000
0010
0100
0000
0001
1000
0000
0100
0000
0010
0000
0002
0000
0000
0000
,
1003
0000
0100
1000
0000
0001
0100
0001
1000
0000
0010
0000
1000
0000
0000
0000
,
0001
1000
0000
0100
0000
0010
0100
0010
0001
0000
0100
0000
0001
0000
0000
0000
,
0001
0000
0010
0100
0000
0010
0100
1000
0001
0000
0010
0000
0002
0000
0000
0000
,
1003
0000
0000
0100
0000
0000
0010
0000
0001
0000
0000
0000
1200
0000
0000
0000
,
0310
0001
1000
0001
0000
0001
0100
0001
1000
0000
0010
0000
1000
0000
0000
0000
,
0001
0010
0001
0010
0000
0010
0100
0000
1000
0000
0010
0000
1000
0000
0000
0000
,
1000
0010
0100
0000
0001
0010
0001
0000
1000
0100
0010
0000
0100
1000
0100
0000
,
0010
0000
0000
0010
0000
0000
0010
0000
0001
1000
0001
0000
1002
0000
0000
0000
,
0103
0000
0000
0000
;

//---------------dance-double - DDRDAIKENKAI-CDP----------------
#NOTES:
     dance-double:
     DDRDAIKENKAI:
     Challenge:
     13:
     0.561367,0.533299,0.174479,0.311028,0.326200,518,495,23,41,0,0,0.561367,0.533299,0.174479,0.311028,0.326200,518,495,23,41,0,0:
00000000
00000000
00000000
00000000
,
00000000
00000000
00000000
00000000
,
00000000
00000000
00000000
00000000
,
00000000
00000000
00000000
00000000
00000000
00000000
00000000
00000000
00000000
00000000
00000000
00000000
00000000
00000000
00000001
00000100
,
00000001
00000000
00000000
00000001
00000000
00000000
00000001
00000000
00000000
00000001
00001000
00000000
00000100
00000000
00010000
00000000
,
00001000
00000000
00000000
00001000
00000000
00000000
00001000
00000000
00000000
00001000
00100000
00000000
01000000
00000000
10000000
00010000
,
10000000
01000000
00010000
00001000
00000010
00000001
00001000
00000000
,
00002002
00000000
00000000
00000000
00003003
00000000
00000001
00000010
,
00000100
00000000
00001000
00000001
00000000
00001000
00000001
00000000
00000100
00000000
00000010
00000000
00001000
00000000
00000000
00000000
,
00000100
00010000
00000000
00001000
00000000
00010000
00000100
00000000
00010000
00000000
00001000
00000000
00010000
00000000
00000000
00000000
,
00001000
00000000
00100000
01000000
00000000
00100000
01000000
00000000
10000000
00000000
00010000
00000000
02000000
00000000
00000000
00000000
,
03100000
00000000
00000000
10000000
00000000
00000000
01000000
00000000
00100000
00000000
00000000
00000000
20010000
00000000
00000000
00000000
,
30100000
01000000
00000000
00100000
00000000
10000000
01000000
00000000
00100000
00000000
00010000
00000000
10000000
00000000
00000000
00000000
,
00010000
00100000
00000000
00001000
00000000
00010000
00000100
00000000
00010000
00000000
00001000
00000000
00010000
00000000
00000000
00000000
,
01000000
10000000
00100000
00010000
00001000
00010000
00100000
10000000
,
01000000
00000000
00000000
01000000
00000000
00000000
01000000
00000000
00100000
00010000
00100000
00000000
00002000
00000000
00000000
00000000
,
00003100
00000000
00000200
00000000
00000300
00000000
00000001
00001000
,
00000100
00000000
00000000
00000100
00000000
00000000
00000100
00000000
00001000
00000000
00000010
00000000
00000100
00000000
00000001
00000000
,
00001000
00000000
00000000
00001000
00000000
00000000
00001000
00000000
00000100
00000000
00010000
00000000
00001000
00000000
00100000
00000000
,
00010000
00000000
00000000
00010000
00000000
00000000
00010000
00000000
10000000
00000000
00010000
00000000
01000000
00000000
00100000
00000000
,
10000000
00000000
00000000
10000000
00000000
00000000
10000000
00000000
00010000
00000000
00100000
00000000
01000000
00000000
01000000
00000000
,
11000000
10100000
10010000
01010000
,
00010100
00000000
00001010
00000000
00001001
00000000
00000011
00001000
,
00000100
00000000
00010000
00001000
00000000
00000000
00001000
00000000
00100000
00000000
00010000
00000000
10000000
00000000
00100000
00000000
,
01000000
00000000
00010000
01000000
00000000
00000000
01000000
00000000
00010000
00000000
00100000
00000000
00001000
00010000
00002000
00000000
,
00103000
00010000
10000000
00100000
01000000
00010000
10000000
00000000
,
00010000
00100000
00001000
00010000
00001000
00000100
00000010
00000010
,
00000002
00000203
00020300
00032000
,
00013000
00000000
00000100
00000000
00001000
00000010
00000000
00001000
00000000
00001000
00000002
00000000
00000000
00000000
00000000
00000000
,
00000013
00000001
00000010
00000001
00001000
00000100
00001000
00000100
,
00010100
00000000
00011000
00000000
00101000
00000000
00010000
10000000
,
10100000
01000000
01010000
00010000
,
00011000
00000000
00000000
00000000
00010100
00000000
00000000
00000000
00101000
00000000
00001000
00000000
00100000
01000000
00100000
00000000
,
00010000
00000000
10000000
01000000
00000000
10000000
01000000
00000000
00100000
00000000
00010000
00000000
01000000
00000000
00000000
00000000
,
00010000
00100000
00001000
00010000
00000100
00000010
00000001
00000000
,
00001000
00000000
00000001
00000100
00000000
00000001
00000100
00000000
00000010
00000000
00001000
00000000
00000100
00000000
00000000
00000000
,
00001000
00000100
00010000
00001000
00200000
00000000
00310000
00010000
,
10000000
00000000
01000000
00100000
00000000
01000000
00100000
00000000
00001000
00000000
00010000
00000000
00000100
00000000
00000000
00000000
,
00000010
00000001
00001000
00000100
00010000
00000100
00001000
00000000
,
00000100
00000000
00000010
00000100
00000000
00001000
00000100
00000000
00010000
00000000
01000000
00000000
10000000
00000000
00000000
00000000
,
00100000
00000000
01000000
00010000
00000000
01000000
00100000
00000000
00010000
00000000
00001000
00000000
00000200
00000000
00000000
00000000
,
00000301
00000000
00001000
00000001
00000000
00001000
00000001
00000000
00000100
00000000
00000010
00000000
00002000
00000000
00000000
00000000
,
00003100
00000100
00010000
00010000
00001000
00010000
00012000
00000000
,
01003000
00000000
00100000
01000000
00000000
00100000
01000000
00000000
00010000
00000000
10000000
00000000
02000000
00000000
00000000
00000000
,
03200000
00000000
00320000
00000000
00032000
00000000
00023000
00000000
00230000
00000000
00000000
00301000
01000000
00000000
00010000
00000000
,
00100000
01000000
00000000
00100000
00000000
00010000
01000000
00000000
00100000
00000000
10000000
00000000
00010000
00000000
00000000
00000000
,
10000000
00010000
00000000
00100000
00000000
00001000
00010000
00000000
00000100
00000000
00000010
00000000
00000001
00000000
00000000
00000000
,
00000010
00000001
00000100
00001000
00010000
00001000
00000100
00000001
,
00000010
00000000
00000000
00000010
00000000
00000000
00000010
00000000
00000100
00001000
00000100
00000000
00020000
00000000
00000000
00000000
,
00030000
00010000
02000000
00000000
13000000
10000000
00200000
00000000
,
00310000
00010000
00001000
00001000
00000200
00000000
00000302
00000010
,
00000023
00000230
00002300
00023000
,
00130000
00000000
01000000
00000000
00100000
00000000
00010000
00000000
01000000
00000000
00100000
00000000
10000000
00000000
01000000
00100000
,
00010000
00001000
00010000
00100000
00010000
00001000
00010000
00100000
,
02000000
00000000
00000000
00000000
23000000
00000000
00000000
00000000
30020000
00000000
00000000
00000000
00000000
00000000
00130000
00001000
,
00010000
00001000
00100000
00001000
00010000
00000100
00000010
00000000
,
00000110
00000000
00000000
00000000
00000110
00000000
00000000
00000000
00000002
00000000
00000000
00000000
00001003
00000100
00001000
00000100
,
00000020
00000000
00000000
00000000
00000030
00000000
00000001
00000001
,
00001000
00000000
00000001
00000010
00000000
00000001
00000010
00000000
00000100
00000000
00001000
00000000
00000010
00000000
00000000
00000000
,
00001000
00000100
00010000
00001000
00100000
01000000
10000000
00000000
,
00010000
00000000
10000000
00100000
00000000
10000000
00100000
00000000
01000000
00000000
00010000
00000000
00100000
00000000
00000000
00000000
,
00010000
00100000
00001000
00010000
00000200
00000000
00001300
00001000
,
00000001
00000000
00000010
00000100
00000000
00000010
00000100
00000000
00010000
00000000
00001000
00000000
00100000
00000000
00000000
00000000
,
01000000
10000000
00010000
00100000
00001000
00100000
00010000
00000000
,
00100000
00000000
01000000
00100000
00000000
00010000
00100000
00000000
00001000
00000000
00000010
00000000
00000001
00000000
00000000
00000000
,
00000100
00000000
00000010
00001000
00000000
00000010
00000100
00000000
00001000
00000000
00010000
00000000
00200000
00000000
00000000
00000000
,
10300000
00000000
00010000
10000000
00000000
00010000
10000000
00000000
00100000
00000000
01000000
00000000
00010000
00000000
00000000
00000000
,
00100000
00001000
00000000
00010000
00000000
00001000
00100000
00000000
00001000
00000000
00010000
00000000
00001000
00000000
00000000
00000000
,
00010000
00000000
00000100
00000010
00000000
00000100
00000010
00000000
00000001
00000000
00001000
00000000
00000020
00000000
00000000
00000000
,
00000130
00000000
00000000
00000001
00000000
00000000
00000010
00000000
00000100
00000000
00000000
00000000
00001002
00000000
00000000
00000000
,
00000103
00000010
00000000
00000100
00000000
00000001
00000010
00000000
00000100
00000000
00001000
00000000
00000001
00000000
00000000
00000000
,
00001000
00000100
00000000
00010000
00000000
00001000
00100000
00000000
00001000
00000000
00010000
00000000
00001000
00000000
00000000
00000000
,
00000010
00000001
00000100
00001000
00010000
00100000
10000000
01000000
,
00100000
00000000
00000000
00100000
00000000
00000000
00100000
00000000
00001000
00010000
00001000
00000000
00020000
00000000
00030000
00000000
,
00011000
00000000
00000000
00000000
;

//---------------dance-double - DDRDAIKENKAI-BDP----------------
#NOTES:
     dance-double:
     DDRDAIKENKAI:
     Easy:
     5:
     0.255758,0.336820,0.136549,0.068274,0,236,218,18,9,0,0,0.255758,0.336820,0.136549,0.068274,0,236,218,18,9,0,0:
00000000
00000000
00000000
00000000
,
00000000
00000000
00000000
00000000
,
00000000
00000000
00000000
00000000
,
00000000
00000000
00000000
00000000
,
10000000
00000000
00010000
00010000
,
00001000
00000000
00001000
00001000
,
00000001
00000001
00000010
00000010
,
00000220
00000000
00000000
00000330
,
00000100
00000100
00001000
00000000
,
00000010
00000010
00001000
00000000
,
00000100
00000100
00010000
00000000
,
00001000
00010000
00001000
00011000
,
00010000
00010000
00001000
00000000
,
00100000
00100000
00001000
00000000
,
01000000
01000000
00010000
00010000
,
00100000
00010000
10000000
10000000
,
10010000
10010000
00000000
10000000
,
01000000
00000000
00100000
00000000
,
01000000
10000000
00010000
00000000
,
01000000
00000000
00010000
00000000
,
00100000
00001000
00010000
00000000
,
00001000
00000000
00000100
00000000
,
00000110
00000110
00001001
00000000
,
00000001
00001000
00000100
00000100
,
00010000
00010000
00001000
00000000
,
00011000
00001000
00010000
00000000
,
00001000
00100000
00010000
00000000
,
00100000
00010000
10000000
01000000
,
00200000
00000000
00000000
00000000
00000000
00300000
00000000
00000000
,
00010000
00010000
00100000
00100000
,
00001000
00010000
00011000
00000000
,
00010000
00010000
00000100
00000100
,
00000110
00000110
00000002
00000000
,
00000103
00000000
00000010
00000010
,
00001000
00000100
00001000
00001000
,
00000010
00000000
00000100
00000100
,
00000001
00001000
00001001
00000000
,
00010000
00000000
00001000
00001000
,
00100000
00010000
01000000
00010000
,
10000000
00000000
00010000
00010000
,
10000000
01000000
00010000
00001000
,
00010000
01000000
10000000
00000000
,
00010000
00010000
00010000
00000000
,
10000000
00010000
01000000
00000000
,
00001000
00001000
00002000
00003000
,
00010000
00001000
00010000
00000000
,
00000100
00001000
00000100
00000000
,
00000010
00000001
00000010
00000001
,
00000100
00000100
00000010
00000020
,
00000030
00001000
00000000
00001000
,
00000000
00010000
00000000
00010000
,
00000000
10000000
00000000
10000000
,
00000000
01000000
00000000
01000000
,
00100000
00100000
00010000
00010000
,
00001000
00000100
00000010
00000000
,
00000001
00000001
00000100
00000100
,
00000110
00000110
00000110
00000000
,
00022000
00000000
00033000
00000000
,
00100000
00000000
01000000
01000000
,
00010000
00100000
00010000
00010000
,
01000000
00000000
00100000
00100000
,
10000000
00010000
10010000
00000000
,
00001000
00000000
00010000
00010000
,
00000100
00001000
00000010
00001000
,
00000001
00000000
00001000
00001000
,
00000001
00000010
00001000
00010000
,
00100000
00100000
10000000
00000000
,
01000000
01000000
10000000
00000000
,
00100000
00100000
01000000
00000000
,
00001000
00001000
00010000
00011000
,
00001000
00001000
00010000
00000000
,
00000100
00000100
00010000
00000000
,
00000010
00000010
00001000
00001000
,
00000100
00001000
00000001
00000002
,
00000003
00000000
00000000
00000000
;

//---------------dance-double - DDRDAIKENKAI-EDP----------------
#NOTES:
     dance-double:
     DDRDAIKENKAI:
     Hard:
     11:
     0.484423,0.477162,0.204823,0.318614,0.189651,447,420,27,42,0,0,0.484423,0.477162,0.204823,0.318614,0.189651,447,420,27,42,0,0:
00000000
00000000
00000000
00000000
,
00000000
00000000
00000000
00000000
,
00000000
00000000
00000000
00000000
,
00000000
00000000
00000000
00000000
00000000
00000000
00000000
10000000
,
00010000
00000000
00000000
00010000
00000000
00000000
00010000
00000000
00000000
00000000
01000000
00000000
00000000
00000000
00100000
00000000
,
10000000
00000000
00000000
10000000
00000000
00000000
10000000
00000000
00000000
00000000
00010000
00000000
00000000
00000000
00100000
00000000
,
00001000
00010000
00001000
00000000
00001000
00000100
00000010
00000000
,
00000220
00000000
00000000
00000000
00000330
00000000
00000001
00000010
,
00000001
00000000
00000000
00000100
00000000
00000000
00000010
00000000
00001000
00000000
00000100
00000000
00001000
00000000
00000000
00000000
,
00000001
00000000
00000000
00000010
00000000
00000000
00000100
00000000
00001000
00000000
00000001
00000000
00001000
00000000
00000000
00000000
,
00000010
00000000
00000000
00001000
00000000
00000000
00000100
00000000
00010000
00000000
00001000
00000000
00020000
00000000
00000000
00000000
,
00031000
00000000
00000000
00100000
00000000
00000000
00010000
00000000
01000000
00000000
00000000
00000000
01100000
00000000
00000000
00000000
,
10000000
00000000
00000000
10000000
00000000
00000000
10000000
00000000
00010000
00000000
00100000
00000000
01000000
00000000
00000000
00000000
,
00100000
00000000
00000000
00100000
00000000
00000000
00100000
00000000
00001000
00000000
00010000
00000000
00001000
00000000
00000000
00000000
,
00010000
00001000
00000000
00000000
00001000
00000100
00000000
00000000
00000100
00000001
00000000
00000000
00000001
00000010
00000000
00000000
,
00000100
00000000
00000000
00000100
00000000
00000000
00000100
00000000
00000010
00000000
00000001
00000000
00001002
00000000
00000000
00000000
,
00000103
00000000
00000200
00000000
00000300
00000000
00000001
00001000
,
00000100
00000000
00000010
00000000
00001001
00000000
00000001
00000100
,
00001000
00010000
00100000
10000000
00000000
00000000
00010000
10000000
,
01000000
00000000
00100000
00000000
10010000
00000000
10000000
00100000
,
00010000
00001000
00000100
00000001
00000000
00000000
00001000
00000100
,
00000010
00000001
00000100
00000000
00000010
00001000
00000100
00000000
,
00000110
00000000
00011000
00000000
01100000
00000000
10000000
00010000
,
10000000
00000000
01000000
00000000
01100000
00000000
01000000
10000000
,
00100000
00010000
00001000
00000100
00000001
00000010
00000100
00000000
,
00000010
00000001
00000010
00000001
00000010
00001000
00000010
00000000
,
00000010
00000001
00000100
00000010
00002000
00000000
00003200
00010000
,
00020300
00032000
00203000
00320000
,
10030000
00000000
10000000
00000000
10000000
00000000
00000000
01000000
00000000
00000000
00200000
00000000
00000000
00000000
00300000
00000000
,
01000000
00010000
01000000
10000000
01000000
00100000
00010000
00001000
,
00000020
00000000
00002030
00000000
00000200
00000000
00003300
00000010
,
00000011
00001000
00001010
00000100
,
00001100
00000000
00010100
00000000
00002000
00000000
00103000
00010000
,
10000000
00000000
00000000
10000000
00000000
00000000
10000000
00000000
00010000
00000000
01000000
00000000
00100000
00000000
00000000
00000000
,
10000000
01000000
00100000
00010000
00001000
00000100
00000010
00000000
,
00000001
00000000
00000000
00000001
00000000
00000000
00000001
00000000
00001000
00000000
00000010
00000000
00000100
00000000
00000000
00000000
,
00001000
00000100
00000001
00000010
00002000
00000000
00003010
00000010
,
00000001
00000000
00000000
00000001
00000000
00000000
00000001
00000000
00001000
00000000
00000010
00000000
00000100
00000000
00000000
00000000
,
00000001
00000010
00000100
00001000
00010000
00100000
01000000
00000000
,
00100000
00000000
00000000
00100000
00000000
00000000
00100000
00000000
00010000
00000000
00001000
00000000
00000100
00000000
00000000
00000000
,
00000010
00000000
00000000
00000010
00000000
00000000
00000010
00000000
00000100
00000000
00000000
00000110
00000000
00000000
00001001
00000000
,
00000001
00000000
00000000
00000100
00000000
00000000
00000010
00000000
00001000
00000000
00000100
00000000
00002000
00000000
00000000
00000000
,
00003001
00000001
00000100
00000010
00001000
00000001
00002000
00000000
,
00003010
00000000
00000000
00001000
00000000
00000000
00000100
00000000
00010000
00000000
00001000
00000000
00020000
00000000
00000000
00000000
,
00032000
00003200
00002300
00023000
00230000
00000000
01300000
00010000
,
10000000
00000000
00000000
10000000
00000000
00000000
10000000
00000000
00010000
00000000
00100000
00000000
01000000
00000000
00000000
00000000
,
00100000
00000000
00000000
00100000
00000000
00000000
00100000
00000000
00001000
00000000
00010000
00000000
00001000
00000000
00000000
00000000
,
00010000
00001000
00000000
00000000
00001000
00000100
00000000
00000000
00000100
00000001
00000000
00000000
00000001
00000010
00000000
00000000
,
00000100
00000000
00000000
00000100
00000000
00000000
00000100
00000000
00000010
00000000
00000001
00000000
00001001
00000000
00000000
00000000
,
00000011
00000001
00000200
00000000
00000310
00001000
00000200
00000000
,
00010300
00001000
00200000
00000000
00310000
01000000
10000000
01000000
,
00020000
00032000
00003200
00000320
,
00000032
00000000
00000103
00000100
,
00000010
00001000
00000100
00000010
00000001
00000100
00000010
00001000
,
00001100
00000000
00011000
00000000
00220000
00000000
00330000
00010000
,
01010000
00100000
10010000
01000000
,
00110000
00000000
00011000
00000000
00000200
00000000
00000310
00000010
,
00002002
00000000
00000000
00000000
00000003
00000000
00003100
00001000
,
00000001
00000000
00001000
00000001
00000000
00001000
00000001
00000000
00001000
00000000
00000010
00000000
00000100
00000000
00000000
00000000
,
00000001
00000010
00000100
00001000
00010000
00100000
01000000
00000000
,
10000000
00000000
00010000
10000000
00000000
00010000
10000000
00000000
00010000
00000000
01000000
00000000
00100000
00000000
00000000
00000000
,
00010000
00100000
10000000
01000000
00020000
00000000
01030000
01000000
,
10000000
00000000
00010000
10000000
00000000
00010000
10000000
00000000
00010000
00000000
01000000
00000000
00100000
00000000
00000000
00000000
,
10000000
01000000
00100000
00010000
00001000
00000100
00000010
00000000
,
00000100
00000000
00000010
00000100
00000000
00000010
00000100
00000000
00001000
00000000
00010000
00000000
00100000
00000000
00000000
00000000
,
01000000
00000000
00100000
01000000
00000000
00100000
01000000
00000000
00100000
00000000
00100000
00000000
00020000
00000000
00000000
00000000
,
10030000
00000000
00000000
00100000
00000000
00000000
01000000
00000000
00010000
00000000
00100000
00000000
00010000
00000000
00000000
00000000
,
10000000
00000000
00000000
01000000
00000000
00000000
00100000
00000000
00010000
00000000
10000000
00000000
00010000
00000000
00000000
00000000
,
01000000
00000000
00000000
00010000
00000000
00000000
00100000
00000000
00001000
00000000
00010000
00000000
00002000
00000000
00000000
00000000
,
00013000
00000000
00000000
00000100
00000000
00000000
00001000
00000000
00000010
00000000
00000000
00000000
00000110
00000000
00000000
00000000
,
00000001
00000000
00000000
00000001
00000000
00000000
00000001
00000000
00001000
00000000
00000100
00000000
00000010
00000000
00000000
00000000
,
00000100
00000000
00000000
00000100
00000000
00000000
00000100
00000000
00010000
00000000
00001000
00000000
00010000
00000000
00000000
00000000
,
00001000
00010000
00000000
00000000
00010000
00100000
00000000
00000000
00100000
10000000
00000000
00000000
10000000
01000000
00000000
00000000
,
00100000
00000000
00000000
00100000
00000000
00000000
00100000
00000000
01000000
00000000
10000000
00000000
10020000
00000000
00000000
00000000
,
01030000
00000000
00000000
00000000
;

//---------------dance-double - DDRDAIKENKAI-DDP----------------
#NOTES:
     dance-double:
     DDRDAIKENKAI:
     Medium:
     8:
     0.406395,0.421026,0.151721,0.356544,0.011379,375,355,20,47,0,0,0.406395,0.421026,0.151721,0.356544,0.011379,375,355,20,47,0,0:
00000000
00000000
00000000
00000000
,
00000000
00000000
00000000
00000000
,
00000000
00000000
00000000
00000000
,
00000000
00000000
00000000
00000000
,
10000000
00000000
00000000
10000000
00000000
00000000
20000000
00000000
00000000
00000000
00000000
00000000
30000000
00000000
00000000
00000000
,
00010000
00000000
00000000
00010000
00000000
00000000
00020000
00000000
00000000
00000000
00000000
00000000
00030000
00000000
00000000
00000000
,
00001000
00001000
00000001
00000001
,
00002002
00000000
00000000
00000000
00003003
00000000
00001000
00000001
,
00001000
00000000
00000100
00000000
00000010
00000001
00000100
00000000
,
00000001
00000000
00001000
00000000
00000100
00001000
00000010
00000000
,
00000100
00000000
00000001
00000000
00001000
00000100
00000010
00000000
,
00000100
00010000
00001000
00021000
,
00031000
00010000
00001000
00000000
00100000
00010000
00100000
00000000
,
00010000
01000000
00010000
00000000
01000000
00100000
01000000
00000000
,
00200000
20300000
32000000
03200000
,
00310000
00000000
00001000
00000000
00000100
00000010
00000001
00000000
,
00001001
00002002
00003003
00000000
,
00000001
00000010
00000001
00000000
00000100
00000010
00000100
00000000
,
00000010
00001000
00000100
00001000
00000000
00000001
00000001
00000000
,
00001000
00000010
00001000
00000000
00000100
00010000
00000100
00000000
,
00010000
00001000
00010000
00010000
00000000
00001000
00001000
00000000
,
00100000
00010000
01000000
00000000
00100000
10000000
01000000
00000000
,
00100000
00010000
20020000
30030000
,
10000000
00010000
00100000
00000000
01000000
10000000
00010000
00000000
,
10000000
00100000
01000000
00010000
00000000
10000000
10000000
00000000
,
00010000
00000000
00100000
00000000
00001000
00010000
00001000
00000000
,
00000100
00000000
00000001
00000000
00000020
00000000
00000230
00001000
,
00002300
00003020
00000230
00000302
,
00000103
00000000
00000000
00000000
00000010
00000000
00000000
00001000
00000000
00000000
00001002
00000000
00000000
00000000
00000000
00000000
,
00001003
00000100
00010000
00000000
00001000
00010000
00000100
00000000
,
00001100
00011000
00110000
00000000
,
10000000
00100000
10000000
00000000
00010000
01000000
00010000
00000000
,
10010000
00000000
01100000
00000000
00020000
00000000
00130000
00010000
,
00100000
00000000
01000000
00000000
10000000
00010000
01000000
00000000
,
00100000
01000000
00100000
01000000
00100000
10000000
00100000
00000000
,
01000000
00000000
01000000
00000000
00010000
00100000
01000000
00000000
,
00100000
00001000
00010000
00000100
00020000
00000000
00031000
00001000
,
00010000
00000000
00000100
00000000
00000010
00000001
00000010
00000000
,
00000100
00001000
00000100
00001000
00000001
00001000
00000001
00000000
,
00000100
00000000
00000100
00000000
00000010
00001000
00000100
00000000
,
00010000
00000000
00010000
00000000
00000100
00010000
00000200
00000000
,
00001300
00000000
00000100
00000000
00000010
00000001
00000200
00000000
,
00000301
00000001
00001000
00001000
00000001
00001000
00000002
00000000
,
00000103
00000000
00000001
00000000
00001000
00000100
00000020
00000000
,
00000130
00000100
00010000
00010000
00002000
00000000
00013000
00010000
,
00001000
00010000
00001000
00000000
00100000
00010000
00100000
00000000
,
00010000
01000000
00010000
00000000
01000000
00100000
01000000
00000000
,
00200000
20300000
32000000
03200000
,
00310000
00000000
00001000
00000000
00000100
00000010
00000002
00000000
,
00000003
00000100
00000100
00000000
00000010
00000010
00001000
00000000
,
00000100
00010000
00000100
00020000
00001000
00000000
00031000
00001000
,
00200000
00320000
00230000
02300000
,
20000000
00000000
00000000
33000000
,
00010000
10000000
00010000
00000000
10000000
01000000
10000000
00000000
,
11000000
01100000
00110000
00000000
,
00001100
00000010
00000110
00000001
,
00001001
00000000
00000110
00000000
00000010
00001000
00000100
00020000
,
00002000
00000000
00000000
00000000
00033000
00000000
00000100
00001000
,
00000100
00000000
00000010
00000000
00000001
00001000
00000010
00000000
,
00000100
00000010
00000100
00000010
00000100
00000001
00000100
00000000
,
00000010
00000000
00000010
00000000
00001000
00000100
00000010
00000000
,
00000100
00010000
00001000
00100000
00002000
00000000
00013000
00010000
,
00001000
00000000
00100000
00000000
01000000
10000000
01000000
00000000
,
00100000
00010000
00100000
00010000
10000000
00010000
10000000
00000000
,
00100000
00000000
00100000
00000000
01000000
00010000
00100000
00000000
,
00001000
00000000
00001000
00000000
00100000
00001000
00200000
00000000
,
00310000
00000000
00100000
00000000
01000000
10000000
00100000
00000000
,
10000000
00000000
00010000
00000000
00100000
00010000
01000000
00000000
,
00100000
00000000
10000000
00000000
00010000
00100000
01000000
00000000
,
00100000
00001000
00010000
00012000
,
00013000
00001000
00010000
00000000
00000100
00001000
00000100
00000000
,
00001000
00000010
00001000
00000000
00000010
00000100
00000010
00000000
,
00000200
00000302
00000023
00000230
,
00001300
00000000
00010000
00000000
00100000
01000000
10000000
00000000
,
11000000
00000000
00000000
00000000
;
