#VERSION:0.83;
#TITLE:Memory Of Sunrise;
#ARTIST:nora2r;
#BANNER:Memory Of Sunrise.png;
#BACKGROUND:Memory Of Sunrise-bg.png;
#JACKET:Memory Of Sunrise-jacket.png;
#MUSIC:Memory Of Sunrise.ogg;
#OFFSET:-0.111;
#SAMPLESTART:76.1;
#SAMPLELENGTH:15;
#SELECTABLE:YES;
#BPMS:0=180,64=90,66=180,201=90,202=180,207=90,208=180,214=90,215=180;
#STOPS:97=0.333,145=0.333,160=0.333,160.5=0.333,161=1.333,162=0.333,162.5=0.333,163.5=0.667,166=0.333,166.5=0.333,167=1.333,168=0.333,168.5=0.333,169=0.667,169.5=0.333,260=0.333,260.5=0.167,261=0.167;
#TIMESIGNATURES:0=4=4,64=2=4,66=4=4,94=3=4,97=4=4,145=3=4,148=4=4,160=2=4,168=3=4,171=4=4,199=3=4,202=4=4,206=3=4,209=4=4,213=3=4,216=4=4,260=2=4,262=4=4;
#BGCHANGES:0=Memory Of Sunrise.mp4=1=0=0=0=StretchNoLoop====,99999=-nosongbg-=1=0=0=0 // don't automatically add -songbackground-;

//---------------dance-single - darkanine-bSP----------------
#NOTEDATA:;
#CHARTNAME:darkanine-bSP;
#STEPSTYPE:dance-single;
#DESCRIPTION:darkanine-bSP;
#DIFFICULTY:Beginner;
#METER:6;
#CREDIT:darkanine;
#NOTES:
0000
0000
0000
0000
,
0000
0000
0000
0000
,
0000
0000
0000
0000
,
0000
0000
0000
0000
,
0000
0000
0000
0000
,
0000
0000
0000
0000
,
0000
0000
0000
0000
,
0000
0000
0000
0000
,
0000
0000
0000
0000
,
1000
1000
1000
1000
,
0010
0010
0100
0100
,
0001
0001
0001
0001
,
0010
0000
0010
0000
,
0001
0001
1000
1000
,
0001
0001
1000
1000
,
0002
0000
0000
0000
,
0103
0000
0010
1000
,
0000
0001
0000
1000
,
0000
0100
0000
0010
,
0000
0100
0000
0010
,
0000
0002
0003
1000
,
0000
0010
0000
0001
,
0000
0100
0000
0001
,
0000
0010
0000
1000
,
0000
0100
0200
0000
,
0300
2000
0000
0000
,
3000
0002
0000
0000
,
0003
0020
0000
0030
,
0010
0002
0000
0000
,
0003
2000
0000
0000
,
3000
0020
0000
0000
,
0030
0200
0000
0000
,
0310
0001
0100
0001
,
0010
0100
1000
0001
,
1000
0100
1000
0010
,
0100
0001
1000
0001
,
0100
0000
0010
0000
0000
1000
0000
0000
,
0001
0000
0000
1000
0000
0000
0001
0000
,
0000
0001
0002
0000
,
0003
0000
0000
0000
,
2000
0000
3000
0000
0200
0000
0000
0300
,
0000
0001
0002
0003
,
0020
0000
0030
0001
,
1000
0001
0001
1000
,
0001
1000
1000
0010
,
1000
0010
0010
0100
,
0001
0100
0100
0010
,
0000
1001
0000
1001
,
0000
1001
0000
0020
,
0000
0000
0000
0030
,
0010
0000
0001
0100
,
0001
1000
0001
0010
,
0000
1000
0100
1000
,
0001
1000
0010
0000
,
0001
1000
0001
1000
,
0010
1000
0010
0000
,
0100
0000
0100
0000
,
1001
0000
0000
0000
,
1000
1000
1000
1000
,
1000
0000
0100
0000
,
0001
0001
0001
0001
,
0001
0000
0100
0000
,
0010
0000
0010
0000
,
1001
0000
0100
0000
,
1001
0000
0000
0000
,
0020
0030
1000
0001
,
0100
0001
1000
1000
,
0001
0001
1000
0100
,
1000
0001
0100
0100
,
0010
0010
1000
0010
,
0100
0100
0001
1000
,
0100
0100
1000
0001
,
0100
0010
1000
1000
,
0001
0001
2000
0100
,
0100
0100
0001
0001
,
3100
1000
0002
1000
,
1000
1000
0100
0100
,
1003
0001
1001
0000
,
0010
0000
1001
0000
,
0100
0000
0000
0000
0000
0020
0000
0000
,
0000
0030
0010
0000
,
1001
0000
0100
0000
;

//---------------dance-single - darkanine-BSP----------------
#NOTEDATA:;
#CHARTNAME:darkanine-BSP;
#STEPSTYPE:dance-single;
#DESCRIPTION:darkanine-BSP;
#DIFFICULTY:Easy;
#METER:9;
#CREDIT:darkanine;
#NOTES:
0000
0000
0000
0000
,
0000
0000
0000
0000
,
0000
0000
0000
0000
,
0000
0000
0000
0000
,
0000
0000
0000
0000
,
1000
0000
0001
0000
0000
0100
0000
0000
,
0010
0000
1000
0000
0000
0001
0000
0001
,
0000
0000
1000
0000
0000
0100
0000
0000
,
0020
0000
0100
0130
,
1001
1000
0100
0010
,
0001
0001
1000
1000
,
0001
0100
0010
1000
,
0100
0100
0010
0010
,
1001
0100
1000
0100
,
0010
0001
0010
1000
,
0020
0100
0100
0130
,
1001
0000
0000
0000
0000
0000
0000
0000
1000
0000
0000
0000
0010
0000
0000
0010
,
0000
0000
0000
0000
1000
0000
0000
1000
0000
0000
0000
0000
0001
0000
0000
0001
,
0000
0000
0000
0000
0101
0000
0000
0000
0010
0000
0000
0000
1000
0000
0000
1000
,
0000
0000
0000
0000
0100
0000
0000
0100
0000
0000
0000
0000
0010
0000
0000
0010
,
0000
0000
0000
0000
0002
0000
0000
0000
0003
0000
0000
0000
0110
0000
0000
0100
,
0000
0000
0000
0000
0101
0000
0000
0001
0000
0000
0000
0000
1100
0000
0000
1000
,
0000
0000
0000
0000
0110
0000
0000
0000
0100
0000
0000
0000
1010
0000
0000
1000
,
0000
0000
0000
0000
0011
0000
0000
0000
0002
0000
0000
0000
1000
0000
0000
1000
,
0000
0000
1003
0000
0000
0000
0000
0000
0100
0000
0000
0100
0000
0000
0100
0000
,
0000
0000
0000
0000
1000
0000
0000
0001
0000
0000
1000
0000
0000
0001
0000
0000
,
0000
0000
0000
0000
0010
0000
0000
0010
0000
0000
0010
0000
0000
0010
0000
0000
,
0000
0000
0000
0000
0001
0000
0000
1000
0000
0000
0002
0000
0000
0000
0000
0000
,
0003
0000
0000
0000
0100
0000
0000
0001
0000
0000
0100
0000
0000
0001
0000
0000
,
0000
0000
0000
0000
1000
0000
0000
0100
0000
0000
1000
0000
0000
0100
0000
0000
,
0000
0000
0000
0000
1000
0000
0000
0010
0000
0000
1000
0000
0000
0010
0000
0000
,
0000
0200
0000
0000
,
0310
1000
0100
0010
,
0010
0000
0001
0000
0100
0000
0010
1000
,
0010
0100
0001
0010
,
0010
0000
0100
0000
1000
0000
0010
0100
,
0010
0000
0000
0000
0000
1000
0000
0000
,
0001
0000
0000
1000
0000
0000
0001
0000
,
1000
0010
1000
0000
0001
0010
0001
0000
,
0200
0000
0000
0310
,
1000
1000
1000
0000
0001
0001
0002
0003
,
0000
0000
0000
0000
0010
0010
0010
0000
,
0100
0100
0100
0020
0030
0000
0001
0000
,
0100
0010
0010
1000
,
0100
0010
0010
0001
,
1000
0100
0100
1000
,
0001
0000
0100
0000
0100
0000
0010
1000
,
0010
0000
0001
0010
0001
0000
1000
0100
,
1000
0000
0100
0001
0100
0000
0020
0000
,
0100
0100
0100
0030
,
0010
0000
0001
0100
,
0010
0000
1000
0000
0010
0010
0010
0000
,
0000
1000
0100
0010
,
0001
0000
0100
0100
0100
0000
0000
0000
,
0001
0000
0100
0000
0010
1000
0010
0000
,
0100
0001
0010
0010
,
1100
0000
0101
0000
,
1001
0000
0000
0000
,
1000
0010
0001
0010
,
1000
0100
0001
0100
,
0010
1000
0010
0001
,
0100
1000
0100
0001
,
1000
0000
0000
1000
0000
0000
0001
0000
0001
0000
0001
0000
,
0100
0000
0100
0000
0100
0000
0010
0000
0010
0000
0010
0000
,
2000
0000
0000
0000
,
3010
0020
0030
0000
1001
0000
1000
0000
,
0010
0100
0001
0001
,
0010
0001
1000
0100
,
1000
1000
0001
0100
,
0001
1000
0001
0000
0010
0000
0010
0000
,
0100
1000
0100
0000
0010
0000
0010
0000
,
0001
0100
0001
0000
1000
0000
0010
0000
,
0001
0010
0100
0100
,
0010
1000
0010
0000
1000
0000
0100
0000
,
1000
0000
1000
0000
0001
0100
0001
0000
,
1000
0010
1000
0000
0001
0000
1000
0000
,
0001
0000
0001
0000
1000
0100
1000
0000
,
0001
0010
0001
0000
1001
0000
0010
0000
,
0010
0010
1001
0100
,
0100
0000
0000
0000
0100
0000
0000
0000
0000
0000
1000
0000
0000
0001
0000
0000
,
1000
0000
0000
0001
0000
0000
2000
0000
0000
0000
0000
0000
0100
0000
0000
0000
,
0000
3001
1000
0000
;

//---------------dance-single - darkanine-DSP----------------
#NOTEDATA:;
#CHARTNAME:darkanine-DSP;
#STEPSTYPE:dance-single;
#DESCRIPTION:darkanine-DSP;
#DIFFICULTY:Medium;
#METER:13;
#CREDIT:darkanine;
#NOTES:
0000
0000
0000
0000
,
0000
0000
0000
0000
,
0000
0000
0000
0000
,
0000
0000
0000
0000
,
0000
0000
0000
0000
0000
1001
0000
0000
,
1001
0000
1000
0000
0000
0100
0000
0000
,
1000
0010
0100
0001
0000
0010
0000
0100
,
0000
0000
0010
0000
0000
0001
0000
0000
,
0100
0001
1000
0010
0100
0000
0100
0000
,
0001
0000
0001
0000
1000
0100
1000
0000
,
0001
0100
0001
0010
0001
1000
0001
1000
,
0001
0000
1000
0000
0100
0010
0100
0000
,
1001
0000
0110
0000
,
1000
0010
1000
0010
0100
0001
0100
0001
,
1000
0100
1000
0100
0010
0001
0010
0001
,
2000
0001
0001
3001
,
0110
0000
0000
0000
0000
0000
0000
0000
1000
0000
0000
0000
1010
0000
0000
0010
,
0000
0000
0010
0000
0110
0000
0000
0100
0000
0000
0100
0000
0101
0000
0000
0001
,
0000
0000
0001
1000
0001
0000
0000
0000
1000
0000
0000
0000
1100
0000
0000
0100
,
0000
0000
0100
0000
0110
0000
0000
0010
0000
0000
0010
0000
0011
0000
0000
0001
,
0000
0000
0001
0000
0200
0000
0000
0000
0310
0000
0000
0000
1010
0000
0000
0001
,
0000
0000
0001
0000
0101
0000
0000
1000
0000
0000
1000
0000
1100
0000
0000
0010
,
0000
0000
0010
0100
0010
0000
0000
0000
0100
0000
0000
0000
0110
0000
0000
0001
,
0000
0000
0001
0000
1001
0000
1000
0000
1000
0000
0000
0000
0100
0000
0000
0100
,
0000
0000
0200
0000
0310
0000
0000
0000
0001
0000
0000
0001
0000
0000
0001
0000
,
1000
0000
0000
0000
0010
0000
0000
0100
0000
0000
0010
0000
0000
0100
0000
0000
,
0001
0000
0000
0000
0010
0000
0000
0100
0000
0000
0010
0000
0000
0100
0000
0000
,
1000
0000
0000
0000
0001
0000
0000
0100
0000
0000
0001
0000
2000
0000
0000
0000
,
3001
0000
0000
0000
1000
0000
0000
0010
0000
0000
0001
0000
0000
0010
0000
0000
,
1000
0000
0000
0000
0001
0000
0000
0010
0000
0000
1000
0000
0000
0010
0000
0000
,
0001
0000
0000
0000
1000
0000
0000
0100
0000
0000
0001
0000
0000
0100
0000
0000
,
1000
0002
0000
0000
,
0103
1000
0001
1000
,
1000
0000
0001
0100
1000
0000
1000
0100
,
0001
0001
1000
0001
,
0001
0000
1000
0000
0010
0100
0001
0010
,
0100
1000
0010
0000
1000
1000
0000
0001
,
0001
0000
0010
0010
0000
0100
0100
0000
,
0100
0000
1000
0001
1000
0001
1000
0001
,
0200
0000
0000
0310
,
1020
1000
1030
0000
0012
0010
0013
0001
,
1000
0010
0100
0001
2001
0010
3010
0000
,
0210
0001
0302
1003
1000
0000
0001
0000
,
0100
0001
0010
0000
0001
0000
1000
0000
,
0100
1000
0010
0000
1000
0000
0001
0000
,
0100
0010
1000
0000
0001
0000
1000
0000
,
0100
0010
0001
0000
1000
0000
0010
1000
,
0010
0000
0010
0001
0010
0000
0010
1000
,
0010
0000
0010
0001
0010
0000
0010
1000
,
0001
0010
0100
1000
0001
0100
0200
0000
,
0310
0000
0000
0000
1000
0100
1000
0010
,
0100
0001
1000
0001
1000
0100
0020
0000
,
0030
0000
0001
0100
0010
1000
0100
0010
,
0001
0100
0010
1000
0200
0000
0300
0000
,
1000
0100
1000
0010
0100
0001
0100
0010
,
1000
0001
0010
0100
1000
0001
1000
0100
,
1000
0001
0010
0100
1000
0001
1000
0100
,
2000
0010
0001
3100
,
1000
1000
0010
0010
,
0001
0000
0001
0010
0000
0000
1000
0000
0000
1000
0001
1000
,
0001
0001
0010
0010
,
0100
0010
0001
0010
0000
0001
1000
0000
0000
0001
0100
0010
,
1000
0000
0000
1000
0100
1000
0001
0000
0001
0000
0100
0001
,
1000
0000
1000
0000
0100
1000
0001
0000
0100
0010
0100
0010
,
1000
0000
0000
0000
,
2010
0000
0001
0000
3001
0000
0000
0000
1000
0000
0000
0010
0000
0000
0100
0000
,
0001
0000
0010
0000
0100
0000
1000
0000
0001
0000
0000
0010
0000
0000
0001
0000
,
1000
0000
0010
0000
0001
0000
0010
0000
1000
0000
0000
0010
0000
0000
0100
0000
,
0010
1000
0100
1000
0001
0010
0100
1000
,
0001
0000
0100
0000
0010
0000
1000
0000
0001
0000
0000
0100
0000
0000
0010
0000
,
1000
0001
1000
0100
1000
0010
0000
0010
,
0100
0000
1000
0000
0100
0000
0001
0000
1000
0000
0100
0000
0000
0010
0000
0000
,
0001
0000
0000
1000
0000
0000
0010
0000
0100
0000
0010
0000
1000
0000
0010
0000
,
0001
0010
0100
0001
1000
0000
1000
0000
,
0100
0010
0100
0000
1000
0010
0100
0010
,
0001
0010
1000
0000
0001
0000
0001
0000
,
0100
0010
0100
0000
0001
0010
1000
0010
,
0100
0010
0001
0000
1010
0000
1000
0001
,
1000
0001
1000
0000
0011
0000
0001
1000
,
0001
0000
1000
0000
0001
0000
0000
0000
0000
0000
1000
0000
0000
0010
0000
0000
,
0001
0000
0000
0010
0000
0000
1000
0000
0002
0000
0000
0000
0100
0000
0000
0000
,
1003
0001
1000
0000
0110
0000
0000
0000
;

//---------------dance-single - darkanine-ESP----------------
#NOTEDATA:;
#CHARTNAME:darkanine-ESP;
#STEPSTYPE:dance-single;
#DESCRIPTION:darkanine-ESP;
#DIFFICULTY:Hard;
#METER:16;
#CREDIT:darkanine;
#NOTES:
0000
0000
0000
0000
,
0000
0000
0000
0000
,
0000
0000
0000
0000
,
0000
0000
0000
0000
,
0000
0000
0000
0000
0000
1001
0000
0000
,
1001
0000
0002
0000
0000
0103
0000
0000
,
2000
0010
0001
3002
0000
0100
0000
1000
,
0000
0000
0013
0000
0000
0001
0000
0000
,
0100
1000
0110
1001
1000
0100
0001
0100
,
1001
0000
0002
0003
0010
0200
0010
0300
,
2000
3100
0020
0032
1000
0203
0310
2000
,
3001
0000
0020
0030
0010
0002
0103
0000
,
1100
0100
0011
0010
,
0100
1000
0001
0100
0010
1000
0001
0010
,
0100
1000
0010
0100
0010
0100
0001
0010
,
0100
1000
0100
1000
0001
0000
0100
0001
0100
0001
1000
0000
0100
1000
0100
1000
,
0001
0000
0000
0000
0000
0000
0000
0000
0110
0000
0000
0000
1001
0000
1000
0010
,
0000
0010
0001
0000
1001
0000
1000
0100
0000
0100
0001
0000
1001
0000
1000
0010
,
0000
0010
0001
0010
0100
0000
0000
0000
1001
0000
0000
0000
0110
0000
0100
1000
,
0000
1000
0010
0000
0110
0000
0100
0001
0000
0001
0010
0000
0110
0000
0100
1000
,
0000
1000
0010
0000
1000
0010
0100
0001
1000
0000
0000
0000
1001
0000
0001
0010
,
0000
0010
1000
0000
1001
0000
0001
0100
0000
0100
1000
0000
1001
0000
0001
0010
,
0000
0010
1000
0010
0100
0000
0000
0000
1001
0000
0000
0000
0110
0000
0010
0001
,
0000
0001
0100
0000
0210
0000
0010
0000
0310
0000
0000
0000
1010
0000
0000
0100
,
0000
0000
0011
0000
1000
0000
0000
0000
0001
0000
0000
0001
0000
0000
0001
0000
,
0110
0000
0000
0000
1000
0000
0000
0010
0000
0000
0001
0000
0000
0010
0000
0000
,
1001
0000
0000
0000
0100
0000
0000
1000
0000
0000
0100
0000
0000
0001
0000
0000
,
0110
0000
0000
0000
1000
0000
0000
0001
0000
0000
1000
0000
0100
0000
0001
0100
,
0010
0001
0100
0010
1000
0000
0000
0100
0000
0000
0001
0000
0000
0100
0000
0000
,
1001
0000
0000
0000
0010
0000
0000
0001
0000
0000
0010
0000
0000
1000
0000
0000
,
0110
0000
0000
0000
0001
0000
0000
0100
0000
0000
1000
0000
0000
0100
0000
0000
,
1001
0000
0000
0000
0000
0000
0000
0000
0000
0000
0000
0000
0001
0000
0000
0010
0000
0000
0001
0000
0000
0010
0000
0000
0100
0000
0000
0000
0010
0000
0000
0000
0100
0000
0000
0000
2000
0000
0000
0000
0000
0000
0000
0000
0000
0000
0000
0000
,
3001
0000
1000
0100
0001
0100
0010
0001
,
0100
0000
1000
0000
0100
0000
0010
0000
1000
0000
0001
0000
0010
0000
0100
1000
,
0001
0100
0010
1000
0100
0001
0100
0010
,
0001
0100
1000
0100
0010
1000
0100
0001
,
1000
0010
0001
0000
1000
1100
0000
0001
,
0101
0000
1000
1010
0000
0001
0011
0000
,
1000
0000
1000
0000
0010
0000
0010
0000
0100
0001
0100
0001
1000
0001
1000
0001
,
0200
0000
0000
0310
,
2200
3300
0000
0000
0000
0000
0000
0000
2020
3030
0000
0000
0000
0000
0000
0000
2002
3003
0000
0000
0000
0000
0000
0000
0000
0000
0000
0000
0000
0000
0000
0000
0202
0303
0000
0000
0000
0000
0000
0000
0022
0033
0000
0000
0000
0000
0000
0000
1000
0000
0000
0000
0000
0000
0000
0000
2002
3003
0000
0000
0000
0000
0000
0000
,
0001
0000
0000
0000
0000
0000
0000
0000
0010
0000
0000
0000
0000
0000
0000
0000
0100
0000
0000
0000
0000
0000
0000
0000
1000
0000
0000
0000
0000
0000
0000
0000
2200
3300
0000
0000
0000
0000
0000
0000
2020
3030
0000
0000
0000
0000
0000
0000
2002
3003
0000
0000
0000
0000
0000
0000
0000
0000
0000
0000
0000
0000
0000
0000
,
0022
0033
0000
0000
0000
0000
0000
0000
0202
0303
0000
0000
0000
0000
0000
0000
2002
3003
0000
0000
0000
0000
0000
0000
2200
3300
0000
0000
0000
0000
0000
0000
1010
0000
0000
0000
0000
0000
0000
0000
0000
0000
0000
0000
0000
0000
0000
0000
2000
0000
0000
0000
0000
0000
0000
0000
0000
0000
0000
0000
0000
0000
0000
0000
,
3001
0010
1000
0000
0110
0000
0002
0000
,
1003
0010
0001
0000
0110
0000
0002
0000
,
1003
0100
0001
0000
0110
0000
2000
0000
,
3001
0100
1000
0000
0110
0000
1010
1000
,
0001
0000
0011
0001
1000
0000
1010
1000
,
0100
0000
0000
0000
0011
0000
0001
0000
0100
0000
0000
0000
0010
0000
1000
0100
,
0010
0000
0001
0100
0010
0000
1000
0100
0010
0000
0001
0100
0010
0100
0000
0100
,
0010
0000
0000
0000
1000
0100
0001
0100
,
1000
0010
0100
1000
0100
0001
0020
0000
,
0030
0000
0001
0100
1000
0100
0010
1000
,
0100
0001
1000
0010
0200
0000
0300
0000
,
1000
0010
0001
1000
0100
0001
0100
0010
,
1000
0001
0010
1000
0010
0100
0001
0100
,
1000
0001
0010
1000
0010
0100
0001
0100
,
1000
0000
0100
1000
0100
0000
0010
0000
0100
1000
0100
1000
0002
0000
0000
0000
,
1003
1010
0011
0101
,
1100
0000
1000
0001
0000
0000
0110
0000
0000
0001
0100
0010
,
1000
1100
0101
0011
,
0001
0010
1000
0010
0000
0100
1000
0000
0000
0001
1000
0100
,
0010
0000
0000
0001
0100
0010
1000
0000
0011
0000
0001
1000
,
0100
0000
1010
0000
1000
0001
0100
0000
0001
0100
1000
0100
,
0010
0000
0000
0000
,
2020
3030
0000
0000
0202
0303
0000
0000
0020
0030
0000
0000
0000
0000
0000
0000
1000
0000
0000
0000
0100
0000
1000
0000
0000
0000
0001
0000
0100
0000
0000
0000
,
0010
1000
0001
0010
0000
0100
0010
0000
0001
0000
0100
0010
0000
1000
0010
0100
,
0010
1000
0001
0010
0100
0000
0010
0000
0001
0000
1000
0100
0000
1000
0001
0000
,
0100
0010
1000
0001
0000
0010
0100
0000
0010
0100
1000
0100
0010
0100
1000
0001
,
0100
0000
0010
0000
0100
0000
0001
1000
0010
0000
0000
0010
0100
0000
0001
0000
,
0100
0001
0010
0000
0001
0000
1000
0000
0100
0000
0010
0000
0100
0000
1000
0001
,
0010
0001
0010
0100
1000
0000
0010
0000
1000
0000
0100
1000
0001
0010
0000
0001
,
1000
0000
0010
0100
0000
0001
0010
0000
0100
1000
0100
0000
1000
0000
0100
0000
,
0010
0001
0010
0000
0100
0000
1000
0000
0001
0000
0000
0100
0001
0000
1000
0000
,
0001
0010
0100
0010
0001
0000
1000
0000
0001
0000
0100
0000
0001
0000
1000
0000
,
0001
0000
0100
0000
0010
0000
1000
0000
1001
0000
0000
0001
1000
0000
0100
0000
,
1000
0001
0010
0001
1000
0000
0100
0000
1000
0010
0100
0010
1000
0000
0001
0000
,
1000
0100
0010
0001
0011
0010
1000
0010
,
0001
0010
1000
0010
0110
0100
0001
0100
,
1000
0000
0100
0000
0001
0000
0100
0000
0000
0000
0001
0000
0001
0100
0000
0100
,
1000
0000
1000
0010
0000
0010
0001
0000
0001
0000
0010
0000
1000
0000
0010
0000
,
0100
0010
0100
0000
0010
0000
0100
0000
1001
0000
0000
0000
0000
0000
0000
0000
;

//---------------dance-double - forcednature-BDP----------------
#NOTEDATA:;
#CHARTNAME:forcednature-BDP;
#STEPSTYPE:dance-double;
#DESCRIPTION:forcednature-BDP;
#DIFFICULTY:Easy;
#METER:10;
#CREDIT:forcednature;
#NOTES:
00000000
00000000
00000000
00000000
,
00000000
00000000
00000000
00000000
,
00000000
00000000
00000000
00000000
,
00000000
00000000
00000000
00000000
,
00000000
00000000
00000000
00000000
00000000
00001000
00000000
00000000
,
00011000
00000000
00010000
00000000
00000000
00000100
00000000
00000000
,
00001000
00000000
00000000
00000001
00000000
00000100
00000000
00000001
,
00000000
00000000
00000010
00000000
00000000
00000100
00000000
00000000
,
00010000
00000000
00011000
00011000
,
01001000
01000000
00010000
00010000
,
10000000
10000000
01000000
01000000
,
01100000
00100000
00001000
00001000
,
00011000
00010000
00001010
00000010
,
00000101
00000100
00001000
00001000
,
00010000
00010000
00100000
00100000
,
10000000
00010000
10000000
00010000
00100000
01000000
00100000
01000000
,
00020000
00000000
00000000
00000000
00000000
00000000
00030000
00000000
00011000
00000000
00000000
00000000
00010000
00000000
00000000
00000100
,
00000000
00000000
00000100
00000000
00000000
00000000
00000000
00000010
00000000
00000000
00000010
00000000
00000000
00000000
00000000
00000100
,
00000000
00000000
00000100
00000000
00001000
00000000
00000000
00000000
00000001
00000000
00000000
00000000
00000100
00000000
00000000
00001000
,
00000000
00000000
00001000
00000000
00000000
00000000
00000000
00010000
00000000
00000000
00010000
00000000
00000000
00000000
00000000
00001000
,
00000000
00000000
00001000
00000000
00010000
00000000
00000000
00000000
00100000
00000000
00000000
00000000
01000000
00000000
00000000
00010000
,
00000000
00000000
00010000
00000000
00000000
00000000
00000000
10000000
00000000
00000000
10000000
00000000
00000000
00000000
00000000
00010000
,
00000000
00000000
00010000
00000000
00100000
00000000
00000000
00000000
01000000
00000000
00000000
00000000
10000000
00000000
00000000
00100000
,
00000000
00000000
00100000
00000000
00000000
00000000
01000000
00000000
00001000
00000000
00000000
00000000
00010000
00000000
00000000
00001000
,
00000000
00000000
00011000
00000000
00000000
00000000
00000000
00000000
00000100
00000000
00000000
00001000
00000000
00000000
00000100
00000000
,
00000000
00000000
00000000
00000000
00000010
00000000
00000000
00000001
00000000
00000000
00001000
00000000
00000000
00000001
00000000
00000000
,
00000100
00000000
00000000
00000000
00001000
00000000
00000000
00010000
00000000
00000000
00001000
00000000
00000000
00010000
00000000
00000000
,
00100000
00000000
00000000
00000000
01000000
00000000
00000000
00010000
00000000
00000000
20000000
00000000
00000000
00000000
00000000
00000000
,
30100000
00000000
00000000
00000000
10000000
00000000
00000000
01000000
00000000
00000000
00100000
00000000
00000000
00010000
00000000
00000000
,
00100000
00000000
00000000
00000000
00001000
00000000
00000000
00010000
00000000
00000000
00000010
00000000
00000000
00001000
00000000
00000000
,
00000010
00000000
00000000
00000000
00000100
00000000
00000000
00000001
00000000
00000000
00001000
00000000
00000000
00000001
00000000
00000000
,
00000010
00000200
00000000
00000000
,
00000300
00000000
00001000
00000000
00000001
00000000
00000000
00000100
,
00000001
00000000
00000010
00000000
00000100
00000000
00000000
00001000
,
00000100
00000000
00011000
00000000
00001000
00000000
00000000
01000000
,
00010000
00000000
10000000
00000000
00100000
00000000
00000000
10000000
,
01000000
00000000
00000000
00000000
00000000
00000000
00000000
00000000
00000000
00000000
00000000
00000000
00000000
00000000
00000000
00000000
00200000
00300000
00000000
00000000
00000000
00000000
00000000
00000000
00000000
00000000
00000000
00000000
00000000
00000000
00000000
00000000
00000000
00000000
00000000
00000000
00000000
00000000
00000000
00000000
00101000
00000000
00000000
00000000
00000000
00000000
00000000
00000000
00000000
00000000
00000000
00000000
00000000
00000000
00000000
00000000
00000000
00000000
00000000
00000000
00000000
00000000
00000000
00000000
,
00011000
00000000
00000000
00010010
00000000
00000000
00001010
00000000
,
00000001
00000000
00000001
00000000
00001000
00000100
00001000
00000100
,
00020000
00000000
00000000
00031000
,
01000000
00010000
01010000
00000000
00001000
00010000
00010000
00001000
,
00000000
00000000
00000000
00000000
00000110
00001001
00000110
00000000
,
00000101
00001010
00010010
00001100
00000000
00000000
00011000
00000000
,
00010000
00000100
00010000
00011000
,
00001000
01000000
00001000
00011000
,
00010000
00000010
00010000
00011000
,
00001000
00000000
00100000
00000000
00001000
00000000
00010000
00000100
,
00010000
00000000
00001000
01000000
00001000
00000000
00010000
00000010
,
00010000
00000000
00001000
00100000
00001000
00000000
00010000
00000000
,
00100000
10000000
01000000
00000000
,
00020000
00032000
00003010
00000100
,
00001000
00000001
00000000
00001000
00000001
00000000
00000100
00000000
,
00000000
00000000
00001000
00000000
00010000
00000000
00100000
01000000
,
00000000
00100000
01000000
00000000
00010000
00000000
00000000
00000000
,
10000000
00000000
01000000
00000000
00100000
00010000
00000000
01000000
,
00000000
00010000
00100000
00000000
00001000
00000000
00010000
00000000
,
00001010
00000010
00000101
00000100
,
00001001
00000000
00001000
00000000
00000100
00010000
00002000
00000000
,
01003000
01001000
01000000
01010000
,
00010000
00000000
00010000
10000000
00000000
00000000
11000000
00000000
00000000
01000000
00000000
01000000
,
00100000
00110000
00100000
00101000
,
00001000
00000000
00001000
00010000
00000000
00010000
00000010
00000000
00000000
00000100
00000000
00000100
,
00000001
00000000
00000000
00000001
00000000
00000000
00000010
00000000
00000100
00000000
00001000
00000000
,
00000100
00000000
00000010
00000000
00000001
00000000
00001000
00000000
00001000
00000010
00000000
00000010
,
00020000
00000000
00000000
00000000
,
00031000
00010000
00011000
00000000
01000000
00000000
00010000
00000000
,
00100000
01000000
10000000
00000000
01000000
00000000
00100000
00000000
,
00010000
01000000
00001000
00010000
,
00000100
00001000
00000001
00000000
00000100
00000000
00000010
00000000
,
00001000
00000100
00010000
00001000
,
00100000
00010000
10000000
00000000
00100000
00000000
01000000
00000000
,
00010000
00000000
00000000
00000000
00100000
00000000
00000000
00000000
00001000
00000000
00000000
00000000
00010000
00000000
00000000
00000010
,
00000000
00000000
00001000
00000000
00000000
00000010
00000000
00000000
00000000
00000000
00000100
00000000
00000000
00000000
00000001
00000000
,
00000100
00001000
00011000
00010000
,
00000100
00001000
00000100
00000000
00010000
00000000
00001000
00000000
,
01000000
00010000
01000000
00000000
00011000
00000000
00001000
00000000
,
00100000
00010000
00100000
00000000
00001000
00000000
00010000
00000000
,
00000010
00001000
00000010
00000000
00000110
00000000
00000100
00000000
,
00000001
00000001
00001001
00001000
,
00000100
00000000
00000000
00000000
00000100
00000000
00000000
00000000
00000000
00000000
00010000
00000000
00000000
00001000
00000000
00000000
,
00010000
00000000
00000000
00001000
00000000
00000000
00010000
00000000
00000000
00000000
00100000
00000000
00000000
00000000
01000000
00000000
,
01000000
00010000
20020000
00000000
,
00000000
00000000
00000000
00000000
,
00000000
00000000
00000000
00000000
,
00000000
00000000
00000000
00000000
,
00000000
00000000
30030000
00000000
;

//---------------dance-double - forcednature-DDP----------------
#NOTEDATA:;
#CHARTNAME:forcednature-DDP;
#STEPSTYPE:dance-double;
#DESCRIPTION:forcednature-DDP;
#DIFFICULTY:Medium;
#METER:13;
#CREDIT:forcednature;
#NOTES:
00000000
00000000
00000000
00000000
,
00000000
00000000
00000000
00000000
,
00000000
00000000
00000000
00000000
,
00000000
00000000
00000000
00000000
,
00000000
00000000
00000000
00000000
00000000
00011000
00000000
00000000
,
01001000
00000000
02000000
00000000
00000000
03020000
00000000
00000000
,
20030000
00000000
00000000
32000000
00000000
03020000
00000000
00032000
,
00000000
00000000
00003200
00000000
00000000
00000320
00000000
00000000
,
00002030
00003000
00001010
00000101
,
00001010
00000010
00010000
00010000
,
00001000
00001000
00100000
00100000
,
01010000
00010000
10000000
10000000
,
01100000
00100000
10010000
00010000
,
01000000
00001000
01000000
00001000
00010000
00000100
00010000
00000100
,
00001000
00000010
00010000
00001000
00100000
00010000
01000000
00001000
,
00010000
01000000
10000000
01000000
00100000
00001000
00010000
00000100
,
00000020
00000000
00000000
00000000
00000000
00000000
00000030
00000000
00001001
00000000
00000000
00000000
00000001
00000000
00000000
00000100
,
00000000
00000000
00001000
00000000
00010000
00000000
00000000
00001000
00000000
00000000
00000100
00000000
00000001
00000000
00000000
00000100
,
00000000
00000000
00001000
00000000
00010000
00000000
00000000
00000000
00100000
00000000
00000000
00000000
10000000
00000000
00000000
01000000
,
00000000
00000000
00010000
00000000
00001000
00000000
00000000
00010000
00000000
00000000
01000000
00000000
10000000
00000000
00000000
01000000
,
00000000
00000000
00010000
00000000
00001000
00000000
00000000
00000000
00000010
00000000
00000000
00000000
00001000
00000000
00000000
00010000
,
00000000
00000000
00100000
00000000
00010000
00000000
00000000
00001000
00000000
00000000
00000010
00000000
00001000
00000000
00000000
00010000
,
00000000
00000000
00100000
00000000
01000000
00000000
00000000
00000000
00001000
00000000
00000000
00000000
00010000
00000000
00000000
01000000
,
00000000
00000000
00010000
00000000
00001000
00000000
00000100
00000000
00000010
00000000
00000000
00000000
00001001
00000000
00000000
00001001
,
00000000
00000000
00001001
00000000
00000000
00000000
00000000
00000000
00000001
00000000
00000000
00000100
00000000
00000000
00000001
00000000
,
00000101
00000000
00000000
00000000
00000100
00000000
00000000
00001000
00000000
00000000
00010000
00000000
00000000
00100000
00000000
00000000
,
01100000
00000000
00000000
00000000
01000000
00000000
00000000
00010000
00000000
00000000
10000000
00000000
00000000
01000000
00000000
00000000
,
01100000
00000000
00000000
00000000
00110000
00000000
00000000
00101000
00000000
00000000
00022000
00000000
00000000
00000000
00000000
00000000
,
00033000
00000000
00000000
00000000
00000010
00000000
00000000
00001000
00000000
00000000
00000010
00000000
00000000
00000001
00000000
00000000
,
00000110
00000000
00000000
00000000
00000001
00000000
00000000
00000100
00000000
00000000
00001000
00000000
00000000
00010000
00000000
00000000
,
01100000
00000000
00000000
00000000
10000000
00000000
00000000
01000000
00000000
00000000
00010000
00000000
00000000
01000000
00000000
00000000
,
00110000
00000000
00000000
00000000
00000000
00000000
00001000
00000000
00000000
00010000
00000000
00000000
00000010
00000000
00000000
00000000
00001000
00000000
00000200
00000000
00000000
00000000
00000000
00000000
,
00000300
00000000
00000110
00000000
00000010
00000001
00000100
00000001
,
00000010
00000000
00001000
00010000
00100000
00010000
00000000
00001000
,
01000000
00000000
00110000
00000000
10000000
01000000
00100000
00010000
,
01000000
00000000
00100000
00010000
00001000
00010000
00000000
00000100
,
00001000
00000000
00000000
00000000
00000000
00000000
00000000
00000000
00000000
00000000
00000000
00000000
00000000
00000000
00000000
00000000
00000020
00000030
00000000
00000000
00000000
00000000
00000000
00000000
00000100
00000000
00000000
00000000
00000000
00000000
00000000
00000000
00001000
00000000
00000000
00000000
00000000
00000000
00000000
00000000
00010000
00000000
00000000
00000000
00000000
00000000
00000000
00000000
00100000
00000000
00000000
00000000
00000000
00000000
00000000
00000000
00010000
00000000
00000000
00000000
00000000
00000000
00000000
00000000
,
00001000
00000010
00001000
00010000
01000000
00010000
00001000
00010000
,
00100000
01000000
00100000
01000000
00010000
00010000
10000000
10000000
,
01000000
00000000
00000000
00010000
00000000
00000000
00001000
00000000
00000000
00000000
00001000
00000000
00000020
00000000
00000000
00000000
00000000
00000000
00000030
00000000
00000000
00000000
00000000
00000000
,
00000220
00000330
00000000
00000000
00000000
00000000
00000000
00000000
00020200
00030300
00000000
00000000
00000000
00000000
00000000
00000000
00202000
00303000
00000000
00000000
00000000
00000000
00000000
00000000
00000000
00000000
00000000
00000000
00000000
00000000
00000000
00000000
20020000
30030000
00000000
00000000
00000000
00000000
00000000
00000000
02002000
03003000
00000000
00000000
00000000
00000000
00000000
00000000
00010000
00000000
00000000
00000000
00000000
00000000
00000000
00000000
00000020
00000030
00000000
00000000
00000000
00000000
00000000
00000000
,
00000100
00000000
00000000
00000000
00000000
00000000
00000000
00000000
00000001
00000000
00000000
00000000
00000000
00000000
00000000
00000000
00001000
00000000
00000000
00000000
00000000
00000000
00000000
00000000
00000001
00000000
00000000
00000000
00000000
00000000
00000000
00000000
00000020
00000030
00000000
00000000
00000000
00000000
00000000
00000000
00002200
00003300
00000000
00000000
00000000
00000000
00000000
00000000
00022000
00033000
00000000
00000000
00000000
00000000
00000000
00000000
00000000
00000000
00000000
00000000
00000000
00000000
00000000
00000000
,
00220000
00330000
00000000
00000000
00000000
00000000
00000000
00000000
02020000
03030000
00000000
00000000
00000000
00000000
00000000
00000000
20200000
30300000
00000000
00000000
00000000
00000000
00000000
00000000
22000000
33000000
00000000
00000000
00000000
00000000
00000000
00000000
00100000
00000000
00000000
00000000
00000000
00000000
00000000
00000000
00000000
00000000
00000000
00000000
00000000
00000000
00000000
00000000
01010000
00000000
00000000
00000000
00000000
00000000
00000000
00000000
00000000
00000000
00000000
00000000
00000000
00000000
00000000
00000000
,
00001000
00010000
00000010
00001100
,
00010000
00001000
00100000
01010000
,
00001000
00010000
00000010
00001100
,
00010000
00001000
00100000
01010000
,
01001000
00010100
00001100
00001010
,
00010010
00000000
00101000
00000000
00110000
00000000
00001000
01000000
,
00010000
00100000
00001000
00010000
00000010
00001000
00000100
00000000
,
00000020
00000000
00000031
00000000
00000100
00000001
00000010
00000001
,
00001000
00000010
00010000
00001000
00100000
00010000
02000000
00000000
,
03000000
00000000
00100000
10000000
00010000
10000000
01000000
00100000
,
00010000
01000000
00001000
00010000
00000200
00000000
00000300
00000000
,
00001000
00000010
00001000
00000001
00000010
00000100
00001000
00000010
,
00010000
00001000
00100000
00010000
01000000
00001000
00010000
01000000
,
00100000
00000000
00010000
10000000
00100000
00000000
00010000
00000000
,
00011000
00000000
00001000
00000000
00000010
00000100
00001000
00000000
,
00000101
00010010
01001000
10100000
,
10000000
00000000
10000000
01000000
00000000
00000000
01100000
00000000
00000000
00100000
00010000
00100000
,
00001000
00011000
00010010
00001010
,
00001000
00000001
00001000
00000001
00000000
00000001
00000010
00000000
00000000
00000100
00001000
00000100
,
00001000
00000000
00000000
00000010
00001000
00000010
00010000
00000000
00001000
00000000
00100000
00010000
,
10000000
00000000
00100000
00000000
01000000
00010000
01000000
00000000
00001000
00010000
00000100
00001000
,
00000002
00000000
00000000
00000003
,
00000202
00000303
00000000
00000000
00000000
00000000
00000000
00000000
00002020
00003030
00000000
00000000
00000000
00000000
00000000
00000000
00020000
00030000
00000000
00000000
00000000
00000000
00000000
00000000
00000000
00000000
00000000
00000000
00000000
00000000
00000000
00000000
00001000
00000000
00000000
00000000
00000000
00000000
00000000
00000000
00100000
00000000
00000000
00000000
00010000
00000000
00000000
00000000
00000000
00000000
00000000
00000000
00100000
00000000
00000000
00000000
00010000
00000000
00000000
00000000
00000000
00000000
00000000
00000000
,
10000000
00000000
00100000
00000000
00010000
00000000
00100000
00000000
01000000
00000000
00001000
00010000
00000000
00001000
00010000
00000000
,
00000100
00000000
00001000
00000000
00000100
00000000
00000010
00000000
00000001
00000000
00001000
00000010
00000000
00001000
00000010
00000000
,
00010000
00001000
00100000
00001000
00010000
00100000
01000000
00100000
,
10000000
00000000
00010000
00000000
10000000
00000000
01000000
00000000
00010000
00000000
00001000
00010000
00000000
00001000
00010000
00000000
,
00000100
00001000
00000010
00000100
00001000
00010000
01000000
00100000
,
00001000
00000000
00010000
00000000
00100000
00000000
10000000
00010000
10000000
00000000
00100000
00000000
10000000
01000000
00000000
00100000
,
01000000
00000000
00100000
00001000
00000000
00010000
00001000
00000000
00000100
00000000
00000001
00000000
00001000
00000000
00000001
00000000
,
00000010
00000100
00000010
00000000
00000001
00000000
00001000
00000000
00000010
00000000
00000100
00000001
00000000
00000100
00000001
00000000
,
00001000
00000010
00001000
00000000
00000100
00000000
00010000
00000000
00001000
00000000
01000000
00000000
00010000
00000000
00100000
00000000
,
01000000
10000000
01000000
00000000
00100000
00000000
00001000
00000000
00010000
00000000
00100000
01000000
00000000
00100000
01000000
00000000
,
00010000
10000000
00010000
00000000
00100000
00000000
01000000
00000000
00010000
00000000
00001000
00000000
00000010
00000000
00000100
00000000
,
00001000
00000000
00000001
00000000
00000100
00000000
00000010
00001000
00000010
00000000
00000100
00000001
00000000
00000100
00000001
00000000
,
00001000
00000100
00010000
00001000
00000100
00000001
00001000
00000001
,
00000010
00000000
00001000
00000000
00010000
00000000
01000000
00000000
00000000
00000000
01100000
00000000
00000000
10010000
00000000
00000000
,
01001000
00000000
00000000
00010100
00000000
00000000
00001001
00000000
00000000
00000000
00000001
00000000
00000010
00000000
00000100
00000000
,
00001000
00000001
00001000
00000000
00000010
00000000
00000100
00000000
00002000
00000000
00000000
00000000
00000000
00000000
00000000
00000000
,
00000000
00000000
00000000
00000000
,
00000000
00000000
00000000
00000000
,
00000000
00000000
00000000
00000000
,
00000000
00000000
00003000
00000000
;

//---------------dance-double - forcednature-EDP----------------
#NOTEDATA:;
#CHARTNAME:forcednature-EDP;
#STEPSTYPE:dance-double;
#DESCRIPTION:forcednature-EDP;
#DIFFICULTY:Hard;
#METER:16;
#CREDIT:forcednature;
#NOTES:
00000000
00000000
00000000
00000000
,
00000000
00000000
00000000
00000000
,
00000000
00000000
00000000
00000000
,
00000000
00000000
00000000
00000000
,
00000000
00000000
00000000
00000000
00000000
00011000
00000000
00000000
,
01100000
00000000
20000000
00000000
00000000
30020000
00000000
00000000
,
00130000
01000000
00010000
00002000
00000000
00003200
00000000
00000320
,
00000000
00000000
00002030
00000000
00000000
00003002
00000000
00000000
,
00000013
00000100
00010000
00001000
00000100
00000000
00000101
00000000
,
00001010
00000010
00010000
00010000
,
00001000
00001000
00100000
00100000
,
01100000
01000000
10000000
10000000
,
01010000
00010000
00101000
00001000
,
00010100
00000000
00010000
00000010
00001000
00000001
00000010
00000100
,
00001000
00000001
00000100
00001000
00010000
01000000
00100000
00010000
,
10000000
00100000
10000000
00100000
01000000
00010000
01000000
00001000
00010000
00000100
00001000
00000100
00000010
00000001
00001000
00000001
,
00000200
00000000
00000000
00000000
00000000
00000000
00000300
00000000
00000110
00000000
00000000
00000000
00000001
00000000
00000100
00001000
,
00000000
00010000
00001000
00000000
00100000
00000000
00010000
10000000
00000000
00100000
10000000
00000000
01000000
00000000
00100000
00010000
,
00000000
00100000
00001000
00010000
00000200
00000000
00000000
00000000
00000310
00000000
00000000
00000000
00000001
00000000
00001000
00000010
,
00000000
00001000
00000100
00000000
00010000
00000000
00001000
00100000
00000000
00010000
01000000
00000000
00001000
00000000
00010000
00100000
,
00000000
01000000
00100000
00000000
10000000
00010000
10000000
00010000
00100000
00000000
00000000
00000000
01000000
00000000
00010000
00001000
,
00000000
00010000
00000100
00000000
00001000
00000000
00000001
00000100
00000000
00000001
00000010
00000000
00000100
00000000
00010000
00001000
,
00000000
01000000
00010000
10000000
00200000
00000000
00000000
00000000
01300000
00000000
00000000
00000000
00001000
00000000
00010000
00000100
,
00000000
00001000
00000100
00000000
00000010
00000000
00001000
00000000
00010000
00000000
00000000
00000000
01001000
00000000
00000000
00011000
,
00000000
00000000
00101000
00000000
00010000
00000000
00000000
00000000
11000000
00000000
00000000
10000000
00100000
00000000
10000000
00000000
,
01000000
00000000
00010000
00000000
00001000
00000000
00000000
00000100
00000010
00000000
00000100
00000000
00000001
00001000
00000010
00000000
,
00000100
00000000
00001000
00000000
00010000
00000000
00000000
00000100
00010000
00000000
00001000
00000000
01000000
00010000
10000000
00000000
,
00100000
00000000
01000000
00000000
00001000
00000000
00000000
00010000
00001000
00000000
00000100
00000000
00000010
00000000
00001000
00000100
,
00000010
00000001
00000010
00000100
00001000
00000000
00000000
00000010
00001000
00000000
00000001
00000000
00000100
00000000
00001000
00000000
,
00010000
00000000
01000000
00000000
00100000
00000000
00000000
00010000
00100000
00000000
00001000
00000000
00010000
00100000
01000000
00000000
,
00010000
00000000
00000000
00000000
10000000
00000000
00000000
01000000
00100000
00000000
00001000
00000000
00010000
00000010
00001000
00000000
,
00000100
00000000
00000000
00000000
00000000
00000000
00000000
00000000
00000000
00000000
00000000
00000000
00000010
00000000
00000000
00000001
00000000
00000000
00000010
00000000
00000000
00000001
00000000
00000000
00001000
00000000
00000000
00000000
00000001
00000000
00000000
00000000
00000100
00000000
00000000
00000000
00002000
00000000
00000000
00000000
00000000
00000000
00000000
00000000
00000000
00000000
00000000
00000000
,
00013000
00000000
00000000
00000000
01100000
00000000
00000000
10000000
00010000
00000000
00100000
00000000
01000000
00000000
00010000
00000000
,
00001000
00000000
00000100
00000000
00000010
00000000
00010000
00000000
00001000
00000000
00000010
00000000
00000001
00000000
00001000
00000010
,
00000100
00000000
00000000
00000000
00011000
00000000
00000000
01000000
00010000
00000000
00100000
00000000
01000000
00000000
00010000
00000000
,
00001000
00000000
00010000
00000000
00100000
00000000
10000000
00000000
00010000
00000000
00100000
00000000
01000000
00000000
00010000
00001000
,
00010000
00000000
00000000
00000000
00000000
00000000
00000000
00000000
00000010
00000000
00000000
00000000
00000000
00000000
00000000
00000000
00000200
00000300
00000000
00000000
00000000
00000000
00000000
00000000
00001000
00000000
00000000
00000000
00000000
00000000
00000000
00000000
00010000
00000000
00000000
00000000
00000000
00000000
00000000
00000000
00100000
00000000
00000000
00000000
00000000
00000000
00000000
00000000
00010000
00000000
00000000
00000000
00000000
00000000
00000000
00000000
00001000
00000000
00000000
00000000
00000000
00000000
00000000
00000000
,
00000010
00001000
00010000
01000000
00010000
00001000
00000100
00000001
,
00000010
00000000
00001000
00000000
00010000
00000000
01000000
00000000
00100000
00010000
00100000
00001000
00010000
00001000
01000000
00010000
,
10000000
00000000
00000000
01000000
00000000
00000000
10000000
00000000
00000000
01000000
00000000
00000000
00100000
00000000
00000000
00000000
00001000
00000000
00000000
00000000
00010000
00000000
00000000
00000000
00000020
00000000
00000000
00000000
00000000
00000000
00000000
00000000
00000000
00000000
00000000
00000000
00001030
00000000
00000000
00000000
00000000
00000000
00000000
00000000
00000000
00000000
00000000
00000000
,
00000202
00000303
00000000
00000000
00000000
00000000
00000000
00000000
00020020
00030030
00000000
00000000
00000000
00000000
00000000
00000000
02002000
03003000
00000000
00000000
00000000
00000000
00000000
00000000
00000000
00000000
00000000
00000000
00000000
00000000
00000000
00000000
22000000
33000000
00000000
00000000
00000000
00000000
00000000
00000000
00202000
00303000
00000000
00000000
00000000
00000000
00000000
00000000
00010000
00000000
00000000
00000000
00000000
00000000
00000000
00000000
00020200
00030300
00000000
00000000
00000000
00000000
00000000
00000000
,
00000100
00000000
00000000
00000000
00000000
00000000
00000000
00000000
00000010
00000000
00000000
00000000
00000000
00000000
00000000
00000000
00000001
00000000
00000000
00000000
00000000
00000000
00000000
00000000
00000100
00000000
00000000
00000000
00000000
00000000
00000000
00000000
00000220
00000330
00000000
00000000
00000000
00000000
00000000
00000000
00022000
00033000
00000000
00000000
00000000
00000000
00000000
00000000
02200000
03300000
00000000
00000000
00000000
00000000
00000000
00000000
00000000
00000000
00000000
00000000
00000000
00000000
00000000
00000000
,
20020000
30030000
00000000
00000000
00000000
00000000
00000000
00000000
00022000
00033000
00000000
00000000
00000000
00000000
00000000
00000000
00002002
00003003
00000000
00000000
00000000
00000000
00000000
00000000
00000220
00000330
00000000
00000000
00000000
00000000
00000000
00000000
00001001
00000000
00000000
00000000
00000000
00000000
00000000
00000000
00000000
00000000
00000000
00000000
00000000
00000000
00000000
00000000
00000101
00000000
00000000
00000000
00000000
00000000
00000000
00000000
00000000
00000000
00000000
00000000
00000000
00000000
00000000
00000000
,
00000100
00001000
00010000
00000000
00100000
00000000
11000000
00000000
,
01000000
00010000
00001000
00000000
00000010
00000000
00000101
00000000
,
00000100
00001000
00010000
00000000
00100000
00000000
11000000
00000000
,
01000000
00010000
00001000
00000000
00000010
00000000
00000201
00000000
,
00001300
00021000
00130000
12000000
,
03010000
00000000
00012000
00000000
00003010
00000000
00000001
00000100
,
00000010
00000000
00001000
00000000
00010000
00000000
01000000
00000000
00100000
00000000
10000000
00000000
01000000
00100000
00000000
00100000
,
00010000
00000000
02000000
00000000
03010000
00100000
01000000
00010000
,
00001000
00000010
00000100
00001000
00000001
00000100
00002000
00000000
,
00003000
00000000
00010000
00100000
01000000
00100000
10000000
01000000
,
00100000
00010000
01000000
00001000
00000020
00000000
00000030
00000000
,
00000100
00000001
00000100
00010000
00001000
00000100
00000010
00001000
,
00000001
00000100
00001000
00010000
01000000
10000000
00100000
01000000
,
01100000
00000000
00100000
00010000
00011000
00000000
00001000
00000010
,
00000110
00000000
00000000
00000100
00001000
00000000
00000000
00000000
00000001
00000100
00000001
00000100
00000010
00000000
00000000
00000000
,
00001010
00010100
01001000
00110000
,
11000000
00000000
10000000
00100000
00000000
00000000
01001000
00000000
00000000
00001000
00010000
00000100
,
00001000
00010100
01001000
00010010
,
00000010
00000100
00001000
00010000
00000000
01000000
00100000
00000000
00000000
00010000
10000000
00100000
,
00010000
00000000
00000000
00001000
00000010
00000100
00001000
00000000
00001100
00000000
00000100
00000010
,
00000001
00000000
00000101
00000000
00000100
00001000
00010000
00000000
00100000
10000000
00010000
10000000
,
02000000
00000000
00000000
03000000
,
00202000
00303000
00000000
00000000
00000000
00000000
00000000
00000000
00020200
00030300
00000000
00000000
00000000
00000000
00000000
00000000
02002000
03003000
00000000
00000000
00000000
00000000
00000000
00000000
00000000
00000000
00000000
00000000
00000000
00000000
00000000
00000000
00010000
00000000
00000000
00000000
00000000
00000000
00000000
00000000
00100000
00000000
00000000
00000000
01000000
00000000
00000000
00000000
00000000
00000000
00000000
00000000
10000000
00000000
00000000
00000000
01000000
00000000
00000000
00000000
00000000
00000000
00000000
00000000
,
00100000
00010000
00100000
00001000
00010000
00000100
00001000
00000000
00000001
00000000
00000100
00000001
00000000
00001000
00000010
00001000
,
00000100
00000010
00000001
00000010
00000100
00000000
00010000
00000000
00001000
00000000
00000100
00000001
00000000
00000010
00000001
00000000
,
00001000
00000010
00010000
00001000
01000000
00000000
00010000
00000000
01000000
00100000
10000000
00010000
10000000
01000000
00100000
00010000
,
01000000
00000000
00001000
00000000
00010000
00000100
00001000
00000100
00000010
00000000
00000001
00001000
00000000
00000001
00000100
00000000
,
00000010
00001000
00000010
00010000
00001000
00000000
00100000
00000000
01000000
00000000
00010000
00000000
00001000
00000000
00100000
00010000
,
00100000
01000000
10000000
00000000
01000000
00000000
00010000
00001000
00010000
00000000
00000010
00000000
00001000
00000100
00000000
00000010
,
00000001
00000000
00000100
00000001
00000000
00001000
00000010
00000000
00000100
00000000
00001000
00000000
00010000
00000000
00001000
00000000
,
00100000
00010000
10000000
00000000
00100000
00000000
00010000
00000000
00011000
00000000
00000000
00001000
01000000
00000000
00010000
00000000
,
10000000
01000000
00100000
00010000
01000000
00000000
00001000
00000000
00010000
00000000
00000100
00000000
00000010
00000000
00000100
00000000
,
00001000
00000001
00000100
00000010
00001000
00000000
00000100
00000000
00010100
00000000
00000000
00001000
00010000
00000000
00000010
00000000
,
00001000
00000100
00010000
00001000
01000000
00000000
00010000
00000000
00100000
01000000
10000000
01000000
00100000
00010000
01000000
00000000
,
00001000
00000000
00010000
00000000
00000100
00001000
00000001
00001000
00000010
00000000
00000100
00000000
00001000
00000000
00010000
00000000
,
00100000
01000000
10000000
00010000
00100000
10000000
00010000
00100000
,
01000000
00000000
00010000
00000000
00001000
00000000
00000010
00000000
00000000
00000000
00000110
00000000
00000000
00010100
00000000
00000000
,
01001000
00000000
00000000
01100000
00000000
00000000
10000000
00000000
00010000
00000000
00100000
00000000
01000000
00000000
00100000
00000000
,
00001000
00010000
00000010
00001000
00000100
00000000
00000010
00000000
00000220
00000000
00000000
00000000
00000000
00000000
00000000
00000000
,
00000000
00000000
00000000
00000000
,
00000000
00000000
00000000
00000000
,
00000000
00000000
00000000
00000000
,
00000000
00000000
00000330
00000000
;
