#VERSION:0.83;
#TITLE:Maximum Beatissimo!!!!;
#ARTIST:ITOKEN vs. TATSUYA;
#BANNER:Maximum Beatissimo!!!!.png;
#BACKGROUND:Maximum Beatissimo!!!!-bg.png;
#JACKET:Maximum Beatissimo!!!!-jacket.png;
#MUSIC:Maximum Beatissimo!!!!.ogg;
#OFFSET:-0.24222;
#SAMPLESTART:60.577;
#SAMPLELENGTH:15;
#BPMS:0=179;

//---------------dance-single - NewbStepper-ESP----------------
#NOTEDATA:;
#CHARTNAME:NewbStepper-ESP;
#STEPSTYPE:dance-single;
#DESCRIPTION:NewbStepper-ESP;
#DIFFICULTY:Hard;
#METER:14;
#RADARVALUES:0.675097,0.817367,0.684606,0.180660,0.213939,497,425,72,19,0,0,0,0,0,0.675097,0.817367,0.684606,0.180660,0.213939,497,425,72,19,0,0,0,0,0;
#CREDIT:NewbStepper;
#NOTES:
0000
0000
0000
0000
,
0000
0000
0000
0000
,
0000
0000
0000
0000
,
0000
0000
0000
0000
,
0000
0000
0000
0000
,
0000
0000
0000
0000
,
0000
0000
0000
0000
,
0000
0000
0000
0000
,
0000
0000
0000
0000
,
1200
0000
0000
0001
0000
0000
0310
0000
,
0021
0000
0000
1000
0000
0000
0130
0000
,
0210
0000
0000
0001
0000
0000
1300
0000
,
0001
0100
0010
1000
,
0201
0000
0000
1000
0000
0000
0310
0000
,
1020
0000
0000
0001
0000
0000
0130
0000
,
0210
0000
0000
1000
0000
0000
0301
0000
,
0202
0303
2020
3030
,
1001
0001
0100
1000
1000
0100
0010
0010
,
0100
0001
0010
0100
1000
0010
0100
0001
,
1000
0100
0001
1000
0010
1000
0001
0100
,
1100
1100
0000
0000
0011
0011
0000
0000
,
1000
0010
0010
0100
0001
0001
0010
1000
,
0010
0010
0001
0100
0100
0010
1010
0000
,
0101
0001
0100
1000
0100
0001
0010
1000
,
0010
0010
0010
0000
0000
0000
0000
0000
,
0101
0001
0010
0011
0001
1000
1010
0010
,
0110
0100
0110
0000
1001
0001
0010
0100
,
1100
1000
0010
1010
1000
0001
0011
0010
,
0110
0000
1001
1000
1001
0000
0010
0000
,
1100
1000
0010
0010
0001
0010
1000
1000
,
0001
0100
1000
1100
0000
0101
0001
0010
,
1100
0000
1001
0000
0011
0100
0000
1001
,
0000
0000
1010
0000
0000
0000
0101
0000
0000
0000
1000
0010
1000
0010
1000
0010
,
1000
0100
0001
0101
0000
0100
0110
0000
,
0001
0100
1000
1100
0000
0100
0110
0000
,
0001
0001
0100
1000
1000
0100
0001
0010
,
0011
0000
0001
0000
1000
0000
1010
0000
0000
0000
0100
0001
0100
0001
0100
0001
,
0100
0000
0010
0000
1000
0000
0001
0000
0010
0000
0001
1000
0001
0000
1000
0010
,
1000
0000
0100
0000
0001
0000
0001
0000
0100
0000
0010
0000
0010
0000
0001
1000
,
0010
0000
0100
0000
0001
0000
0010
0000
1000
0000
0010
0000
0001
0000
0100
0010
,
0100
0000
1000
0000
0100
0000
0101
0000
0000
0000
0010
0100
0010
0000
1000
0000
,
0100
0000
0010
0000
0001
0000
1000
0000
0010
0000
1000
0001
1000
0000
0001
0010
,
0001
0000
0100
0000
1000
0000
1000
0000
0100
0000
0010
0000
0010
0000
1000
0001
,
0010
0000
0000
1100
0000
0000
2002
0000
,
0000
0000
0000
3003
,
1010
1000
0100
0001
0001
0100
0010
0010
,
0011
0001
0100
1000
0100
0001
0010
0000
,
0011
0001
0100
1000
1000
0100
0010
0010
,
1010
1000
0100
0001
0100
1000
0010
0000
,
0110
0100
0001
0020
0030
1000
0010
0001
,
0100
0000
0010
0000
0100
0000
0001
0000
0000
1000
0000
0000
,
0001
0100
0101
0000
1000
0100
1100
0000
,
0010
0000
0000
0000
0000
0000
0000
0000
0100
0000
0000
0000
0000
0000
0000
0000
0010
0000
0000
0000
0000
0000
0000
0000
0001
0000
0000
0000
0000
0000
0000
0000
0000
0000
0000
0000
0100
0000
0000
0000
0000
0000
0001
0000
0000
0100
0000
0000
,
0001
0000
0000
0000
0100
0000
1000
0100
1000
0000
0000
0000
0100
0000
0001
1000
,
0001
0010
0000
0000
0010
0100
0000
0000
0100
1000
0000
0000
1000
0001
0000
0000
,
1000
1000
1100
0000
0100
0100
0110
0000
,
0010
0010
0011
0000
0001
0010
1000
0010
,
0001
0000
1000
0010
1000
0000
0001
0010
0001
0000
0100
0000
0010
0000
1000
0001
,
0010
0000
0100
0000
1000
0000
0001
1000
0010
0000
0100
0000
0001
1000
0001
1000
,
0010
1010
0101
0110
,
1001
0000
1000
0000
0010
0100
0010
0000
1000
0001
1000
0001
1000
0001
1000
0001
,
0100
0100
0100
1000
0100
0001
0010
0000
,
0100
0100
0100
0001
0100
1000
0010
0000
,
0100
0100
0100
0010
0001
0010
1000
0000
,
0002
0203
0320
2030
,
3001
0000
0010
0100
0010
0000
0001
0000
1000
0010
1000
0000
0001
0000
0000
0000
,
1000
0000
0010
0100
0010
0000
1000
0000
0001
0010
0001
0000
1000
0000
0000
0000
,
0010
0000
0100
0001
0100
0000
0010
0000
1000
0001
1000
0000
0010
0000
0000
0000
,
0101
0001
0101
0000
1010
1000
1010
0000
,
0101
0001
0010
0110
0000
1001
1000
0000
,
0010
0000
0100
0001
0100
0000
0001
1000
0001
0000
1000
0010
1000
0000
0000
0000
,
1100
1100
0000
0101
0000
0110
0110
0000
,
2002
0000
0000
0000
,
0000
0000
0000
0000
,
0000
0000
0000
3003
;

//---------------dance-single - NewbStepper-DSP----------------
#NOTEDATA:;
#CHARTNAME:NewbStepper-DSP;
#STEPSTYPE:dance-single;
#DESCRIPTION:NewbStepper-DSP;
#DIFFICULTY:Medium;
#METER:10;
#RADARVALUES:0.427879,0.533065,0.285252,0.123609,0.009508,315,285,30,13,0,0,0,0,0,0.427879,0.533065,0.285252,0.123609,0.009508,315,285,30,13,0,0,0,0,0;
#CREDIT:NewbStepper;
#NOTES:
0000
0000
0000
0000
,
0000
0000
0000
0000
,
0000
0000
0000
0000
,
0000
0000
0000
0000
,
0000
0000
0000
0000
,
0000
0000
0000
0000
,
0000
0000
0000
0000
,
0000
0000
0000
0000
,
0000
0000
0000
0000
,
1000
0000
0000
0100
0000
0000
0010
0000
,
0001
0000
0000
0100
0000
0000
0010
0000
,
1000
0000
0000
0100
0000
0000
0010
0000
,
0001
0100
0010
1000
,
1100
0000
0000
0010
0000
0000
0001
0000
,
0101
0000
0000
0010
0000
0000
1000
0000
,
1001
0000
0000
0010
0000
0000
1000
0000
,
1100
0000
0011
0000
,
1000
0000
0010
1000
0000
1000
0001
0000
,
0010
0000
0001
0100
0000
0100
0010
0000
,
1000
0000
1000
0100
0000
0100
0010
0000
,
0001
0100
0000
0000
1000
0100
0000
0000
,
0001
0000
0010
0001
0000
0001
1000
0000
,
0010
0000
1000
0100
0000
0100
0010
0000
,
0001
0000
0001
0100
0000
0100
0010
0000
,
1000
0001
1000
0000
0000
0000
0000
0000
,
0011
0000
0001
0100
0000
0100
0010
0000
,
1000
0001
1000
0000
0001
0010
0100
1000
,
0001
0000
1000
0100
0000
0100
0010
0000
,
0002
0000
0000
0100
0103
0000
0000
0000
,
0010
0000
1000
0000
0100
0010
0000
1000
,
0000
0010
0001
0010
0000
0001
0100
0010
,
1000
0000
0001
0000
0010
0001
0000
1000
,
0000
0110
0000
0001
0000
1000
0100
0010
,
0002
0000
1000
1000
0000
0010
0013
0000
,
2000
0000
0001
0001
0000
0010
3010
0000
,
1010
0000
0101
0000
,
1000
0100
0001
0100
0000
0010
0010
0000
,
1001
0000
1100
0000
0010
0001
0010
0001
,
0000
1000
0010
0001
0000
0001
0010
0000
,
1001
0000
0011
0000
0100
1000
0100
1000
,
0000
0001
0100
1000
0000
1000
0100
0000
,
1001
0000
0101
0000
0010
1000
0010
1000
,
0000
0001
0010
1000
0000
0010
0001
0000
,
0101
0000
0000
1010
0000
0000
2002
0000
,
0000
0000
0000
3003
,
1000
0000
0010
1000
0000
1000
0100
0000
,
0010
0000
0001
0000
0100
0010
0100
0000
,
0001
0000
0010
0001
0000
0001
0100
0000
,
0010
0000
1000
0000
0100
0010
0100
0000
,
1000
0001
1000
0010
0000
0010
0100
0000
,
0101
1100
0110
1001
,
1000
0100
0010
0000
0010
0001
0100
0000
,
0010
0000
0010
0000
0010
0000
0010
0000
0000
1000
0000
0000
,
0002
0003
2000
3000
,
0001
0010
0100
1000
,
0001
0100
0001
0000
0100
1000
0100
0000
,
1000
0010
1000
0000
0010
0001
0010
0000
,
0011
0000
0101
0000
,
1100
0000
1010
0000
,
1000
0100
0010
0001
,
1000
0000
0010
0100
0001
0100
0010
0000
,
1000
0100
1000
0100
0000
0010
0001
0000
,
0001
0100
0001
0100
0000
0010
1000
0000
,
1000
0010
1000
0010
0000
0100
0001
0000
,
0020
0032
0203
0320
,
1030
0000
1000
0100
0000
0100
0001
0000
,
0001
0000
0001
0010
0000
0010
1000
0000
,
0001
0000
0001
0100
0000
1000
0100
0000
,
0010
0010
0010
0000
0100
0100
0100
0000
,
1001
0000
0000
0011
0000
0000
1100
0000
,
1000
0010
0001
0010
,
1000
1000
0000
0001
0000
0100
0100
0000
,
2002
0000
0000
0000
,
0000
0000
0000
0000
,
0000
0000
0000
3003
;

//---------------dance-single - NewbStepper-BSP----------------
#NOTEDATA:;
#CHARTNAME:NewbStepper-BSP;
#STEPSTYPE:dance-single;
#DESCRIPTION:NewbStepper-BSP;
#DIFFICULTY:Easy;
#METER:7;
#RADARVALUES:0.298836,0.390915,0.275744,0.076067,0,220,191,29,8,0,0,0,0,0,0.298836,0.390915,0.275744,0.076067,0,220,191,29,8,0,0,0,0,0;
#CREDIT:NewbStepper;
#NOTES:
0000
0000
0000
0000
,
0000
0000
0000
0000
,
0000
0000
0000
0000
,
0000
0000
0000
0000
,
0000
0000
0000
0000
,
0000
0000
0000
0000
,
0000
0000
0000
0000
,
0000
0000
0000
0000
,
0000
0000
0000
0000
,
0110
0000
0000
0001
0000
0000
0100
0000
,
0110
0000
0000
1000
0000
0000
0100
0000
,
0110
0000
0000
0001
0000
0000
1000
0000
,
0001
0010
0100
0000
,
1000
0000
0000
0001
0000
0000
1000
0000
,
0010
0000
0000
0100
0000
0000
0010
0000
,
0001
0000
0000
1000
0000
0000
0001
0000
,
0100
0000
0010
0000
,
0001
0001
0001
0001
,
1000
1000
1000
1000
,
0010
0010
0010
0010
,
1000
0000
0001
0000
,
1000
1000
0100
0100
,
0010
0010
0001
0001
,
1000
0100
0010
0001
,
0000
0000
0000
0000
,
1000
0000
0010
1000
,
0010
0000
0100
0001
,
0100
0000
0010
1000
,
0010
0000
0110
0000
,
1000
0100
0010
0000
,
0001
0100
0010
0000
,
1000
0000
1000
0000
,
0001
0100
1000
0100
,
0001
0000
0011
0000
,
1000
0000
1010
0000
,
0110
0000
1001
0000
,
0001
0100
0010
1000
,
1001
0000
0001
0000
0100
0100
0000
0000
,
1001
0000
0110
0000
,
1001
0000
1000
0000
0010
0010
0000
0000
,
0100
0010
0100
0010
,
1001
0000
0001
0000
0100
0100
0000
0000
,
0110
0000
1001
0000
,
1000
0000
0000
0001
0000
0000
2002
0000
,
0000
0000
0000
3003
,
1000
0100
0010
0001
,
0100
1000
0100
0000
,
0001
0100
0010
1000
,
0100
0001
0100
0000
,
1000
0100
0001
0000
,
0001
0010
1000
0000
,
1100
0000
0011
0000
,
0110
0000
1001
0000
,
0002
0003
2000
3000
,
0001
0100
0010
1000
,
0001
0000
1000
0000
,
0010
0100
0010
0100
,
1001
0000
0011
0000
,
1100
0000
0110
0000
,
1000
0001
1000
0001
,
2002
0000
0000
3003
,
0010
0001
0010
0001
,
1000
0010
0100
0000
,
0010
1000
0010
1000
,
0001
0010
0100
0000
,
1000
0100
0001
0100
,
1000
0010
0001
0010
,
1000
0001
0100
0010
,
1000
1000
0000
0000
0001
0001
0000
0000
,
1001
0000
0000
1001
0000
0000
1001
0000
,
0001
0100
1000
0100
,
0001
0000
0000
1000
0000
0000
0001
0000
,
0220
0000
0000
0000
,
0000
0000
0000
0000
,
0000
0000
0000
0330
;

//---------------dance-single - NewbStepper-bSP----------------
#NOTEDATA:;
#CHARTNAME:NewbStepper-bSP;
#STEPSTYPE:dance-single;
#DESCRIPTION:NewbStepper-bSP;
#DIFFICULTY:Beginner;
#METER:3;
#RADARVALUES:0.131759,0.355377,0.057050,0.038034,0,97,91,6,4,0,0,0,0,0,0.131759,0.355377,0.057050,0.038034,0,97,91,6,4,0,0,0,0,0;
#CREDIT:NewbStepper;
#NOTES:
0000
0000
0000
0000
,
0000
0000
0000
0000
,
0000
0000
0000
0000
,
0000
0000
0000
0000
,
0000
0000
0000
0000
,
0000
0000
0000
0000
,
0000
0000
0000
0000
,
0000
0000
0000
0000
,
0000
0000
0000
0000
,
0010
0000
0000
0000
,
0010
0000
0000
0000
,
0010
0000
0000
0000
,
0010
0000
0000
0000
,
0100
0000
0000
0000
,
0100
0000
0000
0000
,
0100
0000
0000
0000
,
0001
0000
0000
0000
,
1000
0000
0000
0000
,
0001
0000
0000
0000
,
1000
0000
0000
0000
,
0001
0000
1000
0000
,
0001
0000
0000
0000
,
1000
0000
0000
0000
,
0001
0000
0000
0000
,
0100
0000
0000
0000
,
0010
0000
0000
0000
,
1000
0000
0000
0000
,
0100
0000
0000
0000
,
0010
0000
0000
0000
,
0001
0000
0000
0000
,
0100
0000
0000
0000
,
1000
0000
0000
0000
,
0100
0000
0000
0000
,
0001
0001
0000
0000
,
1000
1000
0000
0000
,
0100
0000
0010
0000
,
0100
0000
0000
0000
,
1000
1000
1000
0000
,
0000
0000
0000
0000
,
0001
0001
0001
0000
,
0000
0000
0000
0000
,
0100
0100
0100
0000
,
0000
0000
0000
0000
,
0010
0000
0000
0020
,
0000
0000
0030
0000
,
1000
0000
0000
0000
,
0100
0100
0100
0000
,
0001
0000
0000
0000
,
0100
0100
0100
0000
,
1000
0000
0000
0000
,
0001
0000
0000
0000
,
1000
0000
1000
0000
,
0001
0001
0001
0000
,
0100
0000
0100
0000
,
0010
0000
0010
0000
,
1000
0000
0001
0000
,
1000
0000
0100
0000
,
0010
0000
0001
0000
,
0100
0000
0010
0000
,
2000
0000
0000
3000
,
0000
0000
0000
0000
,
0001
0001
0001
0000
,
0000
0000
0000
0000
,
1000
1000
1000
0000
,
0000
0000
0000
0000
,
0010
0000
0010
0000
,
1000
0000
1000
0000
,
0100
0000
0100
0000
,
0001
0000
0001
0000
,
0110
0000
1001
0000
,
0110
0000
1001
0000
,
0110
0000
0000
0000
,
2002
0000
0000
0000
,
0000
0000
0000
0000
,
0000
0000
0000
3003
;

//---------------dance-double - NewbStepper-EDP----------------
#NOTEDATA:;
#CHARTNAME:NewbStepper-EDP;
#STEPSTYPE:dance-double;
#DESCRIPTION:NewbStepper-EDP;
#DIFFICULTY:Hard;
#METER:15;
#RADARVALUES:0.665589,0.817367,0.608539,0.142626,0.209185,490,426,64,15,0,0,0,0,0,0.665589,0.817367,0.608539,0.142626,0.209185,490,426,64,15,0,0,0,0,0;
#CREDIT:NewbStepper;
#NOTES:
// measure 0
00000000
00000000
00000000
00000000
,  // measure 1
00000000
00000000
00000000
00000000
,  // measure 2
00000000
00000000
00000000
00000000
,  // measure 3
00000000
00000000
00000000
00000000
,  // measure 4
00000000
00000000
00000000
00000000
,  // measure 5
00000000
00000000
00000000
00000000
,  // measure 6
00000000
00000000
00000000
00000000
,  // measure 7
00000000
00000000
00000000
00000000
,  // measure 8
00000000
00000000
00000000
00000000
,  // measure 9
00002100
00000000
00000000
00000001
00000000
00000000
00003010
00000000
,  // measure 10
01020000
00000000
00000000
10000000
00000000
00000000
00130000
00000000
,  // measure 11
00002010
00000000
00000000
00000001
00000000
00000000
00003100
00000000
,  // measure 12
00010000
00001000
00010000
00100000
,  // measure 13
01020000
00000000
00000000
10000000
00000000
00000000
00130000
00000000
,  // measure 14
00002100
00000000
00000000
00000001
00000000
00000000
00003010
00000000
,  // measure 15
00120000
00000000
00000000
10000000
00000000
00000000
01030000
00000000
,  // measure 16
00100000
00000000
01000000
00000000
,  // measure 17
10010000
10000000
01000000
00010000
00001000
00100000
00010000
00001000
,  // measure 18
00010000
00100000
00001000
00000100
00001000
00010000
00000100
00000010
,  // measure 19
00000001
00000100
00001000
01000000
00010000
10000000
01000000
00010000
,  // measure 20
00011000
00011000
00000000
00000000
00000110
00000110
00000000
00000000
,  // measure 21
00000001
00000010
00000010
00000100
00001000
00001000
00000010
00000001
,  // measure 22
00000010
00000010
00010000
00001000
00000010
00001000
00100000
00010000
,  // measure 23
01000000
10000000
00010000
00100000
10000000
01000000
00100000
00010000
,  // measure 24
00100000
00100000
00100000
00000000
00000000
00000000
00000000
00000000
,  // measure 25
11000000
10000000
00100000
00001000
00100000
01000000
00010000
00001000
,  // measure 26
00001010
00000010
00000110
00000000
00000001
00000100
00001000
00000100
,  // measure 27
00000101
00000001
00000010
00010000
00000010
00000100
00001000
00010000
,  // measure 28
00110000
00000000
11000000
10000000
10010000
00000000
00100000
00000000
,  // measure 29
11000000
10000000
00100000
00010000
00001000
00000010
00001000
00100000
,  // measure 30
00010000
00001000
00000100
00000101
00000000
00001100
00001000
00000010
,  // measure 31
00000101
00000000
00001001
00000000
00000001
00000010
00001000
00011000
,  // measure 32
00000000
00000000
01010000
00000000
00000000
00000000
10100000
00000000
00000000
00000000
00100000
10000000
00100000
10000000
00100000
10000000
,  // measure 33
00100000
10000000
01000000
01010000
00000000
00001000
00011000
00000000
,  // measure 34
00000010
00000001
00000100
00001100
00000000
00010000
00011000
00000000
,  // measure 35
00100000
00100000
10000000
01000000
01000000
00010000
00000100
00000001
,  // measure 36
00000100
00000000
00001000
00000000
00010000
00000000
00001000
00000000
00000000
00000000
00000010
00001000
00000010
00001000
00000010
00001000
,  // measure 37
00000010
00000000
00000100
00000000
00000001
00000000
00000010
00000000
00001000
00000000
00010000
00001000
00010000
00000000
00100000
01000000
,  // measure 38
00100000
00000000
00010000
00000000
00001000
00000000
01000000
00100000
01000000
00000000
10000000
00000000
01000000
00010000
01000000
00010000
,  // measure 39
00100000
01000000
10000000
00100000
01100000
00010000
00001000
00000110
,  // measure 40
00000000
00000000
00000001
00000100
00000001
00000000
00001000
00000000
00000000
00000000
00000010
00010000
00000010
00010000
00000010
00010000
,  // measure 41
00001000
00000000
00000010
00000000
00001000
00000000
00010000
00000000
00100000
00000000
00010000
00000000
00001000
00000000
00010000
00001000
,  // measure 42
00010000
00000000
00100000
00000000
10000000
00000000
01000000
00000000
01000000
00000000
00010000
00001000
00000100
00000000
00000001
00000000
,  // measure 43
00000011
00000000
00000000
00001100
00000000
00000000
00002002
00000000
,  // measure 44
00000000
00000000
00000000
00003003
,  // measure 45
00001010
00001000
00000100
00000001
00000001
00000100
00000010
00000010
,  // measure 46
00001010
00001000
00010000
00100000
00010000
00001000
00101000
00000000
,  // measure 47
00110000
00010000
01000000
10000000
10000000
01000000
00100000
00100000
,  // measure 48
00110000
00010000
00001000
00000010
00001000
00010000
00010010
00000000
,  // measure 49
00000110
00000100
00000001
00000020
00000000
00001030
00010000
00100000
,  // measure 50
00010000
00000000
00001000
00000000
00010000
00000000
01000000
00000000
00000000
01100000
00000000
00000000
,  // measure 51
10000000
01000000
00001000
00000000
00010000
00000010
00000001
00000000
,  // measure 52
00000010
00000000
00000000
00000000
00000000
00000000
00000000
00000000
00001000
00000000
00000000
00000000
00000000
00000000
00000000
00000000
00010000
00000000
00000000
00000000
00000000
00000000
00000000
00000000
00100000
00000000
00000000
00000000
00000000
00000000
00000000
00000000
00000000
00000000
00000000
00000000
10000000
00000000
00000000
00000000
00000000
00000000
01000000
00000000
00000000
10000000
00000000
00000000
,  // measure 53
01000000
00000000
00000000
00000000
00010000
00000000
01000000
00010000
01000000
00000000
00000000
00000000
00010000
00000000
00001000
00010000
,  // measure 54
00001000
00000010
00000000
00000000
00000010
00000001
00000000
00000000
00000001
00000100
00000000
00000000
00000100
00001000
00000000
00000000
,  // measure 55
00011000
00001000
00101000
00000000
00011000
00010000
00010010
00000000
,  // measure 56
00000110
00000100
00000110
00000000
00000001
00000010
00001000
00000010
,  // measure 57
00000001
00000000
00000100
00000000
00001000
00000000
00010000
00001000
00010000
00000000
01000000
00000000
00010000
00000000
00001000
00010000
,  // measure 58
00001000
00000000
00000010
00000000
00001000
00000000
00010000
00001000
00010000
00000000
00100000
00000000
10000000
00000000
00000000
00000000
,  // measure 59
11000000
01010000
00011000
00001010
,  // measure 60
00000001
00000000
00000001
00000000
00000010
00000100
00000010
00000000
00000001
00000100
00000001
00000100
00000001
00000100
00000001
00000000
,  // measure 61
00000100
00000100
00000100
00001000
00010000
01000000
00100000
00000000
,  // measure 62
01000000
01000000
01000000
00010000
00001000
00000100
00000010
00000000
,  // measure 63
00000100
00000100
00000100
00001000
00010000
00100000
10000000
00000000
,  // measure 64
00020000
02030000
03020000
00032000
,  // measure 65
00003010
00000000
00000100
00000001
00000100
00000000
00000010
00000000
00001000
00010000
00001000
00000000
00010000
00000000
00000000
00000000
,  // measure 66
00100000
00000000
01000000
10000000
01000000
00000000
00100000
00000000
00010000
00001000
00010000
00000000
00001000
00000000
00000000
00000000
,  // measure 67
00000010
00000000
00000100
00000010
00000100
00000000
00000001
00000000
00000010
00000100
00000010
00000000
00001000
00000000
00000000
00000000
,  // measure 68
00011000
00010000
00100000
00000000
00011000
00001000
00000010
00000000
,  // measure 69
00011000
00100000
10000000
11000000
00100000
00010000
01010000
01000000
,  // measure 70
00100000
00000000
10000000
01000000
10000000
00000000
01000000
00010000
01000000
00000000
00010000
00001000
00010000
00000000
00000000
00000000
,  // measure 71
00001010
00001010
00000000
00011000
00000000
00110000
00110000
00000000
,  // measure 72
00022000
00000000
00000000
00000000
,  // measure 73
00000000
00000000
00000000
00000000
,  // measure 74
00000000
00000000
00000000
00033000
;

//---------------dance-double - NewbStepper-DDP----------------
#NOTEDATA:;
#CHARTNAME:NewbStepper-DDP;
#STEPSTYPE:dance-double;
#DESCRIPTION:NewbStepper-DDP;
#DIFFICULTY:Medium;
#METER:10;
#RADARVALUES:0.403428,0.533065,0.218694,0.123609,0.009508,297,274,23,13,0,0,0,0,0,0.403428,0.533065,0.218694,0.123609,0.009508,297,274,23,13,0,0,0,0,0;
#CREDIT:NewbStepper;
#NOTES:
// measure 0
00000000
00000000
00000000
00000000
,  // measure 1
00000000
00000000
00000000
00000000
,  // measure 2
00000000
00000000
00000000
00000000
,  // measure 3
00000000
00000000
00000000
00000000
,  // measure 4
00000000
00000000
00000000
00000000
,  // measure 5
00000000
00000000
00000000
00000000
,  // measure 6
00000000
00000000
00000000
00000000
,  // measure 7
00000000
00000000
00000000
00000000
,  // measure 8
00000000
00000000
00000000
00000000
,  // measure 9
00010000
00000000
00000000
01000000
00000000
00000000
00100000
00000000
,  // measure 10
10000000
00000000
00000000
01000000
00000000
00000000
00100000
00000000
,  // measure 11
00010000
00000000
00000000
00001000
00000000
00000000
00000100
00000000
,  // measure 12
00010000
00001000
00000100
00000001
,  // measure 13
00001000
00000000
00000000
00000100
00000000
00000000
00000010
00000000
,  // measure 14
00000001
00000000
00000000
00000100
00000000
00000000
00000010
00000000
,  // measure 15
00001000
00000000
00000000
00010000
00000000
00000000
01000000
00000000
,  // measure 16
01100000
00000000
10010000
00000000
,  // measure 17
10000000
00000000
00100000
10000000
00000000
10000000
00010000
00000000
,  // measure 18
00100000
00000000
00001000
00010000
00000000
00010000
00000100
00000000
,  // measure 19
00000010
00000000
00000001
00000100
00000000
00001000
00010000
00000000
,  // measure 20
00001000
00000100
00000000
00000000
00000001
00000100
00000000
00000000
,  // measure 21
00000001
00000000
00000010
00000001
00000000
00000001
00001000
00000000
,  // measure 22
00000010
00000000
00010000
00001000
00000000
00001000
01000000
00000000
,  // measure 23
00100000
00000000
10000000
01000000
00000000
00010000
00001000
00000000
,  // measure 24
00100000
01000000
00100000
00000000
00000000
00000000
00000000
00000000
,  // measure 25
10010000
00000000
00000000
01000000
00000000
00000000
00010000
00000000
,  // measure 26
00001000
00010000
00001000
00000000
00010000
00001000
00000010
00000001
,  // measure 27
00001000
00000000
00000000
00000100
00000000
00000000
00010000
00000000
,  // measure 28
00002000
00000000
00000000
00000010
00003010
00000000
00000000
00000000
,  // measure 29
00001000
00000000
00010000
00000000
00100000
00010000
00000000
00001000
,  // measure 30
00000000
00100000
00010000
00100000
00000000
01000000
10000000
01000000
,  // measure 31
00010000
00000000
00001000
00000000
00000010
00001000
00000000
00010000
,  // measure 32
00000000
00001000
00000000
00000100
00000000
00000001
00001000
00000000
,  // measure 33
00000200
00000000
00010000
00010000
00000000
00001000
00001300
00000000
,  // measure 34
02000000
00000000
00001000
00001000
00000000
00010000
03010000
00000000
,  // measure 35
01100000
00000000
10010000
00000000
,  // measure 36
10000000
01000000
00010000
01000000
00000000
00100000
00000000
00000000
,  // measure 37
01100000
00000000
00010000
00000000
00001000
00000010
00000000
00001000
,  // measure 38
00000000
00010000
00000000
00001000
00000000
00000100
00000001
00000000
,  // measure 39
00000110
00000000
00001000
00000000
00010000
00100000
00000000
00010000
,  // measure 40
00000000
00001000
00000000
00010000
00000000
01000000
10000000
01000000
,  // measure 41
00100000
00000000
10010000
00000000
00100000
00001000
00100000
00001000
,  // measure 42
00000000
00010000
00000010
00001000
00000000
00000001
00000100
00000000
,  // measure 43
00001100
00000000
00000000
00011000
00000000
00000000
02020000
00000000
,  // measure 44
00000000
00000000
00000000
03030000
,  // measure 45
10000000
00000000
00100000
10000000
00000000
10000000
01000000
00000000
,  // measure 46
00010000
00000000
00001000
00000000
00000100
00000010
00000100
00000000
,  // measure 47
00000001
00000000
00000010
00000001
00000000
00000001
00000100
00000000
,  // measure 48
00001000
00000000
00010000
00000000
01000000
00100000
01000000
00000000
,  // measure 49
10000000
00010000
10000000
00100000
00000000
00100000
01000000
00000000
,  // measure 50
01010000
00101000
00010100
00000110
,  // measure 51
00000001
00000100
00001000
00000000
00000100
00001000
00010000
00000000
,  // measure 52
00001000
00000000
00100000
00000000
00010000
00000000
00100000
00000000
00000000
00010000
00000000
00000000
,  // measure 53
20000000
30000000
00020000
00030000
,  // measure 54
10000000
01000000
00100000
00010000
,  // measure 55
00001000
00000100
00001000
00000000
00000001
00000100
00000001
00000000
,  // measure 56
00001000
00000010
00001000
00000000
00000001
00000010
00000001
00000000
,  // measure 57
00000011
00000000
00001010
00000000
,  // measure 58
00011000
00000000
01010000
00000000
,  // measure 59
10000000
01000000
00100000
00010000
,  // measure 60
00001000
00000100
00000010
00000001
,  // measure 61
00001000
00000100
00001000
00000100
00000000
00000010
00000001
00000000
,  // measure 62
00000100
00001000
00000100
00001000
00000000
00010000
00001000
00000000
,  // measure 63
00100000
00010000
00100000
00010000
00000000
10000000
00100000
00000000
,  // measure 64
20000000
32000000
03020000
00032000
,  // measure 65
00003100
00000000
00000100
00000001
00000000
00000001
00000010
00000000
,  // measure 66
00001000
00000000
00001000
00010000
00000000
00010000
00100000
00000000
,  // measure 67
10000000
00000000
10000000
01000000
00000000
01000000
00010000
00000000
,  // measure 68
00001000
00001000
00001000
00000000
00010000
00010000
00010000
00000000
,  // measure 69
00011000
00000000
00000000
00000110
00000000
00000000
00001001
00000000
,  // measure 70
00000001
00000010
00001000
00010000
,  // measure 71
00100000
00100000
00000000
10000000
00000000
00010000
00010000
00000000
,  // measure 72
20020000
00000000
00000000
00000000
,  // measure 73
00000000
00000000
00000000
00000000
,  // measure 74
00000000
00000000
00000000
30030000
;

//---------------dance-double - NewbStepper-BDP----------------
#NOTEDATA:;
#CHARTNAME:NewbStepper-BDP;
#STEPSTYPE:dance-double;
#DESCRIPTION:NewbStepper-BDP;
#DIFFICULTY:Easy;
#METER:7;
#RADARVALUES:0.294761,0.390915,0.247219,0.076067,0,217,191,26,8,0,0,0,0,0,0.294761,0.390915,0.247219,0.076067,0,217,191,26,8,0,0,0,0,0;
#CREDIT:NewbStepper;
#NOTES:
// measure 0
00000000
00000000
00000000
00000000
,  // measure 1
00000000
00000000
00000000
00000000
,  // measure 2
00000000
00000000
00000000
00000000
,  // measure 3
00000000
00000000
00000000
00000000
,  // measure 4
00000000
00000000
00000000
00000000
,  // measure 5
00000000
00000000
00000000
00000000
,  // measure 6
00000000
00000000
00000000
00000000
,  // measure 7
00000000
00000000
00000000
00000000
,  // measure 8
00000000
00000000
00000000
00000000
,  // measure 9
10000000
00000000
00000000
10000000
00000000
00000000
10000000
00000000
,  // measure 10
00010000
00000000
00000000
00010000
00000000
00000000
00010000
00000000
,  // measure 11
01000000
00000000
00000000
01000000
00000000
00000000
01000000
00000000
,  // measure 12
00100000
00010000
00001000
00000000
,  // measure 13
00000010
00000000
00000000
00000001
00000000
00000000
00001000
00000000
,  // measure 14
00000010
00000000
00000000
00000100
00000000
00000000
00001000
00000000
,  // measure 15
00010000
00000000
00000000
01000000
00000000
00000000
10000000
00000000
,  // measure 16
01000000
00000000
00100000
00000000
,  // measure 17
00010000
00010000
00010000
00010000
,  // measure 18
10000000
10000000
10000000
10000000
,  // measure 19
00100000
00100000
00100000
00100000
,  // measure 20
00010000
00000000
00001000
00000000
,  // measure 21
00000010
00000010
00000001
00000001
,  // measure 22
00000100
00000100
00000010
00000010
,  // measure 23
00001000
00000100
00010000
00001000
,  // measure 24
00000000
00000000
00000000
00000000
,  // measure 25
10000000
00000000
00100000
10000000
,  // measure 26
00100000
00000000
01000000
00010000
,  // measure 27
01000000
00000000
00001000
00010000
,  // measure 28
00001000
00000000
00011000
00000000
,  // measure 29
00000001
00000100
00000010
00000000
,  // measure 30
00001000
00000100
00000010
00000000
,  // measure 31
00000001
00000000
00000001
00000000
,  // measure 32
00000100
00001000
00010000
01000000
,  // measure 33
10000000
00000000
10100000
00000000
,  // measure 34
00010000
00000000
00110000
00000000
,  // measure 35
01100000
00000000
10010000
00000000
,  // measure 36
10000000
01000000
00010000
00001000
,  // measure 37
00011000
00000000
00000100
00000000
00000010
00000010
00000000
00000000
,  // measure 38
00001001
00000000
00000110
00000000
,  // measure 39
00011000
00000000
01000000
00000000
00100000
00100000
00000000
00000000
,  // measure 40
01000000
10000000
00100000
00010000
,  // measure 41
00011000
00000000
00000010
00000000
00000100
00000100
00000000
00000000
,  // measure 42
00000110
00000000
00001001
00000000
,  // measure 43
00000100
00000000
00000000
00010000
00000000
00000000
00022000
00000000
,  // measure 44
00000000
00000000
00000000
00033000
,  // measure 45
01000000
00100000
10000000
01000000
,  // measure 46
00010000
00001000
00000010
00000000
,  // measure 47
00000100
00000010
00000001
00000100
,  // measure 48
00001000
00010000
00100000
00000000
,  // measure 49
10000000
01000000
00010000
00000000
,  // measure 50
00001000
00000010
00000001
00000000
,  // measure 51
00000101
00000000
00001010
00000000
,  // measure 52
00011000
00000000
01010000
00000000
,  // measure 53
20000000
30000000
00020000
00030000
,  // measure 54
10000000
01000000
00100000
00010000
,  // measure 55
10000000
00000000
01000000
00000000
,  // measure 56
00010000
00001000
00010000
00001000
,  // measure 57
00011000
00000000
01010000
00000000
,  // measure 58
00011000
00000000
00000110
00000000
,  // measure 59
00000001
00001000
00000001
00001000
,  // measure 60
00002002
00000000
00000000
00003003
,  // measure 61
00000010
00000001
00000010
00000001
,  // measure 62
00001000
00000010
00000100
00000000
,  // measure 63
00001000
00010000
00001000
00010000
,  // measure 64
00100000
10000000
00010000
00000000
,  // measure 65
10000000
01000000
10000000
01000000
,  // measure 66
00010000
00001000
00010000
00001000
,  // measure 67
00000010
00001000
00000010
00000001
,  // measure 68
00001000
00001000
00000000
00000000
00000001
00000001
00000000
00000000
,  // measure 69
00001001
00000000
00000000
00001001
00000000
00000000
00001001
00000000
,  // measure 70
00000001
00000100
00001000
00010000
,  // measure 71
01000000
00000000
00000000
10000000
00000000
00000000
00010000
00000000
,  // measure 72
02200000
00000000
00000000
00000000
,  // measure 73
00000000
00000000
00000000
00000000
,  // measure 74
00000000
00000000
00000000
03300000
;
