#VERSION:0.83;
#TITLE:Maple Storm;
#ARTIST:tykoneko;
#BANNER:Maple Storm.png;
#BACKGROUND:Maple Storm-bg.png;
#JACKET:Maple Storm-jacket.png;
#MUSIC:Maple Storm.ogg;
#SAMPLESTART:13.713858;
#SAMPLELENGTH:15;
#DISPLAYBPM:70:140;
#BPMS:0=140,28=420,31=280,32=140,96=70,148=140;
#STOPS:28=0.857,31=0.214;

//---------------dance-single - Kekkle-ESP----------------
#NOTEDATA:;
#CHARTNAME:Kekkle-ESP;
#STEPSTYPE:dance-single;
#DESCRIPTION:Kekkle-ESP;
#DIFFICULTY:Hard;
#METER:15;
#RADARVALUES:0.633952,0.984340,0.394975,0.178126,0.809312,573,522,51,23,0,0,0,0,0,0.633952,0.984340,0.394975,0.178126,0.809312,573,522,51,23,0,0,0,0,0;
#CREDIT:Kekkle;
#NOTES:
0000
0000
0000
0000
,
0000
0000
0000
0000
,
0000
0000
0000
0000
,
0000
0000
0000
0000
,
0001
0000
0100
0000
0010
0000
1000
0100
0000
1000
0100
0000
0010
0000
0001
0000
,
0100
0000
1000
0000
0100
0000
0001
0010
0000
0001
0010
0000
0100
0000
1000
0000
,
0010
0000
0001
0000
0010
0000
0100
0001
0000
0100
0001
0000
1000
0000
0100
0000
,
0020
0000
0000
0030
,
0001
0010
0001
0000
1000
0010
1000
0010
0000
0010
0100
0000
0101
0000
0001
0000
,
1000
0100
1000
0000
0001
0100
0001
0100
0000
0100
0010
0000
1010
0000
1000
0000
,
0100
0010
0100
0000
0010
0001
0010
0001
0000
0001
1000
0000
1100
0000
0100
0000
,
1000
0001
1000
0000
0001
0010
0001
0010
0000
0010
0100
0000
0110
0000
0100
0000
,
1000
0010
1000
0000
0010
0100
0010
0100
0000
0100
0001
0000
0101
0000
0100
0000
,
0010
1000
0010
0000
0100
0010
0100
0010
0000
0010
1000
0000
1001
0000
0001
0000
,
0010
0100
0010
0000
0100
1000
0100
1000
0000
1000
0010
0000
0110
0000
0100
0000
,
0001
0010
0001
0000
1000
0100
1000
0100
0000
0100
0010
0001
0010
0001
1000
0001
,
1000
0010
1000
0010
0100
0010
0100
0010
0000
1000
0001
0000
0101
0000
0100
0000
,
0001
0010
0001
0010
0001
1000
0001
1000
0000
0010
0100
0000
0101
0000
0001
0000
,
1000
0100
1000
0100
0010
0100
0010
0100
0000
1000
0010
0000
0110
0000
0100
0000
,
0001
0010
0001
0010
0100
0010
0100
0010
0000
0001
0100
0000
0110
0000
0010
0000
,
1020
0000
1000
0000
1030
0100
1000
0001
0000
0010
0100
0000
0110
0000
0010
0000
,
0021
0000
0001
0000
0031
0100
0010
1000
0000
0001
0010
0000
0011
0000
0001
0000
,
1002
0100
0103
0000
2001
0100
3100
0000
,
2001
0000
3001
0000
1002
0000
1003
0000
2010
0000
3010
0000
1000
0100
0010
0001
,
2000
0000
0000
0000
,
3002
0000
0000
0000
,
0203
0000
0000
0000
,
0320
0000
0000
0000
0000
0000
0000
0030
,
1020
0100
0000
1000
0000
0100
0000
1000
0000
0100
0000
1000
0000
0100
0130
0000
,
0201
0010
0000
0001
0000
0010
0000
0001
0000
0010
0000
0001
0000
0010
0310
0000
,
2010
0001
0000
0010
0000
0100
0000
0010
0000
0001
0000
0010
0000
0100
3100
0000
,
0210
0001
0000
0010
0000
1000
0000
0010
0000
0001
0000
0010
0000
1000
1300
0000
,
1010
0110
0101
0110
1010
1100
1001
0110
,
1010
0101
1100
0110
0011
0101
1001
0110
,
0010
0010
1000
1000
0100
0100
0001
0001
1000
1000
0010
0010
0001
0001
0100
0100
,
0001
0000
0010
0000
0100
0000
1000
0000
0001
0000
0100
0000
0010
0000
1000
0000
0001
0100
0001
0100
0001
0100
0001
0100
0010
1000
0010
1000
0010
1000
0010
1000
,
0002
0000
0000
0000
,
1003
0010
0000
0100
0000
0001
0010
0001
0000
1000
0000
0010
0100
0001
0100
0010
,
0000
1000
0000
0000
0100
0010
0000
0100
0000
1000
0001
0000
0100
0010
1000
0010
,
0100
0000
0001
1000
0010
0100
0000
0001
0010
0100
1000
0100
0000
0010
0001
0010
,
0100
0000
1000
0001
0000
0100
0000
0010
0000
1000
0001
0000
0100
0010
0100
0001
,
0000
0000
1000
0010
0100
0001
0000
1000
0000
0010
0100
0000
0001
0000
0010
0000
,
0100
1000
0000
0001
0000
0100
0000
0010
0000
1000
0100
0000
1000
0010
0100
0001
,
1000
0100
0000
0001
0100
0000
1000
0100
0000
0001
0100
0000
1000
0000
0010
0000
,
0100
0001
0000
0010
0000
0100
1000
0100
0000
0010
0001
0000
0100
0010
1000
0001
,
0010
0100
0000
1000
0000
0001
0100
0000
0010
1000
0000
0010
0000
0100
0001
1000
,
0000
0100
0010
0000
0001
1000
0000
0010
0000
0100
0001
0000
0010
0100
1000
0001
,
0100
0010
1000
0010
0000
0100
0001
0000
1000
0100
0000
0010
0000
0001
0100
0010
,
0000
0000
1000
0100
0000
0010
0100
1000
0000
0001
0100
0000
0010
0000
1000
0000
,
1001
0000
0001
0100
0000
0010
1000
0100
0000
0010
0100
0010
0001
1000
0000
0000
,
1001
0000
0001
0100
0010
1000
0010
0000
0100
0001
0000
0010
0000
0100
1000
0000
,
1001
0000
0001
1000
0000
1000
0001
0000
1001
0000
1000
0001
0000
0001
1000
0000
,
2002
0000
0000
0003
,
3001
1000
0100
0010
0100
1000
0010
0100
,
0001
1000
0010
0001
0010
1000
0100
0010
,
0001
0010
0100
0010
0001
0010
1000
0010
,
0100
1000
0100
0010
0001
0100
0010
1000
,
1001
0001
1000
0100
0010
0001
0010
0100
,
0110
0010
0001
0100
0010
0100
0001
1000
,
1010
0010
1000
0001
0101
0100
0010
1000
,
2002
0000
0000
3003
,
0220
0000
0000
0000
,
0330
0000
0000
0000
;

//---------------dance-double - Kekkle-EDP----------------
#NOTEDATA:;
#CHARTNAME:Kekkle-EDP;
#STEPSTYPE:dance-double;
#DESCRIPTION:Kekkle-EDP;
#DIFFICULTY:Hard;
#METER:15;
#RADARVALUES:0.649441,0.984340,0.333018,0.123914,0.786078,587,544,43,16,0,0,0,0,0,0.649441,0.984340,0.333018,0.123914,0.786078,587,544,43,16,0,0,0,0,0;
#CREDIT:Kekkle;
#NOTES:
00000000
00000000
00000000
00000000
,
00000000
00000000
00000000
00000000
,
00000000
00000000
00000000
00000000
,
00000000
00000000
00000000
00000000
,
10000000
01000000
00010000
01000000
10000000
01000000
00010000
00001000
,
00000100
00000001
00000100
00001000
00000100
00000001
00000100
00000010
,
00010000
00001000
00010000
01000000
10000000
00100000
01000000
00001000
,
00020000
00000000
00000000
00030000
,
00001000
00000000
00100000
00010000
00100000
00000000
00010000
01000000
00000000
01000000
00100000
00000000
10100000
00000000
10000000
00000000
,
00010000
00000000
01000000
00100000
01000000
00000000
00010000
00100000
00000000
00100000
00001000
00000000
00011000
00000000
00010000
00000000
,
00000100
00000000
00001000
00000010
00001000
00000000
00000001
00000100
00000000
00000100
00000010
00000000
00001010
00000000
00001000
00000000
,
00000100
00000000
00010000
00000010
00010000
00000000
00001000
00010000
00000000
00010000
01000000
00000000
11000000
00000000
10000000
00000000
,
00100000
00000000
10000000
01000000
10000000
00000000
00010000
01000000
00000000
01000000
00100000
00000000
01100000
00000000
01000000
00000000
,
00001000
00000000
00100000
00001000
00100000
00000000
00001000
00010000
00000000
00010000
00000100
00000000
00001100
00000000
00001000
00000000
,
00000010
00000000
00000100
00000001
00000100
00000000
00000010
00010000
00000000
00010000
00001000
00000000
00101000
00000000
00100000
00000000
,
01000000
00000000
10000000
00010000
10000000
00000000
00100000
10000000
00000000
10000000
00010000
01000000
00010000
01000000
00001000
00010000
,
00001000
00000000
00100000
00010000
00100000
00010000
00100000
00001000
00000000
00010000
00000100
00000000
00010100
00000000
00010000
00000000
,
00000010
00000000
00000100
00000001
00000100
00000001
00000100
00000010
00000000
00001000
00000100
00000000
00001100
00000000
00001000
00000000
,
00000010
00000000
00010000
00001000
00010000
00001000
00010000
00100000
00000000
01000000
00010000
00000000
01010000
00000000
01000000
00000000
,
00100000
00000000
10000000
01000000
10000000
01000000
10000000
00010000
00000000
01000000
00001000
00000000
01001000
00000000
01000000
00000000
,
02010000
00000000
00010000
00000000
03010000
10000000
00010000
00100000
00000000
00001000
00010000
00000000
00010100
00000000
00000100
00000000
,
00001200
00000000
00001000
00000000
00001300
00000001
00000010
00000100
00000000
00001000
00000010
00000000
00001010
00000000
00001000
00000000
,
00001200
00010000
00010300
00000000
00210000
00001000
00301000
00000000
,
00001000
00000000
00010000
00000000
00001000
00000100
00000000
00000001
00000010
00000100
00000010
00000100
00001000
00000100
00001000
00000100
,
00020000
00000000
00000000
00000000
,
00032000
00000000
00000000
00000000
,
02003000
00000000
00000000
00000000
,
03200000
00000000
00000000
00000000
,
10300000
01000000
00010000
01000000
10000000
01000000
00010000
00001000
00000100
00000010
00001000
00000001
00000010
00000100
00001000
00000010
,
00010000
00001000
00010000
01000000
10000000
01000000
00100000
00010000
01000000
10000000
01000000
00001000
00010000
01000000
00100000
00010000
,
01000000
00001000
00010000
01000000
00010000
00001000
00000100
00000010
00001000
00000100
00000010
00000001
00001000
00000010
00000100
00001000
,
00010000
01000000
00100000
00010000
10000000
00100000
01000000
00010000
10000000
01000000
00010000
00001000
00000010
00000001
00000100
00001000
,
00011000
00101000
00110000
10010000
11000000
01100000
00101000
00010100
,
00001100
00000110
00000101
00010010
00010100
00101000
00011000
01001000
,
01000000
01000000
00010000
00010000
00100000
00100000
00001000
00001000
00010000
00010000
00000010
00000010
00000100
00000100
00000001
00000001
,
00000100
00000000
00001000
00000000
00000100
00000000
00000010
00000000
00010000
00000000
00001000
00000000
00010000
00000000
01000000
00000000
10000000
00100000
10000000
00100000
01000000
00010000
01000000
00010000
00100000
00001000
00100000
00001000
00010000
00000100
00010000
00000100
,
00002000
00000000
00000000
00000000
,
00003100
00000010
00000000
00000001
00000000
00000100
00000010
00001000
00000000
00000100
00000000
00010000
00000000
00001000
00010000
00100000
,
00000000
01000000
00010000
00000000
10000000
01000000
00000000
00100000
00000000
00010000
10000000
01000000
00000000
00100000
00010000
00100000
,
00001000
00000000
00010000
00000100
00010000
00000100
00001000
00000010
00000000
00000100
00000001
00000010
00000000
00000100
00010000
00001000
,
00000000
00100000
00010000
00100000
01000000
10000000
00000000
00010000
00000000
10000000
01000000
00000000
00100000
00010000
00100000
00010000
,
01000000
00000000
00001000
00010000
00001000
00010000
00001000
00000100
00000000
00000001
00001000
00000000
00000010
00000000
00000100
00000000
,
00001000
00010000
00000000
01000000
00000000
00100000
00000000
00010000
00000000
10000000
00100000
00000000
01000000
00010000
01000000
00010000
,
00100000
00001000
00000000
00001000
00010000
00000000
00010000
00000100
00000000
00000100
00000010
00000000
00000001
00000000
00000100
00000000
,
00001000
00010000
00000000
00001000
00000000
00000100
00000001
00000010
00000000
00000100
00001000
00000000
00000100
00010000
00000100
00010000
,
00001000
00100000
00000000
00010000
00000000
10000000
01000000
00000000
00010000
00001000
00000000
00010000
00000000
01000000
00100000
00010000
,
00000000
10000000
00010000
00000000
01000000
00001000
00000000
00010000
00000000
00001000
00000100
00000000
00000000
00000001
00000010
00000100
,
00001000
00000100
00000001
00000100
00010000
00001000
00010000
00000000
00001000
01000000
00000000
00010000
00000000
01000000
00100000
10000000
,
00000000
01000000
00100000
00010000
10000000
00100000
01000000
00000000
00000000
00010000
00000000
00000000
00100000
00001000
00010000
00001000
,
00000100
00000000
00000001
00000010
00000000
00000100
00001000
00000010
00000000
00010000
00001000
00000100
00000000
00000010
00000000
00000000
,
00001010
00000000
00001000
00000100
00001000
00000100
00010000
00000000
00001000
01000000
00000000
00010000
00000000
10000000
01000000
00000000
,
11000000
00000000
10000000
01000000
00010000
00001000
00010000
00000000
00011000
00000000
00001000
00100000
00001000
00000100
00000001
00000000
,
00000202
00000000
00000000
00000300
,
00000103
00000010
00001000
00000001
00000100
00001000
00010000
00100000
,
10000000
01000000
00100000
00001000
00010000
00100000
10000000
00100000
,
01000000
00010000
10000000
01000000
00010000
00001000
00000100
00000001
,
00000010
00001000
00010000
01000000
00100000
00010000
10000000
00100000
,
01100000
01000000
00001000
00010000
01000000
00010000
00000100
00001000
,
00001001
00000001
00000100
00001000
00010000
00100000
00010000
00001000
,
01001000
01000000
00010000
10000000
11000000
01000000
10000000
00010000
,
20020000
00000000
00000000
30030000
,
00022000
00000000
00000000
00000000
,
00033000
00000000
00000000
00000000
;

//---------------dance-single - Kekkle-DSP----------------
#NOTEDATA:;
#CHARTNAME:Kekkle-DSP;
#STEPSTYPE:dance-single;
#DESCRIPTION:Kekkle-DSP;
#DIFFICULTY:Medium;
#METER:11;
#RADARVALUES:0.404933,0.744257,0.147148,0.116169,0.224594,366,347,19,15,0,0,0,0,0,0.404933,0.744257,0.147148,0.116169,0.224594,366,347,19,15,0,0,0,0,0;
#CREDIT:Kekkle;
#NOTES:
0000
0000
0000
0000
,
0000
0000
0000
0000
,
0000
0000
0000
0000
,
0000
0000
0000
0000
,
1000
0000
0010
0000
0100
0000
0000
0001
0000
0000
0010
0000
0100
0000
0000
0000
,
1000
0000
0001
0000
0010
0000
0000
0100
0000
0000
1000
0000
0010
0000
0000
0000
,
0100
0000
0001
0000
0100
0000
0000
0010
0000
0000
1000
0000
0001
0000
0000
0000
,
0020
0000
0000
0030
,
0100
0000
1000
0000
0100
0000
0000
0010
0000
0000
0001
0000
0100
0000
0010
0000
,
1000
0000
0010
0000
0100
0000
0000
0001
0000
0000
0010
0000
0100
0000
1000
0000
,
0100
0000
0010
0000
0100
0000
0000
1000
0000
0000
0010
0000
0100
0000
0001
0000
,
0010
0000
0100
0000
1000
0000
0000
0010
0000
0000
0100
0000
0001
0000
0010
0000
,
0100
0000
1000
0000
0100
0000
0000
0010
0000
0000
0001
0000
0100
0000
0010
0000
,
0100
0000
0001
0000
0010
0000
0000
0100
0000
0000
1000
0000
0100
0000
0010
0000
,
0001
0000
0100
0000
0010
0000
0000
1000
0000
0000
0010
0000
0100
0000
0010
0000
,
1000
0000
0100
0000
0010
0000
0000
0001
0000
0000
1000
0000
0010
0000
0100
0000
,
0001
0000
0010
0000
0001
0000
0000
1000
0000
0000
0100
0000
0010
0000
0100
0000
,
1000
0000
0001
0000
0100
0000
0000
0010
0000
0000
0100
0000
0010
0000
0100
0000
,
0001
0000
1000
0000
0100
0000
0000
0010
0000
0000
0001
0000
0010
0000
0100
0000
,
0010
0000
0001
0000
1000
0000
0000
0100
0000
0000
0010
0000
0001
0000
0010
0000
,
0110
0000
0100
0000
1000
0001
1000
0000
,
1001
0000
0001
0000
0100
0010
0100
0000
,
0110
0010
1010
1000
,
1001
0000
0000
0000
0001
0000
0000
0100
0000
0000
0001
0000
0010
0000
0100
0000
,
2000
0000
0000
0000
,
3020
0000
0000
0000
,
0230
0000
0000
0000
,
0302
0000
0000
0000
,
0023
0100
0000
0100
0000
0100
0000
0100
0000
0100
0000
0100
0000
0100
0130
0000
,
2000
0010
0000
0010
0000
0010
0000
0010
0000
0010
0000
0010
0000
0010
3010
0000
,
0200
0001
0000
0001
0000
0001
0000
0001
0000
0001
0000
0001
0000
0001
0301
0000
,
2000
0100
0000
0100
0000
0100
0000
0100
0000
0100
0000
0100
0000
0100
3100
0000
,
1000
0001
0100
0101
0001
1000
0010
0110
,
0100
0001
0010
0011
0001
1000
0010
1010
,
1000
0100
1000
0100
1000
0100
1000
0100
0010
0001
0010
0001
0010
0001
0010
0001
,
1000
0010
0100
0000
0001
0010
0100
0000
1000
0100
0001
0100
1000
0010
0001
0010
,
2000
0000
0000
0000
,
3001
0100
0010
0100
0001
0010
0100
1000
,
0010
0100
0001
0010
0100
0010
0001
0000
,
1000
0010
0100
0001
0100
0010
1000
0100
,
0010
0001
0010
1000
0010
0001
1000
0000
,
0010
0100
1000
0100
0010
0100
0001
0010
,
0100
1000
0010
0100
0001
0100
0010
0000
,
1000
0100
0010
0001
0010
0100
0010
0001
,
0010
1000
0010
0100
1000
0001
0100
0000
,
0010
1000
0010
0100
0010
0001
0010
0100
,
0001
0010
0100
1000
0100
0010
0001
0000
,
0100
0010
0100
1000
0100
0001
0010
0100
,
1000
0100
0001
0100
0010
0001
1000
0000
,
1001
0000
0001
1000
0001
0010
0100
0000
,
1001
0000
0010
0100
0010
1000
0001
0000
,
1001
0010
1001
0100
,
2002
0000
0000
3003
,
0001
0001
0100
0100
,
0010
1000
0100
0010
,
0100
0100
1000
1000
,
0010
0100
0001
0010
,
0110
0100
1000
0010
,
0110
0100
0001
0010
,
0011
1000
1010
0001
,
2002
0000
0000
3003
,
0020
0000
0000
0000
,
0030
0000
0000
0000
;

//---------------dance-single - Kekkle-BSP----------------
#NOTEDATA:;
#CHARTNAME:Kekkle-BSP;
#STEPSTYPE:dance-single;
#DESCRIPTION:Kekkle-BSP;
#DIFFICULTY:Easy;
#METER:6;
#RADARVALUES:0.232338,0.336116,0.154892,0.154892,0,210,190,20,20,0,0,0,0,0,0.232338,0.336116,0.154892,0.154892,0,210,190,20,20,0,0,0,0,0;
#CREDIT:Kekkle;
#NOTES:
0000
0000
0000
0000
,
0000
0000
0000
0000
,
0000
0000
0000
0000
,
0000
0000
0000
0000
,
0001
1000
0001
0100
,
0010
1000
0001
0010
,
0100
1000
0010
0100
,
0002
0000
0000
0003
,
1000
0010
0100
0100
,
0001
0000
0010
0000
0100
1000
0100
0000
,
0010
0001
0100
0100
,
0010
0000
1000
0000
0010
0100
0010
0000
,
1000
0100
0010
0010
,
0001
0000
0100
0000
0010
1000
0010
0000
,
0100
0001
1000
1000
,
0010
0000
0100
0000
0001
0010
0001
0000
,
1000
0010
0100
0100
,
0001
0000
0010
0000
0100
1000
0100
0000
,
0010
0001
1000
1000
,
0010
0000
0100
0000
0001
0010
0001
0000
,
1001
0000
0001
1000
,
1001
0000
1000
0001
,
1001
0000
0110
0000
,
1001
0000
0001
0100
,
0020
0000
0000
0000
,
2030
0000
0000
0000
,
3002
0000
0000
0000
,
0203
0000
0000
0000
,
0320
0000
2030
0000
,
3002
0000
0023
0000
,
0230
0000
2300
0000
,
3020
0000
0230
0000
,
0301
0010
0001
0000
1000
0010
1000
0000
,
0001
0100
0001
0000
1000
0100
1000
0000
,
1001
0001
1001
1000
,
0110
0010
0110
0100
,
0220
0000
0000
0330
,
0010
1000
0010
0100
,
0010
0000
1000
0000
0001
0100
0001
0000
,
0010
0100
1000
0100
,
0010
0000
0100
0000
1000
0001
1000
0000
,
0010
0100
0001
0100
,
0010
0000
0100
0000
0001
0010
0001
0000
,
1000
0100
0010
0001
,
0010
0000
0100
0000
1000
0001
1000
0000
,
0010
0100
0010
1000
,
0010
0000
0100
0000
0001
0010
0001
0000
,
1000
0100
0001
0100
,
1000
0000
0001
0000
0100
0010
0100
0000
,
0110
0000
0010
0100
,
0110
0000
0010
1000
,
1010
0000
0110
0000
,
2002
0000
0000
3003
,
0001
0000
1000
0000
,
0001
0000
0010
0000
,
0100
0000
1000
0000
,
0100
0000
0010
0000
,
1001
0000
0010
0000
,
1001
0000
0100
0000
,
1001
0000
0110
0000
,
0220
0000
0000
0330
,
0200
0000
0000
0000
,
0300
0000
0000
0000
;

//---------------dance-double - Kekkle-DDP----------------
#NOTEDATA:;
#CHARTNAME:Kekkle-DDP;
#STEPSTYPE:dance-double;
#DESCRIPTION:Kekkle-DDP;
#DIFFICULTY:Medium;
#METER:11;
#RADARVALUES:0.410465,0.792274,0.147148,0.085191,0.232338,371,352,19,11,0,0,0,0,0,0.410465,0.792274,0.147148,0.085191,0.232338,371,352,19,11,0,0,0,0,0;
#CREDIT:Kekkle;
#NOTES:
// measure 0
00000000
00000000
00000000
00000000
,  // measure 1
00000000
00000000
00000000
00000000
,  // measure 2
00000000
00000000
00000000
00000000
,  // measure 3
00000000
00000000
00000000
00000000
,  // measure 4
10000000
00000000
01000000
00000000
00100000
00000000
00000000
00010000
00000000
00000000
01000000
00000000
00100000
00000000
10000000
00000000
,  // measure 5
01000000
00000000
00010000
00000000
00001000
00000000
00000000
00000100
00000000
00000000
00000001
00000000
00000010
00000000
00000100
00000000
,  // measure 6
00001000
00000000
00000100
00000000
00010000
00000000
00000000
00001000
00000000
00000000
00100000
00000000
00010000
00000000
00100000
00000000
,  // measure 7
02000000
00000000
00000000
03000000
,  // measure 8
10000000
00000000
00100000
00000000
01000000
00000000
00000000
00010000
00000000
00000000
00100000
00000000
00001000
00000000
00010000
00000000
,  // measure 9
00001000
00000000
00000100
00000000
00000010
00000000
00000000
00001000
00000000
00000000
00000001
00000000
00000010
00000000
00001000
00000000
,  // measure 10
00000010
00000000
00000100
00000000
00010000
00000000
00000000
00001000
00000000
00000000
00010000
00000000
00001000
00000000
00010000
00000000
,  // measure 11
01000000
00000000
00100000
00000000
00010000
00000000
00000000
10000000
00000000
00000000
00100000
00000000
01000000
00000000
00010000
00000000
,  // measure 12
10000000
00000000
01000000
00000000
00100000
00000000
00000000
00001000
00000000
00000000
00010000
00000000
00001000
00000000
00000100
00000000
,  // measure 13
00000010
00000000
00000100
00000000
00000001
00000000
00000000
00001000
00000000
00000000
00000001
00000000
00000010
00000000
00000100
00000000
,  // measure 14
00010000
00000000
00001000
00000000
00010000
00000000
00000000
00000100
00000000
00000000
00010000
00000000
00001000
00000000
00010000
00000000
,  // measure 15
00100000
00000000
01000000
00000000
00010000
00000000
00000000
10000000
00000000
00000000
01000000
00000000
00100000
00000000
01000000
00000000
,  // measure 16
10000000
00000000
00010000
00000000
00100000
00000000
00000000
00001000
00000000
00000000
00100000
00000000
00010000
00000000
00100000
00000000
,  // measure 17
00001000
00000000
00010000
00000000
00000100
00000000
00000000
00000010
00000000
00000000
00000001
00000000
00000100
00000000
00001000
00000000
,  // measure 18
00010000
00000000
00001000
00000000
00000100
00000000
00000000
00000010
00000000
00000000
00001000
00000000
00000100
00000000
00010000
00000000
,  // measure 19
00001000
00000000
00100000
00000000
00010000
00000000
00000000
10000000
00000000
00000000
00100000
00000000
01000000
00000000
00001000
00000000
,  // measure 20
00101000
00000000
00100000
00000000
00001000
00010000
00000100
00000000
,  // measure 21
00010100
00000000
00010000
00000000
00000010
00001000
00000001
00000000
,  // measure 22
00001001
00000010
00001100
00010000
,  // measure 23
00011000
00000000
00000000
00000000
00001000
00000000
00000000
00100000
00000000
00000000
01000000
00000000
10000000
00000000
01000000
00000000
,  // measure 24
00200000
00000000
00000000
00000000
,  // measure 25
00302000
00000000
00000000
00000000
,  // measure 26
00023000
00000000
00000000
00000000
,  // measure 27
00030200
00000000
00000000
00000000
,  // measure 28
00000310
00000001
00000000
00000100
00000000
00001000
00000000
00000100
00000000
00000010
00000000
00010000
00000000
00001000
00001000
00000000
,  // measure 29
01000000
00010000
00000000
00100000
00000000
10000000
00000000
00100000
00000000
00001000
00000000
00010000
00000000
00001000
00001000
00000000
,  // measure 30
00100000
00010000
00000000
10000000
00000000
01000000
00000000
00010000
00000000
00001000
00000000
00000010
00000000
00000001
00000001
00000000
,  // measure 31
00000100
00000010
00000000
00010000
00000000
00001000
00000000
00010000
00000000
01000000
00000000
00100000
00000000
00010000
00010000
00000000
,  // measure 32
10000000
00100000
01000000
01010000
00010000
00100000
00001000
00011000
,  // measure 33
00010000
00000100
00000010
00000110
00000100
00001000
00000001
00000101
,  // measure 34
00000100
00000001
00000100
00000001
00001000
00000010
00001000
00000010
00010000
00001000
00010000
00001000
01000000
00010000
01000000
00010000
,  // measure 35
10000000
01000000
00100000
00010000
00001000
00000100
00000010
00000001
00000100
00001000
00000100
00000010
00010000
00001000
00010000
01000000
,  // measure 36
20000000
00000000
00000000
00000000
,  // measure 37
30100000
01000000
00100000
10000000
01000000
00010000
00001000
00010000
,  // measure 38
00100000
01000000
00100000
00010000
00001000
00010000
00000100
00000000
,  // measure 39
00000010
00000001
00000010
00001000
00000010
00000100
00010000
00001000
,  // measure 40
00000100
00001000
00100000
00010000
00100000
01000000
10000000
00000000
,  // measure 41
00010000
01000000
10000000
01000000
00100000
10000000
01000000
00100000
,  // measure 42
00001000
00010000
00001000
00000100
00000001
00000010
00000100
00000000
,  // measure 43
00001000
00000100
00000001
00000100
00001000
00000010
00010000
00001000
,  // measure 44
00100000
01000000
00100000
00001000
00010000
00100000
01000000
00000000
,  // measure 45
00010000
10000000
01000000
00010000
00001000
00000010
00001000
00010000
,  // measure 46
01000000
00100000
00010000
10000000
00100000
01000000
00001000
00000000
,  // measure 47
00010000
00001000
00010000
01000000
00100000
00010000
10000000
00100000
,  // measure 48
01000000
00001000
00010000
00001000
00000100
00000001
00000010
00000000
,  // measure 49
00001100
00000000
00000100
00010000
00001000
00010000
00000100
00000000
,  // measure 50
00101000
00000000
00100000
00001000
00010000
00001000
00100000
00000000
,  // measure 51
01100000
01000000
11000000
10000000
,  // measure 52
20020000
00000000
00000000
30030000
,  // measure 53
10000000
00100000
01000000
00001000
,  // measure 54
00010000
01000000
10000000
01000000
,  // measure 55
00100000
00001000
00010000
00001000
,  // measure 56
00000100
00000010
00001000
00000100
,  // measure 57
00010100
00010000
00001000
00100000
,  // measure 58
00110000
00010000
10000000
00100000
,  // measure 59
01100000
01000000
01001000
00001000
,  // measure 60
00022000
00000000
00000000
00033000
,  // measure 61
00020000
00000000
00000000
00000000
,  // measure 62
00030000
00000000
00000000
00000000
;

//---------------dance-double - Kekkle-BDP----------------
#NOTEDATA:;
#CHARTNAME:Kekkle-BDP;
#STEPSTYPE:dance-double;
#DESCRIPTION:Kekkle-BDP;
#DIFFICULTY:Easy;
#METER:7;
#RADARVALUES:0.232338,0.336116,0.162637,0.154892,0,210,189,21,20,0,0,0,0,0,0.232338,0.336116,0.162637,0.154892,0,210,189,21,20,0,0,0,0,0;
#CREDIT:Kekkle;
#NOTES:
00000000
00000000
00000000
00000000
,
00000000
00000000
00000000
00000000
,
00000000
00000000
00000000
00000000
,
00000000
00000000
00000000
00000000
,
10000000
00100000
01000000
00100000
,
10000000
01000000
00010000
00001000
,
00010000
00001000
00000100
00000001
,
00000020
00000000
00000000
00000030
,
00000100
00001000
00000100
00000001
,
00000100
00000000
00000010
00000000
00000001
00001000
00000001
00000000
,
00000100
00000010
00010000
00001000
,
00010000
00000000
01000000
00000000
00100000
00010000
00100000
00000000
,
01000000
10000000
00100000
01000000
,
00001000
00000000
00010000
00000000
00001000
00100000
00001000
00000000
,
00010000
00001000
00000100
00000010
,
00001000
00000000
00000001
00000000
00000010
00000100
00000010
00000000
,
00000001
00000100
00001000
00010000
,
00001000
00000000
00000100
00000000
00000001
00000010
00000001
00000000
,
00000010
00001000
00010000
00001000
,
01000000
00000000
00010000
00000000
10000000
00100000
10000000
00000000
,
10010000
00000000
01000000
00001000
,
00011000
00000000
00010000
00000010
,
00001010
00000000
00000110
00000000
,
00001001
00000000
00000110
00000000
,
00000002
00000000
00000000
00000000
,
00002003
00000000
00000000
00000000
,
00003020
00000000
00000000
00000000
,
00020030
00000000
00000000
00000000
,
00032000
00000000
00203000
00000000
,
00320000
00000000
02030000
00000000
,
23000000
00000000
32000000
00000000
,
03002000
00000000
00023000
00000000
,
00030100
00001000
00000100
00000000
00000010
00000001
00000010
00000000
,
00000100
00010000
00000100
00000000
00010000
00001000
00010000
00000000
,
00011000
00001000
01001000
01000000
,
01010000
00010000
10010000
00100000
,
02200000
00000000
00000000
03300000
,
01000000
00010000
10000000
01000000
,
00100000
00000000
00010000
00000000
01000000
00001000
01000000
00000000
,
00010000
10000000
01000000
00010000
,
00001000
00000000
00010000
00000000
00000100
00001000
00000100
00000000
,
00000010
00000001
00000100
00001000
,
00000100
00000000
00000010
00000000
00010000
00001000
00010000
00000000
,
01000000
10000000
00100000
00010000
,
00001000
00000000
00010000
00000000
00100000
10000000
00100000
00000000
,
10000000
01000000
00010000
00001000
,
00000010
00000000
00001000
00000000
00000010
00000100
00000010
00000000
,
00000001
00000100
00000010
00010000
,
00001000
00000000
00000100
00000000
00000010
00010000
00000010
00000000
,
00010010
00000000
00010000
00001000
,
00101000
00000000
00100000
01000000
,
01100000
00000000
10010000
00000000
,
02002000
00000000
00000000
03003000
,
00001000
00000000
00100000
00000000
,
00001000
00000000
00000100
00000000
,
00000001
00000000
00000010
00000000
,
00001000
00000000
00010000
00000000
,
00011000
00000000
00000100
00000000
,
00011000
00000000
00100000
00000000
,
00011000
00000000
00011000
00000000
,
00022000
00000000
00000000
00033000
,
00002000
00000000
00000000
00000000
,
00003000
00000000
00000000
00000000
;

//---------------dance-single - Kekkle-bSP----------------
#NOTEDATA:;
#CHARTNAME:Kekkle-bSP;
#STEPSTYPE:dance-single;
#DESCRIPTION:Kekkle-bSP;
#DIFFICULTY:Beginner;
#METER:3;
#RADARVALUES:0.129446,0.240083,0.162637,0.131658,0,117,96,21,17,0,0,0,0,0,0.129446,0.240083,0.162637,0.131658,0,117,96,21,17,0,0,0,0,0;
#CREDIT:Kekkle;
#NOTES:
0000
0000
0000
0000
,
0000
0000
0000
0000
,
0000
0000
0000
0000
,
0000
0000
0000
0000
,
1000
0000
0000
0000
,
0001
0000
0000
0000
,
1000
0000
0000
0000
,
0020
0030
0000
0000
,
0100
0000
0001
0000
,
0010
0000
1000
0000
,
0010
0000
0001
0000
,
0100
0000
0010
0000
,
1000
0000
0010
0000
,
0100
0000
1000
0000
,
0100
0000
0001
0000
,
0010
0000
0100
0000
,
1000
0000
0100
0000
,
1000
0000
0010
0000
,
0100
0000
1000
0000
,
0100
0000
0001
0000
,
0101
0000
0000
0000
,
1010
0000
0000
0000
,
1001
0000
0000
0000
,
0110
0000
0000
0000
,
2000
0000
0000
3000
,
0002
0000
0000
0003
,
0020
0000
0000
0030
,
0200
0000
0000
0300
,
2000
0000
0000
3000
,
0020
0000
0000
0030
,
0200
0000
0000
0300
,
0002
0000
0000
0003
,
2000
3001
0002
1003
,
2000
3010
0020
1030
,
1001
0000
0110
0000
,
0101
0000
1010
0000
,
2002
0000
0000
3003
,
1000
0000
0010
0000
,
0100
0000
0001
0000
,
0010
0000
1000
0000
,
0010
0000
0001
0000
,
0100
0000
0010
0000
,
0100
0000
0001
0000
,
1000
0000
0100
0000
,
0001
0000
0100
0000
,
1000
0000
0010
0000
,
0100
0000
0001
0000
,
0010
0000
1000
0000
,
0010
0000
0001
0000
,
1001
0000
0000
0000
,
0110
0000
0000
0000
,
1001
0000
1001
0000
,
0101
0000
0000
0000
,
1001
0000
1000
0000
,
0001
0000
1000
0000
,
0010
0000
0100
0000
,
0010
0000
0100
0000
,
0110
0000
0000
0000
,
0101
0000
0000
0000
,
1010
0000
1010
0000
,
1001
0000
0000
0000
,
0220
0000
0000
0000
,
0330
0000
0000
0000
;
