#TITLE:MaXX to the XXimum;
#ARTIST:MegaSphere;
#BANNER:MaXX to the XXimum.png;
#BACKGROUND:MaXX to the XXimum-bg.png;
#MUSIC:MaXX to the XXimum.ogg;
#OFFSET:0.8;
#SAMPLESTART:19.19;
#SAMPLELENGTH:15;
#DISPLAYBPM:150:300;
#BPMS:0=300,164=150,196=300,323=600,327=300,329=150,329.5=75,329.75=37.75,330=150,362=300;
#STOPS:258=0.2;

//---------------dance-single - Marten-bSP----------------
#NOTES:
     dance-single:
     Marten:
     Beginner:
     6:
     :
0000
0000
0000
0000
,
0000
0000
0000
0000
,
0000
0000
0000
0000
,
0000
0000
0000
0000
,
0000
0000
0000
0000
,
0000
0000
0000
0000
,
0000
0000
0000
0000
,
1000
0000
0000
0000
,
0001
0000
0000
0000
,
0100
0000
0100
0000
,
0100
0000
0000
0000
,
0001
0000
0000
0000
,
1000
0000
0000
0000
,
0100
0000
0100
0000
,
0100
0000
0000
0000
,
1000
0000
0000
0000
,
0001
0000
0000
0000
,
0010
0000
0010
0000
,
0010
0000
0000
0000
,
0001
0000
0000
0000
,
1000
0000
0000
0000
,
0010
0000
0000
0010
,
0000
0000
0100
0000
,
1002
0000
1000
0000
,
1000
0000
1003
0000
,
1001
0000
0001
0000
,
1000
0000
1000
0000
,
0001
0000
1000
0000
,
0010
0000
0000
0000
,
0000
0000
0010
0000
,
0010
0000
0100
0000
,
0010
0000
0010
0000
,
1001
0000
0000
0000
,
0001
0000
0001
0000
,
1000
0000
1000
0000
,
1001
0000
0000
0000
,
0110
0000
0000
0000
,
0001
0000
0000
1000
,
0000
0000
0001
0000
,
1000
0000
1000
0000
,
0001
0000
1000
0000
,
2001
0000
0000
3000
,
0020
0000
0000
0030
,
0200
0000
0000
0300
,
0002
0000
0000
0003
,
1000
1000
0001
0001
,
1000
1000
0001
0001
,
1000
0010
0100
0001
,
0100
0100
0001
0000
,
1000
0000
0100
0000
,
1000
0000
1000
0000
,
0001
0000
0100
0000
,
0001
0000
0001
0000
,
1001
0000
0000
0000
,
1001
0000
0000
0000
,
1000
0000
0001
0000
,
1001
0000
1001
0000
,
0001
0000
0010
0000
,
0001
0000
0001
0000
,
1000
0000
0010
0000
,
1000
0000
1000
0000
,
0001
0000
1000
0000
,
0010
0000
0100
0000
,
0110
0000
1001
0000
,
0110
0000
0000
0001
,
0000
0000
0000
1000
,
0000
0001
0000
0001
,
0000
0000
0000
0010
,
0000
0001
0000
0001
,
0000
0000
0000
0100
,
0000
0001
0000
0001
,
0000
1000
0000
1001
,
0000
0000
0000
1000
,
0000
0000
0000
0001
,
0000
1000
0000
1000
,
0000
0000
0000
0010
,
0000
1000
0000
1000
,
0000
0000
0000
1000
,
0000
0000
0000
0001
,
0000
0001
0000
1000
,
0000
1000
0000
2002
,
0000
0000
0000
0000
,
0000
0000
0000
3003
0001
0000
0000
0001
,
0000
1000
1000
0001
,
1000
0000
0010
0000
1000
0000
0000
1000
,
0000
0001
1000
0100
,
0010
0000
0000
0000
1001
0000
0000
1001
,
0000
0001
1000
0010
,
0110
0000
0010
0010
,
0100
0100
0001
1000
,
0001
1000
0001
0000
,
0000
0000
0010
0000
,
0000
0000
1000
0000
,
0000
0000
2002
0000
,
0000
0000
0000
0000
,
0000
0000
0000
0000
,
0000
0000
0000
0000
,
0000
0000
3003
0000
;

//---------------dance-single - Marten-BSP----------------
#NOTES:
     dance-single:
     Marten:
     Easy:
     10:
     :
0000
0000
0000
0000
,
0000
0000
0000
0000
,
0000
0000
0000
0000
,
0000
0000
0000
0000
,
0000
0000
0000
0000
,
0000
0000
0000
0000
,
0000
0000
0000
0000
,
0001
0100
0001
0000
,
1000
0100
1000
0000
,
0001
1000
0001
1000
,
1001
0000
0110
0000
,
1000
0010
1000
0000
,
0001
0010
0001
0000
,
1000
0001
1000
0001
,
1001
0000
0110
0000
,
0100
0001
0100
0000
,
0010
1000
0010
0000
,
0100
0010
0100
0010
,
0110
0000
1001
0000
,
0100
1000
0100
0000
,
0010
0001
0010
0000
,
0001
0100
0001
1000
,
0100
1000
0001
0000
,
1002
0000
1000
0000
,
1000
0000
1003
0000
,
1010
0010
1000
1010
,
0000
1000
1000
0000
,
0001
0100
0001
1000
,
0100
0000
0000
0100
0000
0000
0100
0000
,
0000
0000
1000
0001
,
0100
0000
0100
0001
,
1000
0001
1000
0000
,
0100
0010
0110
0000
,
0011
0010
0001
0011
,
0000
0001
0100
0001
,
1000
0000
0100
1000
,
0001
1000
1001
0000
,
0110
0100
0010
0110
,
0000
1001
0000
1010
,
1000
0100
0010
0001
,
1000
0001
1001
0000
,
2001
0000
0000
0000
,
3002
0000
0000
0203
0000
0000
0302
0000
,
0023
0000
0000
0000
,
0230
0000
0000
2300
0000
0000
3002
0000
,
1003
0100
1000
0000
0001
0100
0001
0000
,
1000
0010
1000
0000
0001
0010
0001
0000
,
1000
1000
0001
0001
0100
0100
0010
0010
,
0200
0300
0200
0300
0002
1003
1001
0000
,
0001
0100
0001
0010
,
0100
0100
1000
0000
,
1000
0100
0010
0001
,
1000
0001
1000
0000
,
1010
0000
0001
0010
,
0011
0000
0001
1000
,
0100
0100
0010
0000
,
0001
1000
1001
0000
,
1000
0100
1000
0010
,
0100
0001
1000
0000
,
0001
0100
0010
1000
,
0001
0010
0001
0000
,
1000
0100
0010
0000
,
0001
0100
0010
0000
,
1010
0000
0011
0000
,
1001
0000
0110
0101
,
0000
0000
0001
1000
,
0100
0010
0100
0110
,
0000
0000
0010
0011
,
0000
0001
0000
0000
0100
0000
0101
0000
,
0000
0000
0010
0100
,
0000
0010
1000
1001
,
0000
0000
0001
0010
,
0100
1000
0100
1100
,
0000
0000
1000
0001
,
0000
0100
0010
0110
,
0000
0000
0010
1010
,
0000
1000
0000
0000
0100
0000
1100
0000
,
0000
0010
0001
0101
,
0000
0001
1000
1010
,
0000
0011
0000
1001
,
0000
0110
0000
2002
,
0000
0000
0000
0000
,
0000
0000
0000
3003
0101
0000
0000
0101
,
0000
0001
0100
0000
0001
0010
0100
0000
,
1000
0001
1000
0000
1100
0000
0000
1100
,
0000
1000
0010
0000
1000
0100
1000
0100
,
0010
0001
1000
0000
1001
0000
0000
1001
,
0000
1000
0001
0000
0100
0001
1000
0000
,
0010
0100
0110
0000
1000
0010
1000
0000
,
0001
0010
0001
0000
1000
0100
0010
0001
,
1000
0001
0001
0000
1001
0000
0000
0000
,
0000
0000
0110
0000
,
0000
0000
1100
0000
,
0101
0000
2002
0000
,
0000
0000
0000
0000
,
0000
0000
0000
0000
,
0000
0000
0000
0000
,
0000
0000
3003
0000
;

//---------------dance-single - Marten-DSP----------------
#NOTES:
     dance-single:
     Marten:
     Medium:
     14:
     :
0000
0000
0000
0000
,
0000
0000
0000
0000
,
0000
0000
0000
0000
,
0000
0000
0000
0000
,
0000
0000
0000
0000
,
0000
0000
0000
0000
,
0000
0000
0000
0000
,
1000
0000
0100
0000
1000
0010
0000
1000
,
0010
0000
0100
0000
0001
0010
0000
0001
,
0010
0000
0100
0000
1000
0001
0000
1000
,
0001
0100
0101
0000
,
1000
0000
0100
0000
1000
0001
0000
1000
,
0001
0000
0100
0000
0010
0100
0000
0010
,
0100
0000
0001
0000
0010
0100
0000
0010
,
0100
1000
0001
1000
,
0010
0000
1000
0000
0001
0100
0000
0001
,
0100
0000
0010
0000
1000
0100
0000
1000
,
0100
0000
0010
0000
0001
1000
0000
0001
,
1000
0100
1100
0000
,
0010
0000
0001
0000
1000
0010
0000
1000
,
0001
0000
0100
0000
0001
0010
0000
0001
,
1000
0100
0010
0001
,
1000
0010
1000
0010
0100
0001
0100
0001
,
2000
0000
0001
0000
,
0001
0000
3001
0000
,
0101
0001
1000
1100
,
1000
0001
0100
0010
,
0100
0000
0001
0000
1000
0000
1000
0001
,
1000
0000
0000
1001
0000
0000
1001
0000
,
0100
0000
0110
1001
,
0101
0001
1001
1000
,
0001
1000
0001
1000
0001
0000
0000
1000
,
0100
1000
1001
0011
,
1100
1000
0001
0101
,
0001
0000
1000
0000
0100
0000
1000
0001
,
1000
0000
0000
0000
0010
0100
0010
0000
,
1000
0001
1001
0000
,
1010
0000
0100
0101
,
0000
1001
0000
1100
,
1000
0001
1000
0000
0001
1000
0001
0000
,
1000
0100
0010
0001
1000
0000
0010
0000
,
0210
0000
0000
0000
,
0302
0000
0000
2003
0000
0000
3200
0000
,
2300
0000
0000
0000
,
3020
0000
0000
0230
0000
0000
0302
0000
,
1003
0100
1000
0100
0010
0001
0010
0001
,
1000
0010
1000
0010
0100
0001
0100
0001
,
1000
0100
0001
0100
1000
0010
0001
0010
,
0200
0301
0200
0301
0002
1003
1001
0000
,
0001
0000
1000
0100
0000
1000
0100
1000
,
0001
0100
0120
1030
,
0001
0010
0001
0010
0001
0000
1000
0000
,
0010
1000
0010
0000
0100
0000
0002
0000
,
1003
0000
0001
0100
0000
0100
0001
0000
,
1000
0000
0100
1000
0100
0000
0010
0000
,
0001
1000
0001
1000
0001
0000
0000
1000
,
0010
0100
0110
0010
,
1000
0000
0100
1000
0000
0001
0100
0001
,
0100
0010
2010
3001
,
0010
0001
0010
0001
0010
0000
0100
0000
,
1000
0001
1000
0000
0010
0000
0100
0000
,
0001
0000
1000
0001
0000
0001
1000
0000
,
0010
0000
0100
0001
0100
0000
0001
0000
,
1000
0000
0001
0000
1000
0000
0001
0000
1000
0000
0001
0000
,
1000
0000
0001
0000
1000
0000
0100
0000
0000
0011
0000
0000
,
0000
0000
0001
0000
1000
0010
1000
0000
,
0001
0100
0002
0000
1003
0000
1001
0000
,
0000
0000
0100
0000
0001
0010
0001
0000
,
0000
0011
0000
0000
0110
0000
1100
0000
,
0000
0000
1000
0000
0100
1000
0100
0000
,
0010
0000
0000
0001
0000
0010
0000
0100
0000
1000
0000
0000
,
0000
0010
1000
0001
,
1000
0100
1000
0000
0001
0100
0001
0000
,
0000
0000
0000
1000
0100
1000
0100
0000
,
0010
0001
0020
0000
0130
0000
1001
0000
,
0000
0000
1000
1010
,
0000
0110
0000
0000
0101
0000
1001
0000
,
0001
0000
0100
0000
0001
0010
0001
0000
,
1000
0000
0000
0100
0000
0000
1000
0000
0000
0001
0000
1000
,
0000
0001
0000
1000
0000
0001
0000
1000
0000
0001
0000
1000
,
0000
0001
0000
0100
0000
0000
0000
0000
0000
2002
0000
0000
,
0000
0000
0000
0000
,
0000
0000
0000
3003
0011
0010
0100
1100
,
0000
0000
1000
0000
0010
0000
1000
0000
0001
0000
0100
0001
0100
0000
0010
1000
,
0010
0000
0000
0010
0000
0000
0010
0000
1010
0000
0010
0000
0100
0000
0101
0000
,
0000
0000
0001
0000
1000
0000
0100
1000
0100
0000
0010
0001
0010
0000
0100
0000
,
1000
0001
1000
0000
1001
0000
0000
0000
1100
0000
0100
0010
0001
0000
0011
0000
,
0000
0001
0100
0010
0001
0010
0100
0001
,
1000
0100
1000
0100
0010
0000
0000
0000
0001
0010
0001
0000
1000
0010
1000
0000
,
0001
0100
0001
0000
1000
0100
1000
0000
0001
0100
0001
0100
0010
1000
0010
1000
,
0001
0000
0000
0010
0000
0000
0100
0000
0000
1000
0000
0000
0001
0000
0000
0000
0000
0000
0000
0000
0000
0000
0000
0000
1000
0000
0000
0000
0000
0000
0000
0000
0001
0000
0000
0000
0000
0000
0000
0000
2000
0000
0000
0000
0000
0000
0000
0000
,
0000
0000
0000
3000
0000
0000
0001
0000
1000
0000
0002
0000
,
0000
0003
1100
0000
,
0101
0000
2002
0000
,
0000
0000
0000
0000
,
0000
0000
0000
0000
,
0000
0000
0000
0000
,
0000
0000
3003
0000
;

//---------------dance-single - Marten-ESP----------------
#NOTES:
     dance-single:
     Marten:
     Hard:
     17:
     :
0000
0000
0000
0000
,
0000
0000
0000
0000
,
0000
0000
0000
0000
,
0000
0000
0000
0000
,
0000
0000
0000
0000
,
0000
0000
0000
0000
,
0000
0000
0000
0000
,
0001
0100
0010
0000
1000
0100
1000
0010
,
0100
0000
0001
0000
1000
0001
0100
0001
,
0010
0000
0001
0000
1000
0100
0010
0001
,
1000
0010
1010
1010
,
0010
1000
0001
0000
0010
0001
0100
0001
,
1000
0000
0100
0000
1000
0001
0100
0001
,
0010
0000
0100
0000
0010
0001
0100
0001
,
1000
0001
0011
0011
,
0010
0001
0100
0000
0001
0100
0010
0100
,
0001
1000
0001
0000
0100
0001
1000
0100
,
1000
0010
0100
0000
0001
1000
0100
0010
,
0001
1000
1100
1100
,
1000
0001
0010
0100
1000
0001
1000
0100
,
1000
0010
0100
0000
0001
0100
0010
1000
,
0001
0100
0010
0100
1000
0100
0010
0100
,
0001
0010
0100
1000
0001
0100
0010
1000
,
0002
1000
1000
0000
,
1000
0000
1003
0000
,
1100
0000
1000
0001
0100
0000
0101
0000
,
0001
1000
0100
0000
0010
0001
0010
0001
,
1000
0000
0001
1000
0001
0000
0010
0100
,
1000
0000
0000
1001
0000
0000
0101
0000
,
0001
1000
0010
0000
1010
0000
1001
0000
,
0101
0000
0001
1000
0100
0000
1000
0000
,
0001
0010
1000
0010
0001
0000
1000
0100
,
0001
0100
1100
1001
,
0101
0000
0100
0010
1000
0000
1001
0000
,
0001
0000
0000
1000
0000
0000
0100
0000
0000
0000
0000
0000
1000
0000
0000
0001
0000
0000
0100
0000
0001
0000
0100
0000
,
0001
0000
0000
0010
0000
0000
0100
1000
0100
1000
0000
0000
,
0001
0100
1000
0100
0001
0000
1000
0000
,
1001
0000
0000
0000
0000
0000
1000
0010
1000
0010
0000
0000
,
0000
1010
0000
0100
,
0001
0010
1000
0001
1000
0010
0001
0000
,
1000
0010
0100
0001
0010
1000
0010
0001
,
0200
0000
0001
0001
0000
0010
0010
0000
,
0320
1000
1000
2030
0001
0001
3002
0000
,
0023
0000
0100
0100
0000
1000
1000
0000
,
0032
1000
1000
2003
0010
0010
3020
0000
,
0130
0000
0001
0000
0100
0001
0000
0100
0001
0000
1000
0000
0100
1000
0001
0000
,
0010
0000
0001
0000
0010
0001
0000
0010
0001
0000
1000
0000
0010
1000
0001
0000
,
0001
0010
0001
0010
0001
1000
0001
1000
0010
1000
0010
1000
0001
1000
0001
1000
,
0200
1300
0001
1000
0200
1300
0010
0100
0002
0013
0100
1000
0001
0000
0000
0000
,
1010
0000
1000
0001
0000
0001
0100
0001
,
0010
0100
1000
0000
2001
0000
3010
0000
,
0100
0001
0100
0010
1000
0000
0100
1000
,
0001
0000
1000
0000
0001
0000
1000
0000
0000
0100
0000
0000
0010
0000
0000
0001
0000
0000
1000
0000
0001
0000
1000
0000
,
0001
0000
1000
0100
0000
1000
0010
1000
,
0001
0000
1000
0100
1000
0001
0100
0000
,
0001
0010
1000
0010
0001
0000
1000
0010
,
0100
0001
1000
0000
1001
0000
0011
0000
,
0110
0000
1000
0001
0000
0100
0001
0010
,
0100
1000
0001
0000
0012
0000
0103
0000
,
0001
0100
1000
0100
0001
0000
1000
0010
,
1000
0000
0100
0000
1000
0000
0100
0000
0000
0010
0000
0000
0001
0000
0000
1000
0000
0000
0010
0000
1000
0000
0010
0000
,
1000
0000
0100
1000
0000
1000
0010
0100
,
0010
1000
0001
0010
0100
0010
0001
0000
,
1000
0000
0010
0000
1000
0000
0001
0000
0010
0000
0001
0000
,
0100
0000
0010
0000
0100
0000
1001
0000
0000
1010
0000
0000
,
1000
0100
0000
0010
0001
0100
0001
0000
,
0100
0010
0100
0000
0101
0000
1010
0000
,
1000
0000
0001
0000
0010
0001
0011
0000
,
0000
0110
0000
0000
1100
0000
1001
0000
,
1000
0001
0010
0000
0100
1000
0001
0000
,
1000
0000
0000
0001
0000
0001
0000
0001
0000
1001
0000
0000
,
0001
1000
0010
0000
0100
0000
0110
0000
,
0100
0010
0100
0010
0000
0000
1000
0010
1000
0010
0000
0000
,
0100
0001
0000
0100
0001
0010
0100
0000
,
1000
0001
1000
0000
1100
0000
1001
0000
,
1000
0100
1000
0000
0010
1000
1010
0000
,
0000
0110
0000
0000
0101
0000
1001
0000
,
0001
1000
0010
0000
1000
0001
1001
0000
,
0010
0000
0000
0001
0000
0000
1000
0000
0000
0000
0000
0000
0001
0000
0000
1000
0000
0000
0010
0000
0000
0000
1000
0000
,
0000
0100
0000
0010
0000
0001
0000
0100
0000
0001
0000
1000
,
0000
0001
0000
0100
0000
0000
0000
0000
0000
2002
0000
0000
,
0000
0000
0000
0000
,
0000
0000
0000
0000
0000
0000
3003
0000
1000
0100
0010
0001
0100
0000
0001
0100
,
0010
1000
0100
0000
0010
0000
0001
0010
1000
0000
0001
0100
1000
0000
0001
0010
,
1000
0000
0010
0001
0000
1000
0010
0000
1000
0100
0010
0001
1000
0000
0001
0100
,
0010
1000
0001
0000
0010
0000
1000
0010
0001
0000
1000
0100
0001
0000
1000
0000
,
0001
0100
1000
0001
0100
0000
0000
0000
0001
0010
0100
1000
0010
0000
1000
0010
,
0100
0001
0010
0000
0001
0100
0010
0100
0001
0000
1000
0100
1000
0010
0100
0000
,
0001
0010
0100
1000
0001
0000
1000
0000
0001
0010
0001
0100
0001
1000
0010
1000
,
0100
1000
0010
1000
0100
0010
0001
1000
0100
0010
0100
1000
0001
0100
0010
1000
,
0001
0000
0000
0010
0000
0000
0100
0000
0000
1000
0000
0000
0001
0000
0000
0000
0000
0000
0000
0000
0000
0000
0000
0000
0001
0000
0000
0000
0000
0000
0000
0000
0001
0000
0000
0000
0000
0000
0000
0000
0001
0000
0000
0000
0000
0000
0000
0000
,
0000
0000
0000
0000
0000
0000
1000
0000
1000
0000
1000
0000
,
0000
0000
0000
0000
0000
0000
0010
0000
0010
0000
0010
0000
,
0100
0000
0100
0000
0100
0000
2002
0000
0000
0000
0000
0000
,
0000
0000
0000
0000
,
0000
0000
0000
0000
,
0000
0000
0000
0000
,
0000
0000
3003
0000
;

//---------------dance-double - Kekkle-BDP----------------
#NOTES:
     dance-double:
     Kekkle:
     Easy:
     10:
     :
00000000
00000000
00000000
00000000
,
00000000
00000000
00000000
00000000
,
00000000
00000000
00000000
00000000
,
00000000
00000000
00000000
00000000
,
00000000
00000000
00000000
00000000
,
00000000
00000000
00000000
00000000
,
00000000
00000000
00000000
00000000
,
10000000
00100000
10000000
00000000
,
00010000
00100000
00010000
00000000
,
01000000
00001000
01000000
00001000
,
00011000
00000000
00010010
00000000
,
00000010
00000100
00000010
00000000
,
00001000
00000001
00001000
00000000
,
00000100
00000010
00000100
00001000
,
00001100
00000000
00010100
00000000
,
00010000
00001000
01000000
00000000
,
00010000
01000000
00100000
00000000
,
10000000
00010000
10000000
01000000
,
01100000
00000000
00110000
00000000
,
00100000
00001000
00010000
00000000
,
00001000
00010000
00000010
00000000
,
00000100
00000001
00000100
00000010
,
00001000
00000001
00000010
00000000
,
00000120
00000000
00000000
00000000
,
00000100
00000000
00000130
00000000
,
00001100
00000100
00010000
00011000
,
00000000
00001000
01000000
00000000
,
00010000
10000000
01000000
00100000
,
01000000
00000000
00000000
01000000
00000000
00000000
01000000
00000000
,
00100000
00000000
00001000
00010000
,
00000010
00000000
00000100
00000001
,
00001000
00000100
00001000
00000010
,
00010000
00001000
00010000
00000000
,
00011000
00001000
00100000
01100000
,
00000000
01000000
10000000
01000000
,
00100000
00000000
00010000
01000000
,
00001000
00010000
00001000
00000000
,
00011000
00010000
00000010
00000110
,
00000000
00000100
00000001
00001000
,
00000100
00010000
00001000
01000000
,
00010000
01000000
00100000
00000000
,
20100000
00000000
00000000
00000000
,
30020000
00000000
00000000
02030000
00000000
00000000
03002000
00000000
,
00023000
00000000
00000000
00000000
,
00030200
00000000
00000000
00000320
00000000
00000000
00000032
00000000
,
00002003
00000000
00000000
00000000
,
00003200
00000000
00000000
00020300
00000000
00000000
00032000
00000000
,
01003000
00010000
01000000
00010000
10000000
00100000
10000000
00100000
,
02000000
03000000
02000000
03000000
00020000
10030000
10010000
00000000
,
00010000
01000000
00100000
10000000
,
00100000
00100000
01000000
00000000
,
00001000
00010000
00000100
00000000
,
00000010
00000001
00000010
00000100
,
00000110
00000000
00000010
00000001
,
00001001
00000000
00001000
00000100
,
00010000
00001000
01000000
00000000
,
00100000
01000000
01100000
00000000
,
00100000
10000000
00010000
00100000
,
00001000
00001000
00010000
00000000
,
00000010
00001000
00000001
00000000
,
00000010
00000100
00001000
00000010
,
00001000
00000100
00010000
00000000
,
00001000
01000000
00100000
00000000
,
01100000
00000000
10100000
00000000
,
10010000
00000000
01010000
01001000
,
00000000
00000000
00001000
00010000
,
00000100
00000010
00000100
00001100
,
00000000
00000000
00001000
00001001
,
00000000
00000001
00000000
00000000
00000100
00000000
00000110
00000000
,
00000000
00000000
00000010
00010000
,
00000000
00001000
00010000
00011000
,
00000000
00000000
00001000
01000000
,
00010000
01000000
00100000
10100000
,
00000000
00000000
10000000
00010000
,
00000000
00100000
00001000
00011000
,
00000000
00000000
00010000
00010010
,
00000000
00000010
00000000
00000000
00000100
00000000
00000110
00000000
,
00000000
00000000
00000010
00001000
,
00000000
00000000
00000001
00001001
,
00000000
00001100
00000000
00010100
,
00000000
00011000
00000000
02002000
,
00000000
00000000
00000000
00000000
,
00000000
00000000
00000000
03003000
01100000
00000000
00000000
01100000
,
00000000
00100000
10000000
00000000
00010000
00100000
00010000
00000000
,
01000000
00001000
00010000
00000000
00011000
00000000
00000000
00011000
,
00000000
00010000
00000010
00000000
00000100
00000001
00000100
00000001
,
00001000
00000100
00001000
00000000
00001100
00000000
00000000
00010100
,
00000000
00010000
00001000
00000000
01000000
00001000
01000000
00000000
,
00010000
01000000
01010000
00000000
00010000
10000000
01000000
00000000
,
00100000
00010000
01000000
00000000
00001000
00010000
00001000
00010000
,
00000010
00001000
00000010
00000000
00001010
00000000
00000000
00000000
,
00000000
00000000
00011000
00000000
,
00000000
00000000
00110000
00000000
,
11000000
00000000
02002000
00000000
,
00000000
00000000
00000000
00000000
,
00000000
00000000
00000000
00000000
,
00000000
00000000
00000000
00000000
,
00000000
00000000
03003000
00000000
;

//---------------dance-double - Kekkle-DDP----------------
#NOTES:
     dance-double:
     Kekkle:
     Medium:
     14:
     :
00000000
00000000
00000000
00000000
,
00000000
00000000
00000000
00000000
,
00000000
00000000
00000000
00000000
,
00000000
00000000
00000000
00000000
,
00000000
00000000
00000000
00000000
,
00000000
00000000
00000000
00000000
,
00000000
00000000
00000000
00000000
,
10000000
00000000
00010000
00000000
01000000
00100000
00000000
01000000
,
00100000
00000000
10000000
00000000
01000000
00100000
00000000
01000000
,
00100000
00000000
00010000
00000000
01000000
00100000
00000000
01000000
,
00100000
10000000
10010000
00000000
,
00010000
00000000
01000000
00000000
00001000
00010000
00000000
00001000
,
00010000
00000000
00000010
00000000
00010000
00001000
00000000
00010000
,
00001000
00000000
01000000
00000000
00001000
00010000
00000000
00001000
,
00010000
00000010
00001000
00000001
,
00000010
00000000
00000100
00000000
00000010
00000001
00000000
00000010
,
00000001
00000000
00001000
00000000
00000010
00000100
00000000
00000010
,
00000100
00000000
00000001
00000000
00001000
00000100
00000000
00001000
,
00000100
00010000
00011000
00000000
,
00001000
00000000
01000000
00000000
00010000
00100000
00000000
01000000
,
00100000
00000000
00010000
00000000
10000000
00100000
00000000
01000000
,
00100000
10000000
00010000
00100000
,
00001000
00010000
00001000
00010000
00000010
00001000
00000010
00001000
,
00000020
00000000
00000000
00000000
,
00000100
00000000
00000130
00000000
,
00000101
00000100
00000010
00010010
,
00010000
00001000
01000000
00010000
,
00100000
10000000
00100000
00010000
,
00110000
00000000
00000000
00101000
00000000
00000000
00011000
00000000
,
00010010
00000000
00000110
00001010
,
00001001
00000001
00000011
00000010
,
00000100
00001000
00000100
00001000
00000100
00000000
00000000
00010000
,
00001000
01000000
01010000
00010000
,
10010000
10000000
01000000
00010000
,
00001000
00000000
00010000
00000000
01000000
00000000
00100000
00001000
,
00010000
00000000
00000010
00000000
00001000
00000001
00000010
00000000
,
00000001
00001000
00000001
00001000
00000100
00000000
00000000
00000000
,
00010100
00000000
00010000
00000000
00001000
00010000
00001000
00000000
,
01000000
00010000
00100000
01000000
,
10000000
00010000
10000000
00000000
00100000
01000000
00100000
00000000
,
01000000
00001000
01000000
00001000
00010000
00001000
00010000
00001000
,
00020000
00000000
00000000
00000000
,
00030020
00000000
00000000
00002030
00000000
00000000
00003002
00000000
,
00000023
00000000
00000000
00000000
,
00002030
00000000
00000000
00023000
00000000
00000000
02030000
00000000
,
03200000
00000000
00000000
00000000
,
00320000
00000000
00000000
02030000
00000000
00000000
03002000
00000000
,
00003100
00000010
00001000
00000001
00000010
00000100
00000010
00000001
,
00000200
00000310
00000200
00000310
00000002
00000013
00001000
00000000
,
00000100
00000000
00010000
00001000
00000000
00010000
00001000
01000000
,
00001000
01000000
00010000
10000000
,
00010000
00100000
00010000
00100000
00010000
00000000
01000000
00000000
,
00001000
00010000
00001000
00010000
00001000
00000000
00010000
00000010
,
00001000
00000000
00000001
00001000
00000000
00001000
00000001
00000000
,
00000010
00000001
00001000
00001100
,
00000100
00010000
00000100
00010000
00000100
00000000
00000000
00010000
,
00001000
01000000
00010000
10000000
,
10010000
00000000
00010000
01000000
00000000
00010000
01000000
00001000
,
00010000
00000010
00001000
00000001
,
00000010
00000100
00000010
00000100
00000010
00000000
00000100
00000000
,
00010000
00001000
00010000
00001000
00010000
00000000
00001000
01000000
,
00100000
00000000
10000000
00010000
00000000
00010000
10000000
00000000
,
00100000
01000000
00001000
00010000
,
00000100
00000000
00001000
00000000
00000100
00000000
00000010
00000000
00000001
00000000
00000010
00000000
,
00000100
00000000
00010000
00000000
00001000
00000000
00010000
00000000
00000000
00011000
00000000
00000000
,
00001000
00000000
01000000
00000000
00010000
00100000
00010000
00000000
,
10000000
00100000
01000000
01010000
,
00010000
00000000
00100000
00000000
00001000
00010000
00001000
00000000
,
00000000
00001000
00000000
00000000
00001000
00000000
00011000
00000000
,
00010000
00000000
00000010
00000000
00000100
00000001
00000100
00000000
,
00000010
00000000
00000000
00001000
00000000
00000001
00000000
00001000
00000000
00001100
00000000
00000000
,
00000100
00010000
00000000
00001000
00010000
00000000
00001000
00000000
,
01000000
00010000
01000000
00000000
00010000
10000000
00010000
00000000
,
10000000
00000000
00100000
00000000
01000000
00010000
01000000
00000000
,
00100000
01000000
00001000
00011000
,
00010000
00000000
00000010
00000000
00000100
00000001
00000100
00000000
,
00000000
00000100
00000000
00000000
00000100
00000000
00000110
00000000
,
00000010
00000000
00010000
00000000
00001000
00010000
00001000
00000000
,
01000000
00000000
00000000
00000000
00000000
00000000
00010000
00000000
00000000
00000000
00000000
00000000
10000000
00000000
00000000
01000000
00000000
00000000
10000000
00000000
00000000
00000000
00010000
00000000
,
00000000
01000000
00000000
00001000
00000000
00010000
00000000
00001000
00000000
00010000
00000000
00000010
,
00000000
00001000
00000000
00000010
00000000
00000000
00000000
00000000
00000000
00000220
00000000
00000000
,
00000000
00000000
00000000
00000000
,
00000000
00000000
00000000
00000000
00000000
00000000
00000330
00000000
00000101
00000000
00000001
00000000
00001000
00000000
00000100
00001000
,
00000100
00000000
00010000
00001000
00010000
00000000
00001000
00000000
01000000
00000000
00010000
00000000
10000000
00000000
01000000
00100000
,
01000000
00000000
00000000
01000000
00000000
00000000
01000000
00000000
11000000
00000000
10000000
00000000
00010000
00000000
01000000
00010000
,
01000000
00000000
00001000
00010000
00001000
00000000
00010000
00000000
00000010
00000000
00000100
00000000
00000001
00000000
00001000
00000000
,
00000100
00000000
00000010
00000000
00000110
00000000
00000000
00000000
00000100
00000000
00010000
00000000
00001000
00000000
00010000
00001000
,
00010000
00000000
00001000
01000000
00001000
00000000
01000000
00000000
00010000
00000000
10000000
00000000
01000000
00000000
10000000
00000000
,
00100000
01000000
00100000
01000000
00010000
00000000
00000000
00000000
10000000
01000000
10000000
00000000
00100000
00000000
01000000
00000000
,
00001000
00010000
00001000
00000000
00010000
00000010
00010000
00000000
00000100
00000010
00000100
00000010
00000100
00000010
00000100
00000010
,
00000001
00001000
00000001
00001000
00000001
00000000
00000000
00000000
00000200
00000000
00000000
00000000
00000000
00000000
00000000
00000000
,
00000000
00000300
00000002
00000000
,
00000000
00000003
00001010
00000000
,
00011000
00000000
02020000
00000000
,
00000000
00000000
00000000
00000000
,
00000000
00000000
00000000
00000000
,
00000000
00000000
00000000
00000000
,
00000000
00000000
03030000
00000000
;

//---------------dance-double - Kekkle-EDP----------------
#NOTES:
     dance-double:
     Kekkle:
     Hard:
     17:
     :
00000000
00000000
00000000
00000000
,
00000000
00000000
00000000
00000000
,
00000000
00000000
00000000
00000000
,
00000000
00000000
00000000
00000000
,
00000000
00000000
00000000
00000000
,
00000000
00000000
00000000
00000000
,
00000000
00000000
00000000
00000000
,
10000000
00100000
01000000
00000000
00010000
00100000
00001000
00010000
,
00001000
00000000
00000100
00000000
00000010
00001000
00000001
00000010
,
00000100
00000000
00000010
00000000
00000001
00001000
00000100
00010000
,
00001000
01000000
01010000
01010000
,
00010000
10000000
01000000
00000000
00100000
00010000
00100000
00001000
,
00010000
00000000
00000010
00000000
00001000
00000010
00000100
00000001
,
00001000
00000000
00000100
00000000
00000010
00000100
00010000
00001000
,
00010000
00000100
00010100
00010100
,
00010000
00001000
00010000
00000000
00001000
01000000
00010000
01000000
,
00100000
10000000
00010000
00000000
00100000
01000000
00100000
00001000
,
00010000
01000000
00100000
00000000
00001000
00010000
00000010
00001000
,
00000100
00000010
00000011
00000011
,
00000001
00001000
00000010
00001000
00000100
00010000
00001000
00010000
,
00100000
01000000
00100000
00000000
10000000
00010000
10000000
01000000
,
00100000
01000000
00010000
00001000
00010000
00000010
00001000
00000010
,
00000100
00000001
00001000
00000100
00000010
00000100
00010000
00001000
,
00020000
00000000
00100000
00000000
,
00001000
00000000
00030100
00000000
,
00001100
00000000
00001000
00000001
00000100
00000000
00000010
00000000
,
00000001
00000010
00001000
00000000
00000100
00010000
00000100
00010000
,
00001000
00000000
01000000
00010000
00100000
00000000
01000000
10000000
,
00010000
00000000
00000000
01010000
00000000
00000000
01001000
00000000
,
01000000
00100000
00010000
00000000
00011000
00000000
00010010
00000000
,
00001010
00000000
00001000
00000001
00000010
00000000
00001000
00000000
,
00000010
00000100
00000010
00000001
00001000
00000000
00000010
00000100
,
00001000
00010000
00110000
01100000
,
10100000
00000000
10000000
00010000
00100000
00000000
00101000
00000000
,
00001000
00000000
00000000
00010000
00000000
00000000
00100000
00000000
00000000
00000000
00000000
00000000
10000000
00000000
00000000
00000000
00000000
00000000
00010000
00000000
00100000
00000000
00010000
00000000
,
00100000
00000000
00000000
01000000
00000000
00000000
10000000
00010000
10000000
00010000
00000000
00000000
,
01000000
00001000
00010000
00001000
00011000
00000000
00000000
00000000
,
00010010
00000000
00000000
00000010
00000000
00000000
00001000
00000001
00001000
00000100
00000000
00000000
,
00000010
00000011
00000001
00000100
,
00001000
00010000
00001000
00000000
00010000
00100000
01000000
00000000
,
00010000
10000000
00100000
01000000
00001000
00010000
00100000
00010000
,
00002000
00000000
01000000
01000000
00000000
00000100
00000100
00000000
,
00013000
00100000
10000000
01000000
00010000
00001000
00000010
00000001
,
00002000
00000000
00100000
00100000
00000000
00000010
00000010
00000000
,
00003100
00010000
01000000
00100000
00001000
00010000
00001000
00000100
,
00000001
00001000
00000100
00000001
00000100
00001000
00010000
01000000
,
10000000
00010000
10000000
01000000
00010000
00100000
00001000
00000100
,
00000010
00001000
00000010
00001000
00000001
00001000
00000001
00001000
00000100
00010000
00000100
00010000
00001000
00100000
00001000
00100000
,
02000000
03100000
00010000
10000000
02000000
03100000
01000000
10000000
00020000
01030000
00001000
00010000
00001000
00000000
00000000
00000000
,
00010000
00000000
00000010
00001000
00000000
00000010
00000001
00000010
,
00001000
00000000
00001100
00000000
00010100
00000000
00010000
00001000
,
00010000
00100000
00010000
00001000
01000000
00000000
00010000
10000000
,
01000000
00000000
10000000
00000000
01000000
00000000
10000000
00000000
00000000
00010000
00000000
00000000
01000000
00000000
00000000
00000000
00000000
00000000
00100000
00000000
00010000
00000000
00100000
00000000
,
00010000
00000000
00001000
00000100
00000000
00000010
00001000
00000001
,
00000010
00000000
00001000
00000010
00000001
00000010
00000100
00000000
,
00010000
00001000
00010000
00100000
01000000
00000000
00010000
10000000
,
01000000
00010000
01000000
10000000
00010000
00000000
01010000
00000000
,
01100000
00000000
00100000
10000000
00000000
00100000
00010000
00001000
,
00010000
00000000
00010010
00000000
00001010
00000000
00000010
00001000
,
00000010
00000001
00000010
00000100
00000001
00000000
00001000
00000100
,
00001000
00000000
00000100
00000000
00001000
00000000
00000100
00000000
00000000
00010000
00000000
00000000
00001000
00000000
00000000
00000000
00000000
00000000
01000000
00000000
00010000
00000000
01000000
00000000
,
00010000
00000000
10000000
01000000
00000000
00010000
01000000
00100000
,
00001000
00000000
00010000
00000010
00001000
00000000
00001001
00000000
,
00000001
00000000
00001000
00000000
00000100
00000000
00010000
00000000
01000000
00000000
00100000
00000000
,
00010000
00000000
10000000
00000000
00100000
00000000
01100000
00000000
00000000
10010000
00000000
00000000
,
10000000
00100000
00000000
01000000
00001000
00010000
01000000
00000000
,
01100000
00000000
00101000
00000000
00001000
00010000
00000010
00000000
,
00000100
00000000
00000001
00001000
00001100
00000000
00010100
00000000
,
00000000
00011000
00000000
00000000
01001000
00000000
01100000
00000000
,
00100000
10000000
01000000
00000000
00100000
00001000
00010000
00000000
,
00000010
00000000
00000000
00001000
00000000
00001000
00000000
00001000
00000000
00001001
00000000
00000000
,
00000001
00000100
00000000
00000100
00001000
00010000
00001000
00000000
,
01000000
00001000
01000000
00001000
00000000
00000000
00100000
01000000
00100000
01000000
00000000
00000000
,
10000000
00100000
00000000
00100000
01000000
00001000
00010000
00000000
,
00000010
00000000
00000000
00001000
00000000
00000000
00000100
00000000
00000010
00000000
00000100
00000000
00000010
00000000
00000000
00000000
00000000
00000000
00000011
00000000
00000000
00000000
00000000
00000000
,
00000001
00001000
00000100
00000000
00010000
00001000
00011000
00000000
,
00000000
01001000
00000000
00000000
01100000
00000000
10100000
00000000
,
10000000
00010000
00100000
00000000
00001000
00010000
00000010
00000000
,
00000100
00000000
00000000
00000001
00000000
00000000
00001000
00000000
00000000
00000000
00000000
00000000
00000100
00000000
00000000
00010000
00000000
00000000
00001000
00000000
00000000
00000000
01000000
00000000
,
00000000
00100000
00000000
00010000
00000000
00001000
00000000
00000100
00000000
00000001
00000000
00001000
,
00000000
00010000
00000000
01000000
00000000
00000000
00000000
00000000
00000000
20020000
00000000
00000000
,
00000000
00000000
00000000
00000000
,
00000000
00000000
00000000
00000000
00000000
00000000
30030000
00000000
10000000
00000000
00010000
01000000
00100000
00000000
01000000
00000000
,
00001000
00010000
00001000
00000000
00000100
00000000
00000010
00001000
00000001
00000000
00000010
00001000
00000010
00000000
00000100
00000000
,
00010100
00000000
00000000
00011000
00000000
00000000
01001000
00000000
01000000
00000000
00010000
10000000
01000000
00000000
00100000
00000000
,
00001000
00010000
00001000
00000000
00000100
00000000
00000010
00001000
00000001
00000000
00000010
00000100
00000010
00000000
00000001
00000000
,
00001000
00000100
00001000
00000100
00010000
00000000
00000000
00000000
00001000
00000000
01000000
00010000
01000000
00000000
00100000
00000000
,
10000000
01000000
10000000
00000000
01000000
00000000
00010000
00000000
00001000
00000000
00000010
00001000
00000010
00000000
00000001
00000000
,
00001000
00000010
00001000
00000010
00000100
00000000
00001000
00000000
00010000
00000000
00100000
00000000
10000000
00000000
01000000
00000000
,
00010000
00001000
00000100
00000010
00001000
01000000
00100000
00001000
,
00010000
00000000
00000000
00000010
00000000
00000000
00000100
00000000
00000000
00000000
00000000
00000000
00000001
00000000
00000000
00000000
00000100
00000000
00000000
00000000
00000010
00000000
00000000
00000000
,
00000000
00000000
00000000
00000000
00000000
00000000
00010000
00000000
00001000
00000000
01000000
00000000
,
00000000
00000000
00000000
00000000
00000000
00000000
00010000
00000000
00100000
00000000
00001000
00000000
,
00010000
00000000
00000010
00000000
00000100
00000000
00002020
00000000
00000000
00000000
00000000
00000000
,
00000000
00000000
00000000
00000000
,
00000000
00000000
00000000
00000000
,
00000000
00000000
00000000
00000000
,
00000000
00000000
00003030
00000000
;
