#TITLE:MONOLITH;
#ARTIST:TOMOSUKE;
#BANNER:MONOLITH.png;
#BACKGROUND:MONOLITH-bg.png;
#MUSIC:MONOLITH.ogg;
#OFFSET:-0.009;
#SAMPLESTART:33.547;
#SAMPLELENGTH:15;
#BPMS:0=85,16=205;

//---------------dance-single - Pandemonium X-bSP----------------
#NOTES:
     dance-single:
     Pandemonium X:
     Beginner:
     2:
     :
0000
0000
0000
0000
,
0000
0000
0000
0000
,
1000
0000
0001
0000
,
0110
0000
0100
0000
,
0000
0000
0000
0000
,
0000
0000
0000
0000
,
1000
0000
0000
0000
,
0010
0000
0000
0000
,
0100
0000
0000
0000
,
0010
0000
0000
0000
,
1000
0000
0000
0000
,
0001
0000
0000
0000
,
1000
0000
0000
0000
,
0010
0000
0000
0000
,
1000
0000
1000
0000
,
0001
0000
0000
0000
,
0000
0000
0000
0000
,
0001
0000
0000
0000
,
0000
0000
0000
0000
,
1000
0000
0000
0000
,
0000
0000
0000
0000
,
1000
0000
0000
0000
,
0000
0000
0000
0000
,
0010
0000
0000
0000
,
0100
0000
0000
0000
,
0001
0000
0000
0000
,
1000
0000
0001
0000
,
1000
0000
0000
0000
,
0010
0000
0000
0000
,
1000
0000
0010
0000
,
1000
0000
0000
0000
,
0010
0000
0000
0000
,
0100
0000
0000
0000
,
0001
0000
0000
0000
,
1000
0000
0000
0000
,
0001
0000
0000
0000
,
0010
0000
0000
0000
,
0001
0000
1000
0000
,
0001
0000
0000
0000
,
0100
0000
0000
0000
,
0010
0000
0000
0000
,
1000
0000
0000
0000
,
0001
0000
0000
0000
,
0100
0000
0000
0000
,
0010
0000
0000
0000
,
1000
0000
0001
0000
,
1000
0000
0000
0000
,
0100
0000
0000
0000
,
0000
0000
0000
0000
,
0010
0000
0000
0000
,
0000
0000
0000
0000
,
0001
0000
0000
0000
,
0000
0000
0000
0000
,
1000
0000
0000
0000
,
0000
0000
0001
0000
,
0100
0000
0000
0000
,
0000
0000
0010
0000
,
1000
0000
0000
0000
,
0000
0000
0000
0100
,
0000
0010
0000
0001
,
0000
1000
0000
0001
,
0000
0000
0000
0000
,
0000
0000
0100
0000
,
0010
0000
0000
0000
,
0000
0000
0100
0000
,
0001
0000
0000
0000
,
0000
0000
0000
0000
,
1000
0000
0000
0001
,
0000
0000
0000
0000
,
0100
0000
0000
0000
,
0010
0000
0000
0000
,
1000
0000
0000
0000
,
0001
0000
0000
0000
,
0010
0000
0000
0000
,
0001
0000
0000
0000
,
0100
0000
0000
0000
,
0010
0000
1000
0000
,
0001
0000
0000
0000
,
1000
0000
0000
0000
,
0100
0000
0000
0000
,
1000
0000
0000
0000
,
0010
0000
0010
0000
,
0100
0000
0100
0000
,
0001
0000
0001
0000
,
1000
0000
1001
0000
,
0001
0000
0000
0000
,
0100
0000
0000
0000
,
0010
0000
0000
0000
,
1000
0000
1000
0000
,
0001
0000
0001
0000
,
0100
0000
0100
0000
,
0010
0000
0000
0000
,
1000
0000
1001
0000
;

//---------------dance-single - Pandemonium X-BSP----------------
#NOTES:
     dance-single:
     Pandemonium X:
     Easy:
     7:
     :
0000
0000
0000
0000
,
0000
0000
0000
0000
,
1000
0000
0100
0000
0010
0001
0100
0010
,
1001
0000
0110
0000
,
0000
0000
0000
0000
,
0000
0000
0000
0000
,
1000
0100
0010
0001
,
1000
0000
0000
0001
0000
0000
0000
0100
,
0000
0000
0000
0001
0000
1000
0000
0000
,
0000
0100
0000
1000
0000
0010
0000
0100
,
0000
0010
0000
1000
0000
0000
0000
0000
,
0001
0000
0000
0010
0000
0000
0000
0001
,
0000
0000
0000
1000
0000
0000
0000
0000
,
0010
0000
0000
0100
0000
0010
0000
1000
,
0000
0001
1000
0000
0001
1000
0000
0000
,
0000
0010
0100
1000
,
0010
0100
0001
1000
,
0000
0010
0100
0001
,
0010
0001
1000
0000
,
0010
1000
0100
1000
,
0001
0010
0100
0000
,
0010
0001
1000
0010
,
0100
0001
1000
0000
,
0001
0010
0000
0001
,
1000
0010
0000
1000
,
0010
0100
0000
0010
,
1000
0100
0000
0010
,
0001
0000
0000
0000
,
0001
1000
0010
0100
,
0001
0000
0000
1000
0000
0000
0010
0000
,
1000
0000
0000
0010
0000
0000
0000
0000
,
0100
0000
0000
0010
0000
1000
0000
0010
,
0000
0000
0000
0100
0000
0000
0000
0010
,
0000
0000
0000
0100
0000
0001
0000
0100
,
0000
0000
0000
0001
0000
0000
0000
1000
,
0000
0000
0000
0001
0000
0010
0000
0001
,
0000
0000
0000
0100
0000
0001
0000
0100
,
0000
0000
0000
0010
0000
0000
0000
1000
,
0000
0000
0000
0001
0000
0000
0000
0000
,
0100
0010
0000
1000
,
0010
0100
0000
0010
,
1000
0000
0000
0100
0000
0000
0000
0010
,
0000
0000
0000
0100
0000
0000
0000
0000
,
0010
0001
0000
1000
,
0001
0100
0000
0010
,
1000
0000
0000
0010
0000
0100
0000
0001
,
0000
0000
0000
1000
0000
0000
0000
0000
,
0001
0000
0000
0010
0000
0000
0000
0001
,
0000
0000
0000
1000
0000
0000
0000
0001
,
0000
0000
0000
1000
0000
0000
0000
0010
,
0000
0000
0000
0100
0000
0000
0000
0000
,
0010
0000
0000
1000
0000
0000
0000
0001
,
0000
0000
0000
0010
0000
0000
0000
0000
,
0100
0010
0001
0000
,
0000
0000
1000
0001
,
0100
0010
1000
0000
,
0000
0000
0100
1000
,
0010
0100
0001
0000
,
0000
0000
0000
0000
0000
0000
0000
1001
,
0000
0000
0000
1010
0000
0000
0000
1001
,
0000
0000
0000
0011
0000
0000
0000
1001
,
0000
0001
0100
0000
,
0000
0000
0001
0010
,
0100
0010
0001
0000
,
0000
0000
0100
0010
,
1000
0001
0010
0000
,
0000
0000
0000
0000
0000
0000
0000
1001
,
0000
0000
0000
0000
0000
0000
0000
0110
,
0000
0000
0000
0000
,
1000
0000
0000
0001
0000
0000
0000
0010
,
0000
0001
0100
0010
,
1000
0000
0000
0010
0000
0000
0100
0000
,
0001
1000
0001
0010
,
0100
0000
0000
0010
0000
0000
0000
0001
,
0000
0000
0000
1000
0000
0000
0000
0000
,
0010
0000
0000
1000
0000
0000
0000
0100
,
0000
0010
0100
0001
,
0010
0001
1000
0010
,
1000
0001
0010
0001
,
1000
0001
0100
0001
,
1000
0100
1000
0001
,
0100
0100
0010
0100
,
0010
0010
0100
0010
,
1000
1000
0001
0001
,
1000
0001
0100
0000
,
0010
1000
0010
0100
,
0001
0010
0100
0010
,
0001
1000
0010
1000
,
0010
0100
0001
0010
,
0100
1000
0001
0010
,
0100
1000
0001
0010
,
0001
0100
0010
1000
,
0001
0000
0010
0000
0100
0100
0000
0000
;

//---------------dance-single - Pandemonium X-DSP----------------
#NOTES:
     dance-single:
     Pandemonium X:
     Medium:
     9:
     :
0000
0000
0000
0000
,
0000
0000
0000
0000
,
1000
0010
0100
0001
1000
0100
0010
0001
,
1001
0000
0110
0000
,
0000
0000
0000
0000
,
0000
0000
0000
0000
,
0101
1000
0010
0100
,
0000
0001
1000
0100
0000
1000
0001
0100
,
0000
0010
1000
0000
0010
0000
0100
0000
,
0010
1000
0100
0010
0000
0100
0000
0010
,
0000
0001
0100
0000
0010
1000
0001
1000
,
0100
0000
0000
1000
0000
0000
0000
0010
,
0000
0000
0000
0100
0000
0000
0000
0000
,
0001
1000
0000
0100
0000
0000
0000
0010
,
0000
0001
1000
0000
0001
1000
0000
0000
,
0000
0001
0010
0000
0001
0000
1000
0000
,
0010
0100
0001
1000
,
0000
0001
0010
0000
0001
0000
0100
0000
,
0010
0000
1000
0000
0100
0010
0000
0000
,
0000
0001
0100
0000
0010
0000
1000
0000
,
0100
1000
0001
0100
,
0000
0001
0100
0000
0010
0000
1000
0100
,
0000
0010
0001
1000
0000
0000
0000
0000
,
0000
0000
0001
0000
0000
0100
0000
0000
,
0010
0000
0000
1000
0000
0000
0100
0000
,
0000
0000
0010
0000
0000
0100
0000
0000
,
1000
0001
0000
0100
0000
0010
0100
0000
,
0001
0000
0000
0000
,
1000
0001
0000
0100
0000
0010
0000
0000
,
1000
0010
0100
0001
0000
0010
0000
0010
,
0001
0000
0000
1001
0000
0000
0000
0000
,
1000
0010
0100
0001
0000
1000
0000
0001
,
0000
0010
0000
0100
0000
0000
0000
0010
,
0000
0001
0100
0010
0000
0100
0000
0001
,
0000
1000
0001
1000
0000
0000
0000
0010
,
0000
0100
0001
0100
0000
0010
0000
1000
,
0000
0100
0000
1000
0000
0010
0100
0010
,
0000
0100
0010
0100
0000
0010
1000
0001
,
0000
0000
0000
0100
0000
0000
0000
0000
,
0010
1000
0001
0010
,
0001
1000
0100
0010
,
1001
0000
0000
0101
0000
0000
0000
0011
,
0000
0000
0000
1100
0000
0000
0000
0000
,
0100
1000
0010
0100
,
0001
0010
0001
1000
,
0001
0100
0000
0001
0000
1000
0100
1000
,
0000
0000
0000
0110
0000
0000
0000
0000
,
0010
0000
0000
1000
0000
0000
0000
0100
,
0000
0000
0000
0001
0000
0000
0000
0100
,
0000
0000
0000
0010
0000
0000
0000
0001
,
0000
0000
0000
1000
0000
0000
0000
0000
,
0001
0000
0000
0010
0000
0000
0000
0001
,
0000
0000
0000
0100
0000
0000
0000
0000
,
0000
0010
0000
1000
0000
0010
0000
1000
,
0000
0010
0000
1000
0000
0010
0000
1000
,
0000
0001
0000
0100
0000
0001
0000
0100
,
0000
0001
0000
0100
0000
0001
0000
0100
,
0000
0010
0000
0100
0000
0010
0000
0100
,
0000
0010
0000
0100
0000
0010
0100
0010
,
0000
1000
0010
1000
0000
0001
0100
0001
,
0000
0010
0001
0010
0000
0100
0010
0100
,
0000
0010
0000
0001
0000
0010
0000
0001
,
0000
0010
0000
0001
0000
0010
0000
0001
,
0000
0100
0000
0001
0000
0100
0000
0001
,
0000
0100
0000
0001
0000
0100
0000
0001
,
0000
0100
0000
0010
0000
0100
0000
0010
,
0000
0100
0000
0010
0000
0100
0000
0010
,
0000
0000
0100
0000
0010
1000
0000
1001
,
0000
0000
0000
0000
,
1000
0000
0001
0100
0000
0010
1000
0001
,
0000
0010
0100
0000
0010
0001
1000
0000
,
0001
0000
1000
0100
0000
0010
0001
0100
,
0000
0010
1000
0100
,
1000
0000
0001
0100
0000
0010
1000
0001
,
0000
0000
0000
0010
0000
0000
0000
0000
,
0001
0000
0000
1000
0000
0000
0000
0001
,
0000
0000
0000
0100
0000
0000
0000
0000
,
0010
0000
0000
1000
0000
0000
0000
0001
,
0000
0100
0000
1000
0000
0100
0000
0001
,
0000
0010
0000
1000
0000
0010
0000
0100
,
0000
0010
0001
1000
0000
0001
0000
0100
,
0000
0100
0000
0100
0010
0100
0000
0010
,
0000
0010
0000
1000
0000
1000
0000
1000
,
0000
0001
0100
0001
0000
0010
0100
1000
,
0000
0100
0010
0001
1000
0010
0000
0100
,
0000
0000
0000
0010
0000
0000
0000
1000
,
0000
0000
0000
0001
0000
0000
0000
0000
,
0010
0000
0000
0001
0000
0000
0000
0000
,
1000
0000
0000
0010
0000
0000
0100
0000
,
0000
0000
0000
0000
0001
0000
0000
0001
,
0000
0000
0000
1000
0000
0000
0000
0000
,
1000
0000
0000
0010
0000
0000
0000
0100
,
0000
0010
1000
0001
0010
0010
0000
0000
;

//---------------dance-single - Pandemonium X-ESP----------------
#NOTES:
     dance-single:
     Pandemonium X:
     Hard:
     14:
     :
0000
0000
0000
0000
,
0000
0000
0000
0000
,
0001
0000
0000
0010
0000
0000
0001
0000
0000
1000
0000
0000
0010
0000
0000
0100
0000
0000
0001
0000
0000
1000
0000
0000
0001
0000
0010
0000
0100
0000
1000
0000
0100
0000
0010
0000
0001
0000
0010
0000
0100
0000
0010
0000
0001
0000
1000
0000
,
1001
0000
0110
0000
,
0000
0000
0000
0000
,
0000
0000
0000
0000
,
1000
0100
0010
0100
1000
0001
0100
0010
,
0000
0100
0010
1000
0000
1000
0001
0010
,
0000
0010
0001
1000
0100
0010
0001
1000
,
0000
0001
0010
0001
0000
0010
0000
0001
,
0000
0100
0010
1000
0100
1000
0001
1000
,
0000
0001
0100
0010
0000
0100
0010
1000
,
0100
0010
0100
1000
0000
0100
0010
0100
,
0000
0010
0100
1000
0000
0100
0010
0001
,
0000
1000
1000
0000
1000
1000
0000
0000
,
0000
0001
0010
0100
1000
0001
0100
0010
,
0000
1000
0000
0100
0000
1000
0010
1000
,
0000
0001
0010
0100
1000
0001
0100
0001
,
0000
0010
0000
0100
0010
0001
0000
0000
,
0000
0001
0010
0100
1000
0001
0100
0010
,
0000
0100
0000
0001
0000
1000
0001
0010
,
0000
0100
0010
0001
1000
0010
0100
0001
,
0000
1000
0001
0100
0000
0000
0000
0000
,
0001
0010
0001
1000
0000
0001
1000
0010
,
0000
0100
1000
0100
0001
0010
0100
1000
,
0000
0001
1000
0100
0010
0100
1000
0001
,
0100
0010
1000
0001
0000
0010
0100
1000
,
0000
0000
0000
0100
0010
0100
1000
0001
,
0100
0010
1000
0001
0010
0100
0010
0001
,
1000
0001
0100
0010
0000
0100
0000
0100
,
0010
0000
0000
1000
0000
0000
0000
0000
,
1000
0100
1000
0001
0000
0100
0000
0001
,
0000
0010
0001
1000
0000
0000
0000
0001
,
0000
1000
0010
1000
0000
0001
0000
0010
,
0000
0100
0010
0001
0000
0000
0000
0100
,
0000
0010
1000
0001
0000
0010
0000
0100
,
0000
0010
0000
0001
0000
1000
0001
1000
,
0000
0001
0010
0001
0000
1000
0000
1000
,
0000
0000
0000
1000
0000
0000
0000
0000
,
0000
0001
0010
0001
0100
0010
1000
0001
,
0010
0100
0010
0001
0000
1000
0010
0100
,
0110
0000
0000
0101
0000
0000
0000
0011
,
0000
0000
0000
1100
0000
0000
0000
0000
,
0100
0010
0001
1000
0010
0100
0001
1000
,
0010
0100
0001
0010
0000
0010
0001
1000
,
0010
0010
0000
0110
0000
0001
0100
0110
,
0000
0000
0000
1010
0000
0000
0000
0000
,
1000
0100
0001
0100
0000
0010
0001
0100
,
0000
0010
0000
1001
0000
0000
0000
0011
,
0000
0010
0100
1000
0000
0001
0010
1000
,
0000
1000
0010
0100
0000
0010
0001
1000
,
0010
0100
0001
1000
0000
0001
0010
1000
,
0010
0100
0010
0001
0000
0010
0100
0010
,
0001
0100
0010
1000
0000
0000
0000
0000
,
0000
0000
0000
0001
0000
1000
0100
1000
,
0010
0100
0001
0010
0000
0000
0000
0000
,
0000
0000
0000
0100
0000
0010
0100
1000
,
0010
0100
0001
1000
0000
0000
0000
0000
,
0000
0000
0000
0000
0000
0001
0010
0011
,
0000
1000
0100
1100
0000
0001
1000
1001
,
0000
1000
0010
1010
0000
0010
0100
0110
,
0000
0100
0010
1000
0000
0000
0000
0000
,
0000
0000
0000
0001
0000
0010
0001
0100
,
0001
1000
0100
1000
0000
0000
0000
0000
,
0000
0000
0000
0100
0000
0010
0100
1000
,
0010
0100
0001
0010
0000
0000
0000
0000
,
0000
0010
0001
1000
0100
1000
0000
0101
,
0000
0001
0000
1000
0100
0100
0000
1001
,
0000
0000
0000
0000
,
0001
0100
1000
0100
0000
0010
1000
0001
,
0000
0010
1000
0010
0001
0010
0100
1000
,
0001
0100
1000
0100
0000
0010
0000
0100
,
0000
0010
1000
0001
0010
0100
1000
0100
,
0010
0100
1000
0010
0000
0100
0001
1000
,
0010
1000
0001
0100
0000
0010
0100
0001
,
1000
0100
0010
0100
0000
0010
0001
0100
,
0000
0010
0100
0001
1000
0100
0010
0100
,
1000
0001
0100
0001
0000
0010
0100
0010
,
0000
0100
0000
0010
0000
0001
0000
0100
,
0000
0010
1000
0010
0100
0001
0010
0100
,
0000
0010
0001
1000
0000
0001
0000
0110
,
0000
0110
0000
0100
0010
0010
0000
0110
,
0000
0110
0000
1001
0000
0110
0000
0110
,
0000
0010
0010
0100
0000
0110
0000
1001
,
0000
0010
0100
0100
0001
0001
0000
0000
,
0000
1000
0100
0001
0100
0010
0001
1000
,
0000
0001
0100
0010
0100
0001
1000
0100
,
0000
0001
0100
0010
0001
1000
0010
0100
,
1000
0100
0001
0100
0010
0010
0001
1000
,
0010
0000
0000
0000
0100
0000
0000
0000
0010
0000
0100
0000
0001
0000
0000
1000
0000
0000
0000
0000
0001
0000
0010
0000
,
0100
0000
0000
1000
0000
0000
0100
0000
1000
0000
0010
0000
0100
0000
0000
0010
0000
0000
0100
0000
0010
0000
0100
0000
,
0001
0100
0001
0010
0000
0100
0010
0001
,
0000
1000
0100
0010
0100
0100
0000
0000
;

//---------------dance-single - Pandemonium X-CSP----------------
#NOTES:
     dance-single:
     Pandemonium X:
     Challenge:
     16:
     :
0000
0000
0000
0000
,
0000
0000
0000
0000
,
1000
0000
0000
0100
0000
0000
1000
0000
0000
0001
0000
0000
0100
0000
0000
0010
0000
0000
1000
0000
0000
0001
0000
0000
1000
0000
0100
0000
0010
0000
0001
0000
0010
0000
0100
0000
1000
0000
0100
0000
0010
0000
0100
0000
1000
0000
0001
0000
,
1001
0000
0110
0000
,
0000
0000
0000
0000
0000
0000
0000
0000
0000
0000
0000
0000
0000
0000
1000
0010
,
0100
0000
0101
0000
0000
0000
0001
0000
0000
0001
0000
0010
0100
1000
0001
0010
,
0100
1000
0100
0010
0001
0010
0100
0010
,
0011
0000
0001
1000
0010
0000
1010
0000
0000
0000
1000
0000
0001
0000
0100
0000
,
0000
0010
1000
0001
1000
0100
0001
0100
,
0010
0100
1000
0001
0000
0011
0000
1010
,
0000
0000
1000
0100
0010
0100
1000
0001
0100
0000
0001
0000
1000
0000
0100
0000
,
0010
1000
0010
0100
0000
0010
0001
0100
,
0010
0001
0010
1000
0000
0100
0010
0001
,
0101
0101
0000
1010
0000
0100
0010
1001
,
0001
1001
1001
0000
1001
1001
0000
0000
,
1001
0000
0000
0000
0000
0000
1000
0000
0000
0100
0000
0000
0010
0000
0000
0000
0001
0000
0000
0000
1000
0000
0000
0000
0100
0000
0000
0000
0000
0000
0010
0000
0000
0000
0000
0000
0001
0000
0000
0000
0000
0000
0100
0000
0000
0000
0000
0000
,
0000
0010
0000
0100
0000
0010
0100
0001
,
0000
0000
0000
0000
0000
0000
1000
0000
0000
0100
0000
0000
0010
0000
0000
0000
0001
0000
0000
0000
1000
0000
0000
0000
0001
0000
0000
0000
0000
0000
0100
0000
0000
0000
0000
0000
0001
0000
0000
0000
0000
0000
0010
0000
0000
0000
0000
0000
,
0000
0100
0000
0010
0001
1000
0000
0000
,
0000
0000
0000
0000
0000
0000
0010
0000
0000
1000
0000
0000
0001
0000
0000
0000
0010
0000
0000
0000
0100
0000
0000
0000
0010
0000
0000
0000
0000
0000
0001
0000
0000
0000
0000
0000
0100
0000
0000
0000
0000
0000
0010
0000
0000
0000
0000
0000
,
0000
0100
0000
0010
0000
1000
0010
0100
,
0000
0000
0000
0000
0000
0000
0010
0000
0000
1000
0000
0000
0001
0000
0000
0000
0010
0000
0000
0000
0100
0000
0000
0000
1000
0000
0000
0000
0000
0000
0100
0000
0000
0000
0000
0000
1000
0000
0000
0000
0000
0000
0010
0000
0000
0000
0000
0000
,
0000
0100
0001
1000
0100
0100
0000
0000
,
1000
0100
0001
0100
0000
0010
0001
0100
,
0000
0000
0010
0100
0001
0000
1000
0000
0100
0000
0001
0000
0100
0000
1000
0000
,
0000
0100
0010
0001
0100
1000
0100
0010
,
1000
0000
0000
0001
0000
0000
0010
0000
0000
0100
0000
0000
0000
0000
0000
0010
0000
0000
0001
0000
0010
0000
0100
0000
,
1000
0000
0000
0000
0000
0000
0100
0010
0100
0000
0010
0000
0001
0000
0100
0000
,
0010
1000
0001
0010
0100
1000
0001
0100
,
0101
0001
0010
0110
0000
0011
0000
1000
,
1100
0000
1000
0101
0000
0000
0000
0000
,
0110
1000
0001
0011
0000
0110
0000
1100
,
0000
1000
0100
0101
0000
0000
0000
1100
,
0000
1000
0010
0011
0000
0110
0000
1010
,
0000
1000
0010
0011
0000
0000
0000
0110
,
0000
0100
0001
0011
0000
1100
0000
1001
,
0000
1100
0000
0011
0000
1100
0100
1001
,
0000
0001
0010
0110
0000
0110
0000
0110
,
0100
0000
1000
0000
0010
1000
0000
1000
0001
0010
0100
0000
1001
0000
0000
0000
,
0000
0001
0100
1000
0100
0010
1000
0001
,
0010
1000
0010
0100
0000
0010
0001
1000
,
1001
0001
0100
0110
0000
0100
0001
0011
,
0000
0010
0100
1100
0000
1000
0100
0010
,
0100
0100
0010
0001
0100
0100
0010
1000
,
0001
0010
1000
0010
0000
0100
0010
0001
,
1100
1100
0000
1001
0000
1010
0010
0100
,
0000
0000
0000
0101
0000
0000
0000
0000
,
1001
0001
0010
1000
0000
0010
0001
0100
,
0000
0010
0000
1010
0000
0000
0000
0101
,
0000
0001
0010
0110
0000
0100
1000
1010
,
0000
1000
0010
0110
0000
0100
0001
0010
,
0110
0000
0100
0000
1000
0000
0001
0000
0000
0000
1000
0000
0001
0010
0001
1000
,
0000
1000
0010
0110
0000
0100
0010
1000
,
0000
0000
0001
0100
0000
0000
0010
1000
0000
0000
1000
0100
0000
0000
0100
0010
,
0000
0000
0010
0001
0000
0000
0001
0100
0000
0000
0010
0000
1000
0000
0100
0000
,
0000
0000
0010
0001
0000
0000
0010
0100
0000
0000
1000
0100
0000
0000
0010
0001
,
0000
0000
0100
0010
0000
0000
1000
0001
0000
0000
1000
0000
0001
0000
0100
0000
,
0000
0000
0010
1000
0000
0000
0001
0100
0000
0000
0001
0010
0000
0000
0001
0100
,
0000
0000
0010
1000
0000
0000
0001
1000
0000
0000
0100
0000
0010
0000
0011
0000
,
0000
0010
0100
1100
0000
1000
0010
0110
,
0000
0010
0100
0101
0000
1000
0001
0010
,
0000
0000
0001
0100
0000
0000
0010
1000
0000
0000
0100
0010
0000
0000
0100
1000
,
0000
0000
0010
0100
0000
0000
0001
0000
0000
0000
0010
0000
0001
0000
0100
0000
,
0000
0000
0010
1000
0000
0000
0100
0010
0000
0000
0100
1000
0000
0000
0010
0100
,
0000
0000
0001
0010
0000
0000
0100
0000
0000
0000
0010
0000
0100
0000
1000
0000
,
0000
0000
0001
0100
0000
0000
0010
1000
0000
0000
0100
0010
0000
0000
0100
1000
,
0000
0000
0100
0010
0000
0000
0010
0001
0000
0000
0100
0010
0000
0000
0110
0000
,
0000
0001
0000
0010
0110
0110
0000
1001
,
0000
0001
0100
0001
1000
0100
0010
0001
,
1001
1000
0010
0110
0000
0001
0010
0110
,
0000
0100
1000
0100
1000
0010
0100
0001
,
1001
1000
0001
0011
0000
0110
0000
0011
,
0000
0000
0010
0100
1000
0001
0100
0000
0010
0000
1000
0000
0001
0000
0010
0000
,
0110
0100
1000
1010
0000
0001
0010
0100
,
0110
0010
0100
1100
0000
1000
0010
0100
,
0001
0100
0100
0110
0000
0010
1000
1001
,
0000
0001
0010
0100
1000
0001
0010
0100
,
1000
0000
0000
0000
0001
0000
0100
0000
0000
0010
0000
0000
0000
0000
0000
0001
0000
0000
0010
0000
0000
1000
0000
0000
,
0000
0011
0000
1100
0000
1100
0000
1001
,
0000
1001
0000
0101
0000
0101
0000
1010
,
0000
0010
1000
0001
0000
1100
0000
1001
,
0000
1001
0000
1001
1001
1001
0000
1001
,
0000
1001
0000
1001
0000
1001
0000
1001
,
0000
1001
0000
0110
0000
1001
0000
0110
,
0000
1001
1001
1001
0110
0110
0000
1000
,
0000
0000
0001
0000
0010
0100
1000
0000
0010
0000
0100
0000
0010
0000
1000
0000
,
0000
0000
0001
0000
0010
0000
0100
0000
0010
0000
0001
0000
1000
0100
0010
0001
,
0000
0000
1000
0000
0001
0010
0100
0000
0000
0000
0100
0000
0100
0010
0001
0000
,
1000
0001
0100
0010
1000
0001
0010
0100
0010
0001
1000
0100
,
1000
0010
0100
0001
1000
1001
0000
1000
0001
0100
0000
1001
,
0000
0000
1000
0000
0001
0000
0100
0000
0000
0000
1001
0000
0000
0000
1000
0000
0001
0000
0100
0000
0000
0010
0000
0000
,
1000
0010
0100
0001
0000
0010
0100
1000
,
0000
0100
0010
0001
1001
1001
0000
0000
;

//---------------dance-double - NewbStepper-BDP----------------
#NOTES:
     dance-double:
     NewbStepper:
     Easy:
     7:
     :
00000000
00000000
00000000
00000000
,
00000000
00000000
00000000
00000000
,
00000001
00000000
00001000
00000000
,
00010000
00000000
10000000
00000000
,
00000000
00000000
00000000
00000000
,
00000000
00000000
00000000
00000000
,
00020000
00000000
00000000
00000000
,
00130000
00000000
00000000
00100000
00000000
00000000
00000000
01000000
,
00000000
00000000
00000000
00000000
,
00000000
00010000
00000000
00001000
00000000
00010000
00000000
00000100
,
00000000
00000100
00000000
00001000
00000000
00000000
00000000
00000000
,
00000001
00000000
00000000
00000010
00000000
00000000
00000000
00001000
,
00000000
00000000
00000000
00010000
00000000
00000000
00000000
00000000
,
00001000
00000000
00000000
00100000
00000000
00000000
00000000
00010000
,
00000000
00000000
10000000
00000000
00000000
10010000
00000000
00000000
,
00100000
10000000
01000000
00000000
,
00100000
00010000
01000000
00000000
,
00000010
00001000
00000100
00000000
,
00000010
00000001
00000100
00000000
,
00000001
00000100
00001000
00000000
,
00000100
00001000
00010000
00000000
,
01000000
00010000
00001000
00000000
,
00010000
00001000
00000100
00000000
,
00000001
00000010
00000000
00000001
,
00000100
00000000
00001000
00010000
,
00001000
00000000
00100000
00010000
,
10000000
00000000
00000000
01000000
00000000
00000000
00100000
00000000
,
00020000
00000000
00000000
00000000
,
10030000
00000000
00000000
01000000
00000000
00010000
00000000
00000000
,
00001000
00000000
00000000
00100000
00000000
00100000
00000000
00000000
,
00010000
00000000
00000000
00001000
00000000
00000000
00000000
00000000
,
00000001
00000100
00001000
00000100
,
00000001
00000100
00001000
00000000
,
00010000
01000000
10000000
01000000
,
00010000
01000000
10000000
00000000
,
00100000
00010000
00001000
00000000
,
00100000
00010000
00001000
00000000
,
00000010
00001000
00010000
00000000
,
00000010
00001000
00010000
00000000
,
00001000
00100000
00000000
00010000
,
10000000
01000000
00000000
00010000
,
00001000
00000000
00000000
00000100
00000000
00000000
00000000
00001000
,
00000000
00000000
00000000
00010000
00000000
00000000
00000000
00000000
,
00000010
00000000
00000000
00001000
00000000
00000000
00000001
00000000
,
00000100
00000000
00000000
00000000
,
00001000
00000000
00000000
00010000
00000000
00100000
00000000
10000000
,
00000000
00000000
00000000
10010000
00000000
00000000
00000000
00000000
,
10000000
00000000
00000000
00000000
00000000
00000000
00000000
00010000
,
00000000
00010000
00000000
00010000
00000000
00000000
00000000
00001000
,
00000000
00000000
00000000
00000000
00000000
00000000
00000000
00000001
,
00000000
00000001
00000000
00000001
00000000
00000000
00000000
00000000
,
00001000
00000000
00000000
00000010
00000000
00000000
00000000
00000100
,
00000000
00000000
00000000
00001000
00000000
00000000
00000000
00000000
,
00010000
01000000
00100000
00000000
,
00000000
00000000
00010000
01000000
,
10000000
01000000
00010000
00000000
,
00000000
00000000
00001000
00000100
,
00000001
00000100
00001000
00000000
,
00000000
00000000
00000000
00000000
00000000
00000000
00000000
00010000
,
00000000
00000000
00000000
01000000
00000000
00000000
00000000
10000000
,
00000000
00000000
00000000
00100000
00000000
00000000
00000000
00010000
,
00000000
00000000
00001000
00000100
,
00000001
00000100
00001000
00000000
,
00000000
00000000
00010000
01000000
,
10000000
01000000
00010000
00000000
,
00000000
00000000
00001000
00000010
,
00000001
00000000
00000010
00000000
00001000
00000000
00000000
00011000
,
00000000
00000000
00000000
00000000
00000000
00000000
00000000
01100000
,
00000000
00000000
00000000
00000000
,
10000000
00000000
00000000
00010000
00000000
00000000
00000000
00100000
,
00000000
00001000
00010000
00000100
,
00000010
00000000
00000000
00000001
00000000
00000000
00000100
00000000
,
00000001
00001000
00000001
00000010
,
00000001
00000000
00000000
00001000
00000000
00000000
00000000
00000010
,
00000000
00010000
00001000
01000000
,
00100000
00000000
00000000
10000000
00000000
00000000
00000000
01000000
,
00000000
00010000
00001000
00000100
,
00001000
00010000
00000100
00001000
,
00000001
00000100
00001000
00010000
,
01000000
10000000
00100000
01000000
,
00010000
00100000
00001000
00010000
,
00000100
00000000
00001000
00000000
00000010
00000000
00000100
00000001
,
00000000
00000001
00000000
00000001
00000000
00000001
00000000
00001000
,
00000000
00001000
00000000
00001000
00000000
00001000
00000000
00010000
,
00000000
00010000
00000000
00010000
00000000
01000000
00000000
00100000
,
00000000
00000000
00000000
10000000
00000000
00000000
00000000
01000000
,
00000000
00000000
00000000
00010000
00000000
00000000
00000000
00001000
,
00000000
00000000
00000000
00000010
00000000
00000000
00000000
00000001
,
00000000
00000000
00000000
00000100
00000000
00000000
00000000
00001000
,
00000000
00000000
00000000
00010000
00000000
00000000
00000000
00010000
,
00000000
00000000
00000000
01000000
00000000
00000000
00000000
00000000
,
00100000
00000000
00000000
00010000
00000000
00000000
00000000
10000000
,
00000000
00000000
10010000
00000000
;

//---------------dance-double - NewbStepper-DDP----------------
#NOTES:
     dance-double:
     NewbStepper:
     Medium:
     9:
     :
00000000
00000000
00000000
00000000
,
00000000
00000000
00000000
00000000
,
00001000
00010000
00000100
00001000
00000100
00010000
00001000
00100000
,
00010000
00000000
10000000
00000000
,
00000000
00000000
00000000
00000000
,
00000000
00000000
00000000
00000000
,
01010000
10000000
00100000
00000000
,
01000000
00000000
00000000
00010000
00000000
00000000
00000000
00001000
,
00000000
00000100
00000010
00000001
00000000
00000001
00000000
00000000
,
00000000
00001000
00000100
00000010
00000000
00001000
00000000
00010000
,
00000000
01000000
10000000
00000000
00010000
01000000
00100000
01000000
,
00010000
00000000
00000000
10000000
00000000
00000000
00000000
01000000
,
00000000
00000000
00000000
00001000
00000000
00000000
00000000
00000000
,
00000001
00000001
00000000
00000100
00000000
00000010
00000100
00001000
,
00000000
00010000
00001000
00000000
00010000
00001000
00000000
00000000
,
00100000
00000000
00010000
00000000
10000000
01000000
00000000
00010000
,
00000000
00001000
00000000
00010000
00001000
00010000
00000000
00000010
,
00000000
00000000
00001000
00000000
00000001
00000100
00000000
00001000
,
00000000
00010000
00000000
00001000
00010000
00001000
00000000
00000000
,
01000000
00000000
00010000
00000000
10000000
00100000
00000000
00010000
,
00000000
00001000
00000000
00010000
00001000
00010000
00000000
00000100
,
00000000
00001000
00000001
00000100
,
00001000
00000000
00000000
00011000
00000000
00000000
00000000
00000000
,
00000000
00000000
00100000
00000000
00000000
00010000
00000000
00000000
,
10000000
00000000
00000000
01000000
00000000
00000000
00010000
00000000
,
00000000
00000000
00000010
00000000
00000000
00001000
00000000
00000000
,
00000001
00000001
00000000
00000100
00000000
00000100
00001000
00000000
,
00011000
00000000
00000000
00000000
,
10000000
10000000
00000000
01000000
00000000
01000000
00000000
00000000
,
00010000
00000000
00000000
00001000
00000000
00010000
00000000
00000100
,
00000010
00000000
00000000
00000110
00000000
00000000
00000000
00000000
,
00000001
00000100
00000010
00001000
00000000
00000001
00000000
00000100
,
00000000
00001000
00010000
00001000
00000000
00000000
00000000
00100000
,
00000000
00010000
10000000
01000000
00000000
00010000
00000000
00001000
,
00000000
00010000
00001000
00010000
00000000
00000000
00000000
00000100
,
00000000
00000010
00000100
00000010
00000000
00000001
00000000
00001000
,
00000000
00000010
00000000
00010000
00000000
00001000
00100000
00001000
,
00000000
00100000
00010000
10000000
00000000
01000000
00000000
00010000
,
00000000
00000000
00000000
00011000
00000000
00000000
00000000
00000000
,
00000010
00001000
00000001
00000100
,
00000010
00001000
00000100
00010000
,
00001000
00001000
00000000
00100000
00000000
00010000
00000000
10000000
,
00000000
00000000
00000000
10010000
00000000
00000000
00000000
00000000
,
00100000
00010000
10000000
01000000
,
00100000
00010000
01000000
00001000
,
00010000
00010000
00000000
00000010
00000000
00001000
00000000
00000001
,
00000000
00000000
00000000
00001001
00000000
00000000
00000000
00000000
,
00000010
00000000
00000000
00000001
00000000
00000000
00000000
00000101
,
00000000
00000000
00000000
00011000
00000000
00000000
00000000
01000000
,
00000000
00000000
00000000
10000000
00000000
00000000
00000000
10100000
,
00000000
00000000
00000000
00011000
00000000
00000000
00000000
00000000
,
00100000
00000000
00000000
00010000
00000000
00000000
00000000
00001000
,
00000000
00000000
00000000
00000100
00000000
00000000
00000000
00000000
,
00000000
00000001
00000000
00000100
00000000
00000001
00000000
00000100
,
00000000
00001000
00000000
00000100
00000000
00001000
00000000
00010000
,
00000000
00001000
00000000
00010000
00000000
00100000
00000000
00010000
,
00000000
00100000
00000000
10000000
00000000
00100000
00000000
10000000
,
00000000
01000000
00000000
10000000
00000000
01000000
00000000
00010000
,
00000000
01000000
00000000
00010000
00000000
00001000
00010000
00001000
,
00000000
00000010
00000100
00000010
00000000
00001000
00010000
00001000
,
00000000
01000000
00100000
01000000
00000000
00001000
00010000
00100000
,
00000000
10000000
00000000
01000000
00000000
10000000
00000000
01000000
,
00000000
00010000
00000000
01000000
00000000
00010000
00000000
00001000
,
00000000
00010000
00000000
00001000
00000000
00000010
00000000
00001000
,
00000000
00000010
00000000
00000001
00000000
00000010
00000000
00000001
,
00000000
00000100
00000000
00000001
00000000
00000100
00000000
00001000
,
00000000
00000100
00000000
00001000
00000000
00010000
00000000
00001000
,
00000000
00001000
00000000
01000000
00100000
01000000
00000000
01100000
,
00000000
00000000
00000000
00000000
,
10000000
00000000
00000000
00010000
00000000
00000000
00000000
00001000
,
00000000
00000000
00000000
00000001
00000000
00000000
00000000
00000000
,
00001000
00000000
00000000
00000010
00000000
00000000
00000000
00000100
,
00000000
00000000
00000000
00010000
00000000
00000000
00000000
00000000
,
00100000
00000000
00000000
00001000
00000000
00000000
00000000
00000100
,
00000000
00000000
00000000
00010000
00000000
00000000
00000000
00000000
,
01000000
00000000
00000000
00010000
00000000
00000000
00000000
10010000
,
00000000
00000000
00000000
01100000
00000000
00000000
00000000
00000000
,
10000000
00000000
00000000
00010000
00000000
00000000
00000000
10000000
,
00000000
01000000
00000000
00010000
00000000
00001000
00000000
00000100
,
00000000
00000001
00000000
00000010
00000000
00000001
00000000
00000100
,
00000000
00001000
00010000
00100000
00000000
00010000
00000000
00001000
,
00000000
00000010
00000000
00000001
00000100
00000001
00000000
00001000
,
00000000
00010000
00000000
00001000
00000000
00000001
00000000
00000010
,
00000000
00001000
00010000
00100000
00000000
00010000
00001000
00000010
,
00000000
00000100
00000100
00000100
00001000
00000001
00000000
00000100
,
00000000
00000000
00000000
00001000
00000000
00000000
00000000
00010000
,
00000000
00000000
00000000
01000000
00000000
00000000
00000000
00000000
,
10000000
01000000
00100000
00010000
00000000
10000000
00000000
00000000
,
01000000
00000000
00000000
01100000
00000000
00000000
00000000
00110000
,
00000000
00000000
00000000
00011000
00000000
00000000
00000000
00000110
,
00000000
00000000
00000000
00001001
00000000
00000000
00000000
00000000
,
00000001
00000100
00000010
00001000
00000000
00000010
00000100
00001000
,
00000000
00010000
00001000
00100000
00010000
00010000
00000000
00000000
;

//---------------dance-double - NewbStepper-EDP----------------
#NOTES:
     dance-double:
     NewbStepper:
     Hard:
     14:
     :
00000000
00000000
00000000
00000000
,
00000000
00000000
00000000
00000000
,
00010000
00001000
00010000
00001000
00100000
00010000
00100000
00010000
20000000
00000000
32000000
00000000
03200000
00000000
00320000
00000000
,
20030000
00000000
30020000
00000000
,
00030000
00000000
00000000
00000000
,
00000000
00000000
00000000
00000000
,
10000000
01000000
00100000
00010000
00001000
00000100
00000010
00000001
,
00000101
00000000
00000000
00001010
00000000
00000000
00000000
00000110
,
00000000
00000001
00000100
00001000
00000100
00000010
00000100
00000001
,
00001000
00000100
00010000
00001000
00000000
00110000
00000000
11000000
,
00000000
10000000
01000000
00010000
00001000
00100000
00010000
01000000
,
00100000
00010000
00001000
00000010
00000000
00000001
00000100
00000001
,
00001000
00000100
00000010
00000001
00000000
00000100
00001000
00010000
,
01000000
00100000
00000000
01100000
00000000
10000000
00010000
10000000
,
00000000
01000000
00010000
00000000
00011000
00011000
00000000
00000000
,
00000010
00000001
00000100
00000010
00000100
00000001
00000010
00001000
,
00000000
00010000
00000000
00001000
00000000
01000000
00010000
01000000
,
00100000
10000000
01000000
00100000
01000000
10000000
00100000
00010000
,
00000000
00001000
00000000
00010000
00001000
00000010
00000000
00000000
,
00000001
00000100
00001000
00010000
01000000
10000000
00100000
01000000
,
00000000
10000000
00000000
01000000
00000000
00100000
10000000
00010000
,
00100000
01000000
00010000
00001000
00000100
00001000
00010000
00001000
,
00000000
00000010
00000001
00000010
00000000
00000100
00000110
00000000
,
00000001
00000100
00000010
00001000
00000000
00000001
00000100
00000001
,
00000010
00001000
00010000
00100000
00010000
00001000
00100000
00010000
,
00000000
01000000
10000000
01000000
00010000
00100000
01000000
00010000
,
00001000
00010000
01000000
00100000
00000000
00001000
00010000
00001000
,
00000010
00000000
00000000
00000000
00000000
00000000
00000001
00000100
00000001
00000000
00001000
00000000
00000010
00000000
00000100
00000000
,
00000001
00000010
00001000
00010000
01000000
10000000
00100000
01000000
,
00001000
01000000
00010000
00100000
00000000
01000000
00000000
00100000
,
00001000
00000000
00000000
00011000
00000000
00000000
00000000
00000000
,
10000000
01000000
00100000
00010000
00000000
00011000
00000000
00001100
,
00000000
00000010
00000001
00000100
00000000
00000000
00000000
00001010
,
00000000
00000001
00000100
00001000
00000000
00011000
00000000
01010000
,
00000000
01000000
10000000
00100000
00000000
00000000
00000000
10010000
,
00000000
10000000
01000000
00010000
00000000
00011000
00000000
00110000
,
00000000
00001000
00000100
00000001
00000000
00000010
00001000
00010000
,
00000000
00001000
00000100
00000010
00000000
00000110
00000000
00001001
,
00000000
00010000
00001000
00011000
00000000
00000000
00000000
00000000
,
00000010
00000001
00000100
00001000
00000001
00000010
00001000
00010000
,
01000000
10000000
00010000
00100000
00000000
10000000
01000000
00010000
,
00001000
00000100
00001000
00010000
00000000
00100000
00010000
00001000
,
00000000
00000010
00001000
00010000
00000000
00001000
00000100
00000010
,
00010000
00001000
00010000
00100000
10000000
01000000
00100000
00010000
,
01000000
00100000
00010000
00001000
00000000
00000010
00000100
00000010
,
00000001
00000101
00000000
00001100
00000000
00010000
00001000
00011000
,
00000000
00000000
00000000
01100000
00000000
00000000
10010000
00000000
,
10000000
01000000
00010000
00001000
00000000
00000100
00000001
00000101
,
00000000
00000110
00000000
00001010
00000000
00001000
00000001
00000011
,
00000000
00000100
00001000
00000010
00000000
00000100
00001000
00010000
,
00000000
01000000
00010000
00001000
00000000
00010000
00100000
10000000
,
01000000
00010000
00001000
00000100
00000000
00000001
00000100
00000001
,
00001000
00000100
00000010
00001000
00000000
00010000
00100000
10000000
,
01000000
00100000
00010000
01000000
00000000
01100000
00000000
10100000
,
00000000
00110000
00000000
00011000
00000000
00001000
00000010
00000001
,
00000100
00000010
00001000
00000100
00000000
00000110
00000000
00000011
,
00000000
00001010
00000000
00011000
00000000
00010000
01000000
10000000
,
00100000
01000000
00010000
00100000
00000000
01100000
00000000
11000000
,
00000000
01010000
00000000
00011000
00000000
00001000
00000100
00001100
,
00000000
00010000
01000000
01010000
00000000
00001000
00000010
00001010
,
00000000
00000010
00000001
00000100
00000000
00001000
00000100
00000001
,
00000100
00000010
00001000
00000100
00000000
00000110
00000000
00000011
,
00000000
00001010
00000000
00011000
00000000
00010000
00100000
10000000
,
01000000
00100000
00010000
01000000
00000000
01100000
00000000
10100000
,
00000000
00110000
00000000
00011000
00000000
00001000
00000100
00000001
,
00000010
00000100
00001000
00000010
00000000
00000110
00000000
00000101
,
00000000
00000001
00000100
00001000
00010000
01000000
00000000
10100000
,
00000000
01010000
00000000
00010000
10000000
00010000
00000000
10010000
,
00000000
00000000
00000000
00000000
,
11000000
00000000
00000000
00110000
00000000
00000000
00000000
01100000
,
00000000
10000000
01000000
00010000
01000000
00100000
01000000
10000000
,
00010000
01000000
00001000
00010000
00000000
00001010
00000000
00000101
,
00000000
00000001
00000100
00001000
00010000
00000010
00001000
00000100
,
00000010
00001000
00010000
00100000
00000000
10000000
01000000
10000000
,
00010000
01000000
00100000
10000000
00000000
01000000
00010000
00001000
,
00000100
00000010
00000000
00000110
00000000
00000001
00001000
00000001
,
00000000
00000100
00001000
00010000
01000000
10000000
00100000
01000000
,
00010000
10000000
01000000
00010000
00000000
00001000
00010000
00100000
,
00000000
00110000
00000000
00011000
00000000
00001000
00000010
00000001
,
00000100
00001000
00000100
00000001
00000010
00001000
00010000
00100000
,
00000000
10000000
01000000
00010000
00000000
00011000
00000000
00110000
,
00000000
10100000
00000000
00100000
00010000
00001000
00000000
00001010
,
00000000
00000011
00000000
00000110
00000000
00001100
00000000
00001001
,
00000000
00000001
00000100
00001000
00000000
00011000
00000000
00110000
,
00000000
10000000
10000000
10000000
01000000
00010000
00000000
01010000
,
00000000
01000000
00100000
00010000
01000000
00100000
00010000
00001000
,
00000000
00000010
00001000
00010000
00100000
00010000
00001000
00010000
,
01000000
10000000
00100000
01000000
00000000
10000000
01000000
00010000
,
00100000
00010000
01000000
00100000
00010000
00001000
00010000
00001000
,
00000010
00000000
00000001
00000000
00000100
00000000
00000010
00000000
00001000
00000000
00000100
00000000
00000010
00000000
00000000
00000000
00000000
00000000
00000000
00000000
00000000
00000110
00000000
00000000
,
00000000
00000000
00000000
00011000
00000000
00000000
00000000
00000000
,
00010000
00100000
10000000
01000000
00000000
00010000
00001000
00010000
,
00000000
00100000
00010000
00001000
00000010
00000010
00000000
00000000
;

//---------------dance-double - Pandemonium X-CDP----------------
#NOTES:
     dance-double:
     Pandemonium X:
     Challenge:
     16:
     :
00000000
00000000
00000000
00000000
,
00000000
00000000
00000000
00000000
,
10000000
00000000
00000000
00100000
00000000
00000000
01000000
00000000
00000000
00010000
00000000
00000000
01000000
00000000
00000000
00010000
00000000
00000000
00100000
00000000
00000000
00001000
00000000
00000000
00010000
00000000
00000100
00000000
00001000
00000000
00000010
00000000
00000001
00000000
00000010
00000000
00001000
00000000
00000100
00000000
00000010
00000000
00000001
00000000
00000010
00000000
00000100
00000000
,
00001100
00000000
01010000
00000000
,
00000000
00000000
00000000
00000000
00000000
00000000
00000000
00000000
00000000
00000000
00000000
00000000
00000000
00000000
01000000
00100000
,
01000000
00000000
00000000
00000000
00000000
00000000
00010000
00000000
00000000
00100000
00000000
00100000
00001000
00000000
00010000
00000000
,
00001000
01000000
10000000
01000000
00001000
00010000
00000100
00001000
,
00001010
00000000
00001000
00000010
00000100
00000000
00000101
00000000
00000000
00000000
00000001
00000000
00000010
00000000
00000100
00000000
,
00000000
00000010
00000001
00000100
00000010
00010000
00001000
00100000
,
00001000
00000000
00001000
00100000
00010000
00000000
00110000
00000000
00000000
00000000
11000000
00000000
00000000
00000000
00110000
00000000
,
00000000
00000000
00100000
00010000
01000000
00010000
00100000
00000000
01000000
00000000
00100000
00000000
00001000
00000000
00010000
00000000
,
00000100
00000100
00010000
00000010
00000000
00000100
00000001
00001000
,
00000100
00000001
00000100
00001000
00000000
00000100
00010000
00001000
,
01000000
10000000
01000000
00010000
00000000
00100000
00001000
00010000
,
00000000
00000100
00000100
00000000
00000100
00000100
00000000
00000000
,
00000000
00000000
00000000
00000000
00000000
00000000
00010000
00000000
00000000
00000100
00000000
00000000
00001000
00000000
00000000
00000000
00000010
00000000
00000000
00000000
00000100
00000000
00000000
00000000
00000001
00000000
00000000
00000000
00000000
00000000
00000010
00000000
00000000
00000000
00000000
00000000
00000100
00000000
00000000
00000000
00000000
00000000
00001000
00000000
00000000
00000000
00000000
00000000
,
00000000
00001100
00000000
00011000
00000000
00001000
01000000
01100000
,
00000000
00000000
00000000
00000000
00000000
00000000
01000000
00000000
00000000
00100000
00000000
00000000
10000000
00000000
00000000
00000000
00010000
00000000
00000000
00000000
10000000
00000000
00000000
00000000
01000000
00000000
00000000
00000000
00000000
00000000
10000000
00000000
00000000
00000000
00000000
00000000
00010000
00000000
00000000
00000000
00000000
00000000
01000000
00000000
00000000
00000000
00000000
00000000
,
00000000
01010000
00000000
00010000
00100000
00101000
00000000
00000000
,
00000000
00000000
00000000
00000000
00000000
00000000
00001000
00000000
00000000
00100000
00000000
00000000
00010000
00000000
00000000
00000000
00100000
00000000
00000000
00000000
00010000
00000000
00000000
00000000
01000000
00000000
00000000
00000000
00000000
00000000
00001000
00000000
00000000
00000000
00000000
00000000
00010000
00000000
00000000
00000000
00000000
00000000
00010010
00000000
00000000
00000000
00000000
00000000
,
00000000
00001010
00000000
00001100
00000000
00000100
00010000
00011000
,
00000000
00000000
00000000
00000000
00000000
00000000
00001000
00000000
00000000
01000000
00000000
00000000
00100000
00000000
00000000
00000000
01000000
00000000
00000000
00000000
00010000
00000000
00000000
00000000
00100000
00000000
00000000
00000000
00000000
00000000
01000000
00000000
00000000
00000000
00000000
00000000
00100000
00000000
00000000
00000000
00000000
00000000
00010000
00000000
00000000
00000000
00000000
00000000
,
00000000
10000000
00100000
01100000
00000000
00000000
00000000
00000000
,
00100000
01000000
00001000
00010000
00000000
00010000
00000010
00000100
,
00000000
00000000
00000100
00000001
00001000
00000000
00000001
00000000
00000010
00000000
00000100
00000000
00001000
00000000
00000001
00000000
,
00000000
00000010
00000001
00000100
00000010
00001000
00000100
00010000
,
00001000
00000000
00000000
01000000
00000000
00000000
00100000
00000000
00000000
00010000
00000000
00000000
00000000
00000000
00000000
00001000
00000000
00000000
00100000
00000000
01000000
00000000
10000000
00000000
,
00010000
00000000
00000000
00000000
00000000
00000000
10000000
01000000
00100000
00000000
01000000
00000000
00100000
00000000
00001000
00000000
,
00010000
00000100
00001000
00000010
00000100
00000001
00000010
00000100
,
00000001
00000100
00001000
00000010
00000000
00010000
00000000
00001000
,
00011000
00000000
00000000
00001100
00000000
00000000
00000000
00000000
,
00000001
00000010
00000100
00000110
00000000
00001001
00000000
00000101
,
00000000
00000100
00000010
00001010
00000000
00000000
00000000
00001100
,
00000000
00000100
00010000
00010100
00000000
00011000
00000000
01001000
,
00000000
01000000
00100000
10100000
00000000
00000000
00000000
11000000
,
00000000
01000000
00100000
00110000
00000000
00011000
00000000
00001010
,
00000000
00000110
00000000
00000101
00000000
00000001
00001000
00001100
,
00000000
00000100
00010000
00011000
00000000
00011000
00000000
01010000
,
01000000
00000000
00100000
00000000
10000000
01000000
00000000
01000000
00100000
00010000
10000000
00000000
10010000
00000000
00000000
00000000
,
10000000
01000000
00010000
01000000
00100000
00001000
00010000
00000010
,
00000100
00000001
00000010
00001000
00000000
00000010
00000001
00000100
,
00000010
00001000
00000001
00000011
00000000
00000010
00000100
00001100
,
00000000
00000100
00010000
00011000
00000000
00010000
00000100
00010000
,
00000100
00010000
00001000
01000000
00100000
00010000
00100000
10000000
,
00010000
10000000
01000000
10000000
00000000
00100000
10000000
01000000
,
01100000
01100000
00000000
00101000
00000000
00001000
00010000
00010010
,
00000000
00000000
00000000
00001001
00000000
00000000
00000000
00000000
,
00000001
00000100
00001000
00001100
00000000
00000100
00001000
00011000
,
00000000
00001000
00000000
00101000
00000000
00000000
00000000
01100000
,
00000000
10000000
01000000
01010000
00000000
01000000
00100000
00110000
,
00000000
00010000
00100000
00101000
00000000
00001000
00100000
01000000
,
10000000
00000000
00010000
00000000
01000000
00000000
01001000
00000000
00000000
00000000
00011000
00000000
00010000
00000100
00001000
00000010
,
00000000
00000100
00000010
00001010
00000000
00001000
00000100
00000010
,
00000001
00000100
00001000
00010000
00000000
00001000
00000000
00010000
,
00000000
00001000
00000000
00011000
00000000
00001000
01000000
10000000
,
01000000
00010000
10000000
01000000
00000000
00010000
00000000
00001000
,
00000000
00000010
00000000
00000001
00000000
00000010
00000001
00000100
,
00000001
00000100
00001000
00010000
00000000
00001000
00000000
00100000
,
00000000
00001000
00000000
00100000
00000000
01000000
00100000
00110000
,
00000000
00100000
00001000
00011000
00000000
00010000
00000100
00001100
,
00000000
00000100
00000010
00000011
00000000
00000001
00001000
00001001
,
00000000
00000000
00000001
00000100
00000000
00000000
00000100
00000010
00000000
00000000
00000010
00001000
00000000
00000000
00001000
00000100
,
00000000
00000000
00000100
00010000
00000000
00000000
00010000
00001000
00000000
00000000
00001000
00000000
01000000
00000000
10000000
00000000
,
01000000
00000000
00100000
00000000
10000000
00000000
00010000
00100000
00000000
00000000
00100000
00001000
00000000
00000000
00001000
00010000
,
00000000
00000000
00010000
00000010
00000000
00000000
00000010
00000100
00000000
00000000
00000001
00000000
00000010
00000000
00000100
00000000
,
00001000
00000000
00000100
00010000
00000000
00000000
00010000
00001000
00000000
00000000
00001000
01000000
00000000
00000000
01000000
00100000
,
00000000
00100000
10000000
01000000
00100000
01000000
00000000
11000000
,
00000000
10000000
00000000
01000000
01100000
01100000
00000000
00110000
,
00000000
00100000
00001000
00010000
00000010
00010000
00001000
00100000
,
00110000
00010000
01000000
01100000
00000000
00100000
10000000
11000000
,
00000000
01000000
00100000
00101000
00001000
00010000
00001000
00000100
,
00000110
00000010
00001000
00001100
00000000
00000011
00000000
00000101
,
00000000
00000000
00000001
00000010
00000100
00001000
00000001
00000000
00000010
00000000
00001000
00000000
00010000
00000000
00000010
00000000
,
00000100
00000001
00001000
00001001
00000000
00000001
00000010
00001000
,
00000010
00000100
00001000
00011000
00000000
00010000
00001000
01000000
,
00100000
10000000
01000000
01100000
00000000
01000000
00100000
00101000
,
00000000
00001000
00100000
00001000
00010000
00000010
00001000
00000100
,
00010000
00000000
00000000
00000000
00010000
00000000
00001000
00000000
00000000
00011000
00000000
00000000
00000000
00000000
00000000
00001000
00000000
00000000
01000000
00000000
00000000
01100000
00000000
00000000
,
00000000
10010000
00000000
01010000
00000000
01010000
00000000
10100000
,
00000000
01010000
00000000
00110000
00000000
00101000
00000000
00011000
,
00000000
00010000
00000100
00001100
00000000
00011000
00000000
00110000
,
00000000
00001010
00000000
00110000
00110000
00110000
00000000
00001010
,
00000000
00110000
00000000
00001010
00000000
00110000
00000000
00001010
,
00000000
00011000
00000000
00011000
00000000
00110000
00000000
00001010
,
00000000
00011000
00001000
00010000
00000010
00010010
00000000
00001001
,
00000000
00000000
00000000
00001000
00000000
00000000
00000010
00000000
00000100
00000000
00000001
00000000
00000010
00000000
00000000
00000100
00000000
00000000
00000010
00000000
00000000
00000001
00000000
00000000
,
00000000
00000000
00000100
00000000
00000010
00000000
00010000
00000000
00001000
00000000
00100000
00000000
01000000
10000000
00010000
00000000
,
00000000
00000000
01000000
00000000
00010000
00000000
00100000
00000000
01000000
00000000
10000000
00000000
00010000
10000000
00010000
00100000
,
01000000
10000000
01000000
00100000
00010000
00100000
00001000
00010000
00001000
00000000
00011000
00000000
,
00010000
00000100
00001000
00000010
00000000
00001010
00000000
00000010
00001000
00000100
00000000
00010100
,
00000000
00000100
00010000
00001000
00000000
00101000
00000000
00001000
00100000
01000000
10000000
00010000
,
01000000
00100000
10000000
00010000
00000000
00100000
00001000
00010000
,
00000000
00000010
00010000
00001000
00011000
00011000
00000000
00000000
;
