#TITLE:MINDBREAK;
#ARTIST:xRGTMx;
#ARTISTTRANSLIT:RGTM;
#BANNER:MINDBREAK.png;
#BACKGROUND:MINDBREAK-bg.png;
#MUSIC:MINDBREAK.ogg;
#OFFSET:1.558;
#SAMPLESTART:38.963;
#SAMPLELENGTH:15;
#BPMS:0=154;

//---------------dance-single - Marten-bSP----------------
#NOTES:
     dance-single:
     Marten:
     Beginner:
     5:
     :
0000
0000
0000
0000
,
0000
0000
0000
0000
,
0000
0000
0000
0000
,
0000
0000
0000
0000
,
0000
0000
0000
0000
,
0000
0000
0000
0000
,
1000
0000
0000
0000
,
0001
0000
0000
0000
,
0100
0000
0100
0000
,
0020
0000
0000
0030
,
1000
0000
1000
0000
,
0001
0000
0001
0000
,
1000
0000
0001
0000
,
1000
0000
0001
0000
,
1000
1000
1000
1000
,
0001
0001
0001
0001
,
0010
0000
0100
0000
,
0220
0000
0330
0000
,
1000
1000
1000
0000
,
0001
0001
0001
0000
,
0100
0100
0100
0000
,
0020
0000
0030
0000
,
1000
0001
1000
0000
,
0001
1000
0001
0000
,
0100
0100
0010
0010
,
0220
0000
0330
0000
,
0001
1000
0001
0001
,
1000
0001
1000
1000
,
0001
1000
0001
0001
,
0100
0000
0100
0000
,
0001
1000
0001
0001
,
1000
0001
1000
1000
,
0100
0000
0010
0000
,
2002
0000
3003
0001
,
0001
0000
0100
0000
,
0010
0000
1000
0000
,
0100
0100
1000
0000
,
1000
1000
0100
0000
,
1000
0000
0100
0000
,
0010
0000
0001
0000
,
0100
0100
0001
0000
,
0001
0001
0100
0100
,
0220
0000
0000
0000
,
0000
0000
0000
0000
,
0000
0000
0000
0000
,
0000
0000
0330
0000
,
0001
0000
0000
0000
,
1000
0000
0000
0000
,
0100
0000
0100
0000
,
0020
0000
0000
0030
,
0001
0000
0001
0000
,
1000
0000
1000
0000
,
0010
0000
0100
0000
,
0010
0000
0100
0000
,
0001
0001
0001
0001
,
1000
1000
1000
1000
,
0100
0000
0010
0000
,
0220
0000
0330
0000
,
1000
1000
1000
0001
,
1000
0000
1000
0000
,
0001
0001
0001
1000
,
0001
0000
0001
0000
,
0100
0100
0100
0010
,
0100
0000
0100
0000
,
0010
0010
0010
0100
,
0010
0000
0010
0000
,
0000
1001
0000
1001
,
0001
0000
1000
0000
,
0000
1001
0000
1001
,
1000
0000
0001
0000
,
0000
0110
0000
0110
,
0010
0000
0100
0000
,
0000
0110
0000
0110
,
0100
0000
0010
0010
,
0100
0000
0000
0000
;

//---------------dance-single - Marten-BSP----------------
#NOTES:
     dance-single:
     Marten:
     Easy:
     10:
     :
0000
0000
0000
0000
,
0000
0000
0000
0000
,
0000
0000
0000
0000
,
0000
0000
0000
0000
,
0000
0000
0000
0000
,
0000
0000
0000
0000
,
2000
0000
0000
3002
0000
0000
0013
0000
,
0002
0000
0000
2003
0000
0000
3010
0000
,
0200
0000
0000
0320
0000
0000
1030
0000
,
1002
0010
1000
0103
,
0001
0001
1000
1000
,
0001
0010
1000
0100
,
0001
0001
1000
1000
,
0001
0100
1000
0010
,
0001
0010
0001
0000
1000
0010
1000
0000
,
0001
0100
0001
0000
1000
0100
1000
0000
,
0001
0000
1000
0000
0001
1000
0001
1000
,
0002
0000
0000
1003
,
1001
1001
1010
1010
,
0011
0000
0011
0000
0110
0000
0010
0100
,
0010
0110
1100
1100
,
1000
0000
0000
1000
0000
0000
2000
0000
0000
0000
0000
0000
3010
0000
0100
0000
,
0010
0110
0101
0101
,
1100
0000
1100
0000
1001
0000
1000
0001
,
1000
1001
1010
0011
,
0001
0000
0000
0001
0000
0000
0001
0000
0000
0001
0000
0000
0002
0000
0000
0000
,
1003
0000
0100
0000
1000
0010
1000
0000
,
0001
0000
0100
0000
0001
0010
0001
0000
,
1000
0000
0100
0000
0010
0001
0010
0000
,
0200
1300
2000
3010
,
0100
0000
0001
0000
1000
0001
1000
0000
,
0100
0000
0010
0000
0001
1000
0001
0000
,
1000
0000
0010
0000
0100
0010
0100
0000
,
0002
0000
0000
0000
1003
0000
0001
0001
,
1000
0100
0021
0130
,
0000
0100
0100
0000
1100
0000
1000
0000
,
0100
1000
0100
0000
0010
0100
0010
0000
,
0001
0010
0001
0000
1000
0001
1000
0000
,
0001
0100
1020
0130
,
0000
0100
0100
0000
0101
0000
0001
0000
,
0100
0001
0100
0000
0010
0100
0010
0000
,
1000
0000
0010
0000
1000
0000
0000
0000
0001
0000
0000
1000
0000
0000
0001
0000
,
2002
0000
0000
0000
,
0000
0000
0000
0000
,
0000
0000
0000
0000
,
0000
0000
0000
3003
,
2000
0000
0000
3200
0000
0000
0310
0000
,
0002
0000
0000
0203
0000
0000
0310
0000
,
2000
0000
0000
3002
0000
0000
0013
0000
,
0002
0000
0000
2003
0000
0000
3010
0000
,
0110
0010
1000
1000
,
0001
0001
0010
0010
,
1000
0100
0001
0010
,
2000
0100
0001
3010
,
1000
0010
1000
0000
0001
0010
0001
0000
,
1000
0100
1000
0000
0001
0100
0001
0000
,
1000
0001
1000
0001
1000
0001
1000
0000
,
0001
0100
0200
0000
0010
0000
0310
0000
,
0110
1010
0011
1001
,
0001
0100
0001
0000
1000
0100
1000
0000
,
1010
0011
1001
0110
,
1000
0010
1000
0000
0001
0100
0001
0000
,
0101
1100
0110
1001
,
1000
0010
1000
0000
0001
0010
0001
0000
,
1000
0010
0001
0100
,
2000
0000
0000
3001
,
0000
1000
0100
1000
0000
0001
0001
0000
,
0100
0001
1000
0001
,
0000
0001
0100
0001
0000
1000
1000
0000
,
0001
0010
0100
1000
,
0000
0010
0100
0010
0000
0100
0100
0000
,
0001
1000
0100
0010
,
0000
0100
0010
0100
0000
0010
0010
0000
,
0001
0000
0000
0001
0000
0000
0001
0000
1000
0000
0000
1000
0000
0000
1000
0000
,
0100
0000
0000
0000
;

//---------------dance-single - Marten-DSP----------------
#NOTES:
     dance-single:
     Marten:
     Medium:
     13:
     :
0000
0000
0000
0000
,
0000
0000
0000
0000
,
0000
0000
0000
0000
,
0000
0000
0000
0000
,
0000
0000
0000
0000
,
0000
0000
0000
0000
,
1000
0000
0000
0001
0000
0000
0010
0000
0000
0000
0100
0000
0010
0000
0010
0000
,
0001
0000
0000
0100
0000
0000
0010
0000
0000
0000
1000
0000
0010
0000
0010
0000
,
1000
0000
0000
0100
0000
0000
0001
0000
0000
0000
0100
0000
1000
0000
0001
0000
,
0021
0000
0100
0000
1000
0000
0031
0100
,
0101
0000
0000
0100
0000
0000
0010
0000
1010
0000
0000
1000
0000
0000
0100
0000
,
1100
0000
0000
0100
0000
0000
0010
0000
0001
0000
0100
0000
0010
0000
0100
0000
,
0101
0000
0000
0001
0000
0000
0010
0000
1100
0000
0000
1000
0000
0000
0010
0000
,
0101
0000
0000
0001
0000
0000
1000
0000
0010
1000
0000
0001
0100
0000
0001
0000
,
1000
0100
0010
0001
0100
0010
1000
0100
,
0001
0100
1000
0010
0001
0010
1000
0001
,
1000
0010
1000
0000
0010
0100
0010
0000
0100
0001
0100
0000
0001
1000
0001
0000
,
2002
0000
0000
0000
3003
0000
0010
0100
,
1100
1100
0101
0101
,
1010
0000
0011
0000
1010
0000
0010
0100
,
0110
0101
1001
1100
,
0011
0000
0000
0110
0000
0000
1100
0000
0000
0000
0000
0000
1000
0000
0010
0100
,
0010
0000
0000
1000
0100
0000
1000
0000
0001
0000
0000
0010
0001
0000
0100
0000
,
0001
0000
0000
0100
0010
0000
0100
0000
0001
0000
0000
0010
0100
0000
1000
0000
,
0001
0000
0000
0100
0010
0000
1000
0000
0001
0000
0000
0010
0100
0000
1000
0000
,
0001
0000
0000
0101
0000
0000
1100
0000
0000
1010
0000
0000
0010
0100
0010
0100
,
0020
0000
0000
1030
0100
0000
1000
0000
0001
0000
0010
0000
0100
0000
0100
0000
,
0020
0000
0000
0031
0100
0000
0010
0000
1000
0000
0010
0000
0100
0000
0100
0000
,
0002
0000
0000
1003
0100
0000
1000
0000
0010
0000
0100
0000
0010
0000
0010
0000
,
2000
0000
0000
3100
1000
0000
1000
0000
0002
0000
0000
0103
0001
0000
0001
0000
,
0020
0000
0000
0130
0010
0000
0001
0000
1000
0000
0010
0000
0100
0000
0100
0000
,
0002
0000
0000
1003
0100
0000
0010
0000
0001
0000
0100
0000
0010
0000
0010
0000
,
2000
0000
0000
3001
0010
0000
0100
0000
0010
0000
0001
0000
0100
0000
0100
0000
,
0020
0000
0000
2030
0000
0000
3002
0000
0000
0000
0013
0000
1000
0000
0010
0000
,
0012
0000
0000
0000
0103
0000
0010
0000
1000
0010
1000
0000
0010
0000
0100
0000
,
0010
1000
0010
0000
0100
0000
0010
0000
1000
0010
1000
0000
0100
0000
0010
0000
,
0001
0100
0100
1000
0100
0001
0010
0010
,
0010
1000
0010
0001
1000
0010
0100
0010
,
2010
0000
0000
0000
3100
0000
0010
0000
0001
0010
0001
0000
0010
0000
0100
0000
,
0010
0001
0010
0000
0100
0000
0010
0000
0001
0010
0001
0000
0100
0000
0010
0000
,
1000
0100
0100
0001
0100
1000
0010
0010
,
0010
0000
0001
0000
0010
0000
1000
0000
0001
0000
1000
0010
0000
0100
0001
0000
,
2002
0000
0000
0000
,
0000
0000
0000
0000
,
0000
0000
0000
0000
,
0000
0000
0000
3003
,
0001
0000
0100
0001
0000
0000
0010
0000
0000
0000
0100
0000
0010
0000
0001
1000
,
0001
0000
1000
0100
0000
0000
1000
0000
0000
0010
0100
0000
0100
0000
0001
1000
,
0001
0000
0100
0001
0000
0000
0010
0000
0000
0100
0010
0000
0010
0000
0001
1000
,
0001
0000
0000
0010
0000
0000
0100
0000
1000
0000
0000
0010
0000
0000
0100
0000
,
0101
0000
0000
0001
0100
0000
0010
0000
0100
0000
0000
0001
0010
0000
0100
0000
,
1000
0000
0000
1000
0100
0000
0010
0000
0100
0000
0000
1000
0010
0000
0100
0000
,
0001
0000
0000
1000
0010
0000
0100
0000
0001
0000
0000
0001
0010
0000
0100
0000
,
2000
0010
0001
3100
,
0010
0001
0100
0001
0010
0001
0100
0001
,
0010
0100
1000
0010
1000
0100
1000
0010
,
1000
0100
1000
0000
0001
0100
0001
0000
1000
0010
1000
0000
0001
0010
0001
0000
,
0100
0010
0210
0000
1000
0000
0301
0000
,
1001
0000
0000
0001
0100
0000
0001
0000
0010
0000
0100
0000
1000
0000
0001
0000
,
1000
0000
0100
1000
0000
0100
1000
0000
0010
0000
0100
0010
0000
0100
0010
0000
,
0100
0001
1000
0001
0010
1000
0010
0001
,
1000
0000
0010
0100
0000
0001
0100
0000
0001
0000
0010
0100
0000
1000
0100
0000
,
0010
0001
0100
0001
0010
0100
1000
0010
,
0100
0000
0001
0010
0000
0001
0010
0000
0100
0000
1000
0010
0000
1000
0010
0000
,
0100
0001
1000
0100
0001
0100
1000
0010
,
0100
0000
0001
1000
0000
0001
0010
0000
0100
0000
1000
0001
0000
1000
0010
0000
,
0200
0000
0000
0301
0010
0001
0020
0000
0000
0000
0130
1000
0100
0000
1000
0000
,
1001
0000
0000
0001
0100
0000
0010
0000
1000
0000
0100
0010
0000
0100
1000
0000
,
0002
0000
0103
0010
0100
0010
0200
0000
0000
0301
1000
0001
1000
0000
0100
0000
,
0010
0000
0001
0100
0000
0001
0100
0000
0010
0000
1000
0100
0000
1000
0100
0000
,
0020
0000
0031
0100
0001
0100
0002
0000
0000
0000
1003
0010
1000
0000
0100
0000
,
1000
0000
0010
0100
0000
0001
0100
0000
0001
0000
0010
0100
0000
1000
0100
0000
,
0020
0000
0000
0130
1000
0100
2000
0000
0000
0000
3001
0010
0001
0000
1000
0000
,
0010
0000
1000
0100
0000
1000
0010
0000
0100
0000
0001
0010
0000
0001
0100
0001
,
0100
0000
0000
0000
;

//---------------dance-single - Marten-ESP----------------
#NOTES:
     dance-single:
     Marten:
     Hard:
     17:
     :
0000
0000
0000
0000
,
0000
0000
0000
0000
,
0000
0000
0000
0000
,
0000
0000
0000
0000
,
0000
0000
0000
0000
,
0000
0000
0000
0000
,
0001
0000
1000
0100
1000
0000
0010
0000
0000
0100
0010
0000
1000
0000
0001
0010
,
0100
0000
0010
0001
0010
0000
0100
0000
0000
1000
0100
0000
1000
0000
0010
0100
,
0001
0000
0010
0100
0010
0000
0001
0000
0000
1000
0001
0000
0100
0000
0010
1000
,
0001
0000
0000
0000
0000
0000
0010
0000
0000
1000
0000
0000
0000
0000
0000
0010
0000
0000
0100
0000
0000
0000
0000
0000
1000
0000
0000
0000
0000
0000
0010
0000
0100
0000
0010
0000
0100
0000
0000
0000
0000
0000
0001
0000
0000
0000
0000
0000
,
1001
0000
0000
0100
1000
0000
0010
0000
1010
0000
0000
0100
0001
0000
0010
0000
,
0011
0000
0000
0000
0000
0000
0000
0000
0000
0010
0000
0000
0100
0000
0000
0000
0000
0000
0010
0000
0000
0000
0000
0000
0100
0000
0000
0010
0000
0000
0000
0000
0000
0100
0000
0000
1000
0000
0000
0000
0000
0000
0001
0000
1000
0000
0001
0000
,
1000
0000
0000
0010
0100
0000
0001
0000
0011
0000
0000
0010
0100
0000
1000
0000
,
1010
0000
0000
0100
0001
0000
1000
0000
0001
0010
0001
0010
0100
1000
0001
0100
,
0010
1000
0100
1000
0010
1000
0100
0010
,
0001
0100
0001
0010
0001
0100
0010
1000
,
0001
0010
0100
1000
0010
0001
0010
0100
0001
1000
0100
0010
0001
1000
0010
0100
,
0020
0000
0000
0000
0000
0000
0000
0000
1030
0000
0001
0000
1001
0000
1000
0100
,
2000
0000
3001
0100
0002
0000
0013
0100
0020
0000
0031
0010
0002
0000
1003
0010
,
2000
0000
3100
1000
0200
0000
0310
0001
0020
0000
0130
1000
0001
0000
0101
0000
,
1002
0000
1003
0100
2000
0000
3100
0001
0200
0000
0310
0001
0020
0000
0130
0010
,
0100
0000
0000
0000
0000
0000
0000
0000
0000
1100
0000
0000
0000
0000
0000
0000
0000
0000
1001
0000
0000
0000
0000
0000
0000
0000
0000
0001
0000
0000
0100
0000
0000
0000
0000
0000
0100
0000
0000
0000
0000
0000
0010
0000
0100
0000
0010
0000
,
0200
0000
0301
0010
0200
0000
1300
0010
0200
0000
0301
0100
0020
0000
1030
0100
,
0020
0000
1030
0010
0002
0000
1003
0010
0002
0000
0013
0100
0001
0000
0011
0000
,
2001
0000
3001
0010
2000
0000
3001
0100
2000
0000
3010
1000
0200
0000
0310
0001
,
0100
0000
0001
0100
0000
1000
0100
0000
0001
0010
0000
1000
0010
0001
1000
0010
,
0200
0000
0000
0301
1000
0000
0200
0000
1000
0000
0310
0000
0011
0000
0001
0000
,
2001
0000
0000
3010
0100
0000
0002
0000
0010
0000
1003
0000
1100
0000
0010
0000
,
0201
0000
0000
0301
0010
0000
0200
0000
1000
0000
0310
0000
0110
0000
0100
0000
,
2100
0000
0000
3001
0100
0000
0010
0000
0210
0000
0000
0301
1000
0000
0100
0010
,
0002
0000
0000
0013
0100
0000
2000
0000
0010
0000
3001
0000
0100
0000
0001
0000
,
2001
0000
0000
3010
0100
0000
2000
0000
0001
0000
3100
0000
0010
0000
1000
0000
,
1002
0000
0000
0013
0100
0000
0020
0000
1000
0000
0031
0000
1001
0000
0010
0000
,
0210
0000
0000
0000
0000
0000
0000
0000
0000
0001
0000
0000
0000
0000
0000
0000
0000
0000
1300
0000
0000
0000
0000
0000
0100
0000
0000
0000
0000
0000
0001
0000
1000
0000
0001
0000
1000
0000
0000
0000
0000
0000
1001
0000
0000
0000
0000
0000
,
0120
0000
0000
0000
1030
0100
0010
0001
0010
0001
0100
0001
0010
0001
0100
0001
,
0010
0001
0100
0001
0010
0001
0100
0001
0010
0001
0100
0001
0010
0001
0100
0001
,
0010
0100
1000
0000
0010
0000
0100
0000
0010
0100
0001
0000
1000
0100
0010
0000
,
1000
0000
0010
0000
0001
1000
0010
0000
0100
0010
0100
0000
0001
0000
0100
0000
,
2001
0000
0000
0000
3001
0100
0010
1000
0010
1000
0100
1000
0010
1000
0100
1000
,
0010
0000
0000
1000
0000
0000
0100
0000
0000
1000
0000
0000
0100
0000
1000
0000
0100
0000
1000
0000
0100
0000
1000
0000
0100
0000
0000
1000
0000
0000
0100
0000
0000
1000
0000
0000
0010
0000
0000
1000
0000
0000
0100
0000
0000
1000
0000
0000
,
0010
0100
0001
0000
0010
0000
0100
0000
0010
0100
1000
0000
0001
0100
0010
0000
,
0100
0000
0001
0000
0010
1000
0010
0000
0001
0000
0100
1000
0000
0100
0001
0000
,
2002
0000
0000
0000
,
0000
0000
0000
0000
,
0000
0000
0000
0000
,
0000
0000
0000
3003
,
1000
0000
0000
0000
0000
0000
0001
0000
0000
0100
0000
0000
0001
0000
0000
0000
0000
0000
0010
0000
0000
0000
0000
0000
0000
0000
0000
0100
0000
0000
0010
0000
0000
0000
0000
0000
0010
0000
0000
0000
0000
0000
0001
0000
1000
0000
0001
0000
,
1000
0000
0000
0000
0000
0000
0010
0000
0000
0100
0000
0000
0000
0000
0000
0001
0000
0000
0100
0000
0000
0001
0000
0000
0000
0000
0000
1000
0000
0000
0000
0000
0000
0100
0000
0000
1000
0000
0000
0000
0000
0000
0010
0000
0100
0000
0010
0000
,
0100
0000
0000
0000
0000
0000
0001
0000
0000
0010
0000
0000
0000
0000
0000
0000
0000
0000
0100
0000
0000
0000
0000
0000
0000
0000
0000
0010
0000
0000
0100
0000
0000
0000
0000
0000
0100
0000
0000
0000
0000
0000
1000
0000
0001
0000
1000
0000
,
0001
0000
1000
0010
0000
0100
0010
1000
0000
0001
0000
1000
0001
0000
0010
0001
,
0100
0000
0000
0001
0010
0000
0100
0000
1100
0000
0000
1000
0010
0000
0100
0000
,
0101
0000
0000
0001
1000
0000
0100
0000
1000
0010
0000
0001
0010
0000
1000
0000
,
1001
0000
0000
0001
0010
0000
0001
0000
0101
0000
0000
1000
0010
0000
1000
0000
,
1200
0000
0000
0000
1000
0000
0000
0000
0001
0000
0000
0000
1300
0100
0010
0001
,
1000
0000
1000
0100
0010
0000
0010
0001
1000
0000
1000
0001
0100
0000
0100
0010
,
1000
0000
1000
0100
0001
0000
0001
0100
1000
0000
1000
0010
0001
0000
0001
0010
,
1000
0000
0000
0010
0000
0000
0100
0000
0000
0001
0000
0000
1000
0000
0000
0100
0000
0000
0010
0000
0000
0001
0000
0000
0100
0000
0000
0010
0000
0000
1000
0000
0000
0001
0000
0000
1000
0000
0001
0000
1000
0000
0001
0000
1000
0000
0001
0000
,
1000
0010
0210
0000
1000
0000
0301
0000
,
1001
0000
0001
0100
0010
0100
0001
0000
1000
0100
0010
0100
1000
0000
0010
0000
,
1000
0000
0001
0100
0000
0001
0100
0000
0010
0000
1000
0100
0000
1000
0100
0000
,
0110
0000
0010
0001
1000
0001
0010
0000
0100
1000
0001
1000
0100
1000
0010
0100
,
0001
0000
0100
0010
0000
1000
0010
0000
1000
0000
0100
0001
0000
0100
1000
0001
,
1000
0000
1000
0010
0100
0010
1000
0000
0001
0010
0100
0010
0001
0000
0100
0000
,
0010
0000
1000
0001
0000
1000
0001
1000
0010
0000
0100
0010
0000
0100
0010
0000
,
1010
0000
0010
0100
0001
1000
0001
0000
0010
0000
0100
0001
0100
0010
0001
1000
,
0010
0000
1000
0001
0000
1000
0100
0010
0001
0000
0001
1000
0000
0001
0100
0010
,
2000
0000
0000
0000
0000
0000
0000
0000
0000
3100
0000
0000
0010
0000
0000
0100
0000
0000
2100
0000
0000
0000
0000
0000
0000
0000
0000
0000
0000
0000
3010
0000
0000
0100
0000
0000
0002
0000
0000
0000
0000
0000
0103
0000
0001
0000
0100
0000
,
0001
0000
0010
1000
0000
0010
0100
0000
1000
0000
0010
0001
0000
0010
0100
0000
,
0002
0000
0013
0001
1000
0001
2001
0000
0000
3010
1000
0100
1000
0010
0001
0010
,
1000
0000
0001
0100
0000
0010
0100
0000
1000
0000
0100
0010
0000
0100
0001
0010
,
0100
0000
0000
0000
0000
0000
1000
0000
0001
0000
1000
0000
0001
0000
0000
0100
0000
0000
0020
0000
0000
0000
0000
0000
0000
0000
0000
0000
0000
0000
1030
0000
0000
0010
0000
0000
1010
0000
0000
0000
0000
0000
1000
0000
0001
0000
1000
0000
,
0001
0000
0000
0000
0000
0000
0000
0000
0000
0011
0000
0000
0000
0000
0000
0000
0000
0000
1100
0000
0000
0000
0000
0000
1001
0000
0000
0000
0000
0000
0000
0000
0000
1010
0000
0000
0000
0000
0000
0000
0000
0000
0100
0000
0010
0000
0100
0000
,
0010
0000
0000
0000
0000
0000
1000
0000
0001
0000
1000
0000
0001
0000
0000
0010
0000
0000
0200
0000
0000
0000
0000
0000
0000
0000
0000
0000
0000
0000
1300
0000
0001
0000
1000
0000
0001
0000
0000
0100
0000
0000
0010
0000
0000
1000
0000
0000
,
0002
0000
0013
2000
0000
3010
0001
1000
0020
0000
0031
0020
0000
1030
0100
0001
,
0100
0000
0000
0000
;

//---------------dance-double - Talkion-BDP----------------
#NOTES:
     dance-double:
     Talkion:
     Easy:
     10:
     :
00000000
00000000
00000000
00000000
,
00000000
00000000
00000000
00000000
,
00000000
00000000
00000000
00000000
,
00000000
00000000
00000000
00000000
,
00000000
00000000
00000000
00000000
,
00000000
00000000
00000000
00000000
,
00002000
00000000
00000000
02003000
00000000
00000000
03100000
00000000
,
20000000
00000000
00000000
30020000
00000000
00000000
00130000
00000000
,
00002000
00000000
00000000
00003020
00000000
00000000
00000031
00000000
,
00002000
00000000
00000000
00003200
00000000
00000000
00010300
00000000
,
00001000
00001000
01000000
01000000
,
00100000
00100000
10000000
10000000
,
00010000
00010000
00100000
00100000
,
00001000
00001000
00010000
00010000
,
00000010
00000100
00000001
00000000
00001000
00000100
00000010
00000000
,
00000001
00000010
00001000
00000000
00010000
01000000
10000000
00000000
,
00010000
10000000
00010000
10000000
00010000
10000000
00010000
10000000
,
00200000
00000000
00000000
01300000
,
00001000
00010000
00000100
00000010
,
00000001
00000000
00001000
00000000
00000100
00000000
00010000
00010000
,
00001000
01000000
00100000
10000000
,
00010000
00000000
00000000
00010000
00000000
00000000
00020000
00000000
00000000
00000000
00000000
00000000
00130000
00000000
00100000
00000000
,
00001000
00011000
00010000
00010100
,
00000100
00000000
00000110
00000000
00000010
00000000
00000001
00000001
,
00001000
00001100
00000100
00010100
,
00010000
00000000
00000000
00001000
00000000
00000000
00010000
00000000
00000000
00001000
00000000
00000000
01000000
00000000
01000000
00000000
,
00100000
00000000
10000000
00000000
00010000
10000000
01000000
00100000
,
00001000
00000000
00010000
00000000
00000100
00000010
00000001
00001000
,
00000010
00000000
00000100
00000000
00000010
00010000
00001000
00100000
,
00010000
00000000
20000000
00000000
30100000
00000000
00010000
00010000
,
00100000
00000000
10000000
00000000
00010000
00100000
00001000
00010000
,
00000010
00000000
00000100
00000000
00000010
00001000
00000001
00000010
,
00000100
00000000
00010000
00000000
00001000
01000000
00100000
10000000
,
00020000
00000000
00000000
00000000
00130000
00001000
00001000
00010000
,
00000020
00000000
00000130
00001000
02000000
00000000
00000000
00000000
,
00000000
00000000
00000000
00000000
,
03100000
00000000
01000000
01000000
00010000
00000000
00000100
00000000
,
00000010
00000010
00001000
00000000
00000001
00000010
00000100
00000000
,
00010000
00000000
01000000
00001000
00000200
00000000
00000000
00000000
,
00000000
00000001
00002300
00000000
,
00003010
00000000
00010000
00010000
00001000
00000000
00100000
00000000
,
00010000
00000000
00010000
00000000
10000000
00000000
00000000
00000000
00100000
00000000
00000000
00100000
00000000
00000000
00100000
00000000
,
02000000
00000000
00000000
00000000
,
00000000
00000000
00000000
00000000
,
00000000
00000000
00000000
00000000
,
00000000
00000000
00000000
00000000
,
03002000
00000000
00000000
00023000
00000000
00000000
00030100
00000000
,
00000020
00000000
00000000
00000032
00000000
00000000
00001003
00000000
,
00000200
00000000
00000000
00020300
00000000
00000000
00031000
00000000
,
02000000
00000000
00000000
03200000
00000000
00000000
10300000
00000000
,
00010000
00010000
00100000
00100000
,
00001000
00001000
00010000
00010000
,
00000010
00000010
00000100
00000100
,
00000001
00000001
00001000
00001000
,
00000100
00010000
00001000
00000000
01000000
00001000
00010000
00000000
,
00000010
00010000
00001000
00000000
00100000
00001000
00010000
00000000
,
01000000
00100000
01000000
00100000
01000000
00100000
01000000
00100000
,
00002000
00000000
00000000
00003000
,
00011000
00000000
00010100
00000000
00000100
00000010
00000001
00000000
,
00001001
00000000
00000101
00000000
00000100
00000010
00010000
00000000
,
00010100
00000000
00011000
00000000
00001000
01000000
00100000
00000000
,
10100000
00000000
10010000
00000000
00100000
00001000
00010000
00010000
,
00000010
00000000
00000110
00000000
00000100
00000001
00001000
00000000
,
00001100
00000000
00010100
00000000
00010000
00001000
01000000
00000000
,
01010000
00000000
10010000
00000000
10000000
01000000
00010000
00000000
,
00021000
00000000
00000000
00030010
,
00000000
00000000
00000110
00000000
00000000
00001000
00001001
00000000
,
00000001
00000010
00000100
00010000
00001000
00100000
01000000
10000000
,
00000000
00000000
10010000
00000000
00000000
01000000
01010000
00000000
,
01000000
00001000
00010000
00000100
00001000
00000001
00000100
00000010
,
00010000
00000000
00011000
00000000
00000000
01000000
01100000
00000000
,
00010000
10000000
00100000
01000000
00001000
00010000
00000010
00000100
,
00000001
00000000
00001001
00000000
00000000
00001000
00001100
00000000
,
00010000
00000000
00000000
00001000
00000000
00000000
00100000
00000000
00010000
00000000
00000000
10000000
00000000
00000000
00100000
00000000
,
01000000
00000000
00000000
00000000
;

//---------------dance-double - Talkion-DDP----------------
#NOTES:
     dance-double:
     Talkion:
     Medium:
     14:
     :
00000000
00000000
00000000
00000000
,
00000000
00000000
00000000
00000000
,
00000000
00000000
00000000
00000000
,
00000000
00000000
00000000
00000000
,
00000000
00000000
00000000
00000000
,
00000000
00000000
00000000
00000000
,
00010000
00000000
00000000
00000100
00000000
00000000
00000010
00000000
00000000
00000001
00000000
00000000
00001000
00000000
00000002
00000000
,
00000103
00000000
00000000
00000010
00000000
00000000
00010000
00000000
00000000
00001000
00000000
00000000
00100000
00000000
00020000
00000000
,
10030000
00000000
00000000
01000000
00000000
00000000
00100000
00000000
00000000
00001000
00000000
00000000
00010000
00000000
00000200
00000000
,
00001300
00000000
00000000
00000001
00000000
00000000
00000100
00000000
00000000
00000010
00020000
00000000
00031000
00000000
00100000
00000000
,
00110000
00110000
10010000
10010000
,
10100000
00000000
10100000
00000000
01100000
00000000
01100000
02000000
,
03001000
00000000
00011000
00000000
00010100
00000000
00000110
00000010
,
00000001
00001000
00000001
00000100
00000010
00010000
00011000
00000000
,
00001000
00100000
00010000
00100000
00001000
01000000
00100000
01000000
,
00001000
00010000
00000100
00010000
00000010
00000100
00000010
00001000
,
00000001
00000010
00000001
00000000
00000010
00000100
00000010
00000000
00000100
00010000
00000100
00000000
00010000
00001000
00010000
00000000
,
00002000
00100000
01000000
00103000
,
00110000
10100000
00110000
00011000
,
00001010
00000000
00000011
00000000
00001001
00000000
00000101
00000100
,
00001010
00000011
00001010
00011000
,
00101000
00000000
00000000
01010000
00000000
00000000
01200000
00000000
00000000
00000000
00000000
00000000
10300000
00000000
00020000
00000000
,
00130000
00000000
00000000
00001000
00010000
00000000
00000010
00000000
00010000
00000000
00000000
00001000
00100000
00000000
00010000
00000000
,
01000000
00000000
00000000
00100000
01000000
00000000
00001000
00000000
00010000
00000000
00000000
00000100
00000010
00000000
00000100
00000000
,
00010000
00000000
00000000
00001000
01000000
00000000
00100000
00000000
10000000
00000000
00000000
00010000
00100000
00000000
00001000
00000000
,
00010000
00000000
00000000
00010100
00000000
00000000
00000110
00000000
00000000
00000011
00000000
00000000
00000001
00001000
00000010
00001000
,
00000001
00000000
00000000
00000100
00000010
00000000
00010000
00000000
00002000
00000000
00100000
00000000
02003000
00000000
00100000
00000000
,
03010000
00000000
00000000
10000000
01000000
00000000
00100000
00000000
00002000
00000000
01000000
00000000
00023000
00000000
00000100
00000000
,
00031000
00000000
00000000
00010000
00000010
00000000
00000100
00000000
00000002
00000000
00000010
00000000
00002003
00000000
00000010
00000000
,
00003001
00000000
00000000
00001000
00000100
00000000
00010000
00000000
00001000
00000000
00000000
01000000
00010000
00000000
00010000
00000000
,
10000000
00000000
00000000
01000000
00100000
00000000
00001000
00000000
00020000
00000000
00000010
00000000
00030200
00000000
00000010
00000000
,
00001300
00000000
00000000
00000001
00000100
00000000
00000010
00000000
00020000
00000000
00000100
00000000
00032000
00000000
01000000
00000000
,
00013000
00000000
00000000
00001000
00100000
00000000
01000000
00000000
20000000
00000000
00100000
00000000
30020000
00000000
00001000
00000000
,
00030020
00000000
00000000
00000000
00000000
00000000
00000000
00000000
00000130
00000000
00000010
00000001
00001000
00000000
00001000
00000000
,
00000100
00000000
00000100
00010000
00001000
01000000
01000000
10000000
,
01000000
01000000
00010000
01000000
01000000
10000000
01000000
01000000
,
00020000
00000000
00130000
00100000
00001000
00000000
00010000
00000010
,
00000100
00000000
00000010
00000000
00001000
00000000
00000001
00000000
00000010
00000001
00001000
00000001
00000010
00000000
00000002
00000000
,
00001003
00000000
00000010
00010000
00001000
00100000
00100000
10000000
,
00100000
00100000
00020000
00030010
00000001
00001000
00000001
00000100
,
00000020
00000000
00010030
00010000
00001000
00100000
00010000
01000000
,
00200000
00000000
00000000
00000000
01300000
00000000
01000000
00000000
00001000
00000000
00000000
00010000
00000000
00000000
00000100
00000000
,
00000020
00000000
00000000
00000000
,
00000000
00000000
00000000
00000000
,
00000000
00000000
00000000
00000000
,
00000000
00000000
00000000
00000000
,
00001030
00000000
00000000
00100000
00000000
00000000
01000000
00000000
00000000
10000000
00000000
00000000
00010000
00000000
20000000
00000000
,
30100000
00000000
00000000
01000000
00000000
00000000
00001000
00000000
00000000
00010000
00000000
00000000
00000100
00000000
00002000
00000000
,
00003001
00000000
00000000
00000010
00000000
00000000
00000100
00000000
00000000
00010000
00000000
00000000
00001000
00000000
00200000
00000000
,
00310000
00000000
00000000
10000000
00000000
00000000
00100000
00000000
00000000
01000000
00002000
00000000
00013000
00000000
00000100
00000000
,
00001100
00000000
00000000
00001000
00000001
00000000
00000000
00000001
00000100
00000000
00000000
00000100
00001000
00000000
00000000
00001000
,
00010000
00000000
00000000
00010000
00100000
00000000
00000000
00100000
10000000
00000000
00000000
10000000
00010000
00000000
00200000
00000000
,
00310000
00000000
00000000
00010000
01000000
00000000
00000000
01000000
00001000
00000000
00000000
00001000
00010000
00000000
00000000
00010000
,
00000100
00000000
00000000
00000100
00000010
00000000
00000000
00000010
00000001
00000000
00000000
00000001
00001000
00000000
00000010
00000000
,
00000100
00000001
00001000
00000001
00000010
00001000
00010000
00100000
,
10000000
00010000
10000000
01000000
00010000
00001000
00000100
00000001
,
00001000
00000100
00001000
00000100
00010000
00000100
00010000
00000100
00010000
00001000
00010000
00001000
00200000
00000000
00000000
00000000
,
00320000
01000000
00130000
00100000
,
00101000
00000000
00000000
00001000
00010000
00000000
00000010
00000000
00000100
00000000
00000100
00000010
00001000
00000000
00000001
00000000
,
00000010
00000000
00000100
00002000
00000000
00000000
00013000
00000000
00100000
00000000
01000000
20000000
00000000
00000000
30010000
00000000
,
01000000
00000000
01000000
00100000
10000000
00000000
00010000
00000000
00100000
00001000
00010000
00000000
00000100
00010000
00001000
00000000
,
01000000
00000000
00010000
00200000
00000000
00000000
00301000
00000000
00010000
00000000
00000100
00001000
00000001
00000000
00000001
00000000
,
00000100
00000000
00000000
00000010
00001000
00000000
00000100
00000000
00010000
00000000
00010000
00001000
01000000
00000000
00010000
00000000
,
10000000
00000000
00100000
02000000
00000000
00000000
03010000
00000000
00001000
00000000
00000010
00000200
00000000
00000000
00000301
00000000
,
00001000
00000000
00000100
00010000
00000000
00010000
00001000
00000000
00100000
00000000
00010000
10000000
00100000
00000000
01000000
00000000
,
00002000
00000000
00003100
00000120
,
00000030
00000000
00000000
00000010
00001000
00000010
00001000
00000000
00000000
00000000
00000001
00001000
00000001
00000000
00002000
00000000
,
00003100
00000000
00000000
00010000
00001000
00000000
00100000
00000000
01000000
00000000
00000000
10000000
00010000
00000000
00100000
00000000
,
00000000
00000000
00100000
00001000
00100000
00001000
00010000
00000000
00000000
00000010
00001000
00000010
00001000
00000010
00001000
00000001
,
00000100
00000000
00000000
00000010
00010000
00000000
00001000
00000000
01000000
00000000
00000000
00100000
10000000
00000000
00010000
00000000
,
00100000
00000000
00002000
00000000
00013000
00000100
00001000
00000000
00000000
00000000
00000001
00000010
00000100
00000000
00000020
00000000
,
00000031
00000000
00000000
00000100
00000000
00000010
00010000
00000000
00001000
00000000
00000000
01000000
00000000
00100000
20000000
00000000
,
30010000
00000000
00200000
00000000
00301000
00010000
00000010
00000000
00000000
00000000
00000200
00000000
00000310
00001000
00000001
00000010
,
00000100
00000000
00010000
00001000
00000000
00100000
00010000
00100000
01000000
00000000
10000000
00010000
00000000
01000000
00002000
00000000
,
00013000
00000000
00000000
00000000
;

//---------------dance-double - Talkion-EDP----------------
#NOTES:
     dance-double:
     Talkion:
     Hard:
     17:
     :
00000000
00000000
00000000
00000000
,
00000000
00000000
00000000
00000000
,
00000000
00000000
00000000
00000000
,
00000000
00000000
00000000
00000000
,
00000000
00000000
00000000
00000000
,
00000000
00000000
00000000
00000000
,
00001000
00000000
00000000
00000000
00000000
00000000
00100000
00000000
00000000
00010000
00000000
00000000
01000000
00000000
00000000
00000000
00000000
00000000
00100000
00000000
00000000
00000000
00000000
00000000
00000000
00000000
00000000
00100000
00000000
00000000
10000000
00000000
00000000
00000000
00000000
00000000
00010000
00000000
00000000
00000000
00000000
00000000
00100000
00000000
00001000
00000000
00100000
00000000
,
00001000
00000000
00000000
00000000
00000000
00000000
00010000
00000000
00000000
00000010
00000000
00000000
00000000
00000000
00000000
00000000
00000000
00000000
00000010
00000000
00000000
00000100
00000000
00000000
00000000
00000000
00000000
00000100
00000000
00000000
00000000
00000000
00000000
00000001
00000000
00000000
00001000
00000000
00000000
00000000
00000000
00000000
00000100
00000000
00010000
00000000
00000100
00000000
,
00010000
00000000
00000000
00000000
00000000
00000000
00001000
00000000
00000000
00100000
00000000
00000000
00010000
00000000
00000000
00000000
00000000
00000000
01000000
00000000
00000000
00000000
00000000
00000000
00000000
00000000
00000000
01000000
00000000
00000000
00100000
00000000
00000000
00000000
00000000
00000000
10000000
00000000
00000000
00000000
00000000
00000000
00010000
00000000
00100000
00000000
00010000
00000000
,
00100000
00000000
00000000
00000000
00000000
00000000
00001000
00000000
00000000
00010000
00000000
00000000
00000000
00000000
00000000
00000000
00000000
00000000
00010000
00000000
00000000
00000100
00000000
00000000
00000000
00000000
00000000
00000100
00000000
00000000
00000010
00000000
00000100
00000000
00000010
00000000
00000100
00000000
00000000
00000000
00000000
00000000
00000010
00000000
00000000
00000001
00000000
00000000
,
00001000
00000000
00000000
00000100
00001000
00000000
00000001
00000000
00001000
00000000
00000000
00000010
00001000
00000000
00010000
00000000
,
00100000
00000000
00000000
00000000
00000000
00000000
00000000
00000000
00000000
01000000
00000000
00000000
00100000
00000000
00000000
00000000
00000000
00000000
00010000
00000000
00000000
00000000
00000000
00000000
10000000
00000000
00000000
00100000
00000000
00000000
00000000
00000000
00000000
01000000
00000000
00000000
00100000
00000000
00000000
00000000
00000000
00000000
01000000
00000000
00010000
00000000
01000000
00000000
,
00010000
00000000
00000000
00100000
00010000
00000000
10000000
00000000
00010000
00000000
00000000
01000000
00010000
00000000
00001000
00000000
,
00000100
00000000
00000000
00000010
00000100
00000000
00001000
00000000
00000001
00000100
00000000
00000010
00000100
00001000
00000000
00010000
,
00001000
00000000
00100000
00010000
01000000
00001000
00010000
00000000
01000000
00000000
10000000
00010000
01000000
00100000
00010000
00000000
,
00001000
00000000
00010000
00000010
00001000
00000100
00000010
00000000
00001000
00000000
00010000
00000100
00001000
00000001
00000100
00000000
,
00000010
00000000
00000000
00001000
00000000
00000000
00000001
00000000
00000000
00001000
00000000
00000000
00000100
00000000
00000000
00010000
00000000
00000000
00001000
00000000
00000000
00100000
00000000
00000000
00010000
00000000
00000000
10000000
00000000
00000000
00010000
00000000
00000000
01000000
00000000
00000000
00100000
00000000
01000000
00000000
00100000
00000000
01000000
00000000
00100000
00000000
01000000
00000000
,
00020000
00001000
01000000
00031000
,
00000010
00001000
00000000
00000100
00001000
00000000
00000001
00000000
00000100
00001000
00010000
00000000
00001000
00100000
00010000
00000000
,
10000000
00010000
00120000
01030000
01002000
00013000
00021000
01030000
,
00100000
00010000
00000000
10000000
00010000
00000000
01000000
00000000
00100000
00010000
00001000
00000000
00010000
00000100
00001000
00000000
,
00000100
00000000
00000000
00000000
00000000
00000000
00000000
00000000
00000000
00000110
00000000
00000000
00000000
00000000
00000000
00000000
00000000
00000000
00001002
00000000
00000000
00000000
00000000
00000000
00000000
00000000
00000000
00000000
00000000
00000000
00000000
00000000
00000000
00000000
00000000
00000000
00000103
00000000
00000000
00000000
00000000
00000000
00000010
00000000
00010000
00000000
00000010
00000000
,
00010000
00001000
00000000
00100000
00001000
00000000
01000000
00000000
00100000
10000000
00010000
10000000
01000000
00100000
00010000
00000000
,
01000000
00001000
00102000
00013000
00012000
00003010
00000012
00001003
,
00000001
00000100
00000000
00000010
00000100
00000000
00001000
00000000
00010000
01000000
00000000
00100000
01000000
00000000
10000000
00000000
,
00010000
00000000
01000000
00010000
00000000
00001000
00010000
00000000
01000000
00010000
00000000
00001000
00000010
00000100
00000001
00001000
,
00000002
00000000
00000000
00000103
00001000
00000000
00010000
00000000
00000100
00001000
00010000
00000000
00001000
00010000
01000000
00000000
,
00200000
00000000
00000000
10300000
00010000
00000000
10000000
00000000
00100000
00010000
00001000
00000000
00010000
00001000
00000010
00000000
,
00000200
00000000
00000000
00001300
00000001
00000000
00000100
00000010
00010000
00001000
01000000
00000000
00100000
01000000
00010000
00000000
,
20000000
00000000
00000000
31000000
00010000
00000000
00000100
00000000
00000020
00000000
00000000
00000130
00010000
00000000
01000000
00000000
,
20000000
00000000
00000000
30100000
00010000
00000000
00001000
00000000
00100000
00010000
00001000
00000000
00010000
00001000
00000010
00000000
,
00000200
00000000
00000000
00000301
00001000
00000000
00000001
00000000
00000100
00001000
00010000
00000000
00001000
00010000
01000000
00000000
,
00200000
00000000
00000000
00310000
10000000
00000000
00100000
01000000
00001000
00010000
00000100
00000000
00000010
00000100
00001000
00000000
,
00000002
00000000
00000000
00000000
00000000
00000000
00000000
00000000
00000000
00000000
00000000
00000000
00001003
00000000
00000000
00000100
00010000
00000100
00010000
00000000
00000000
01000000
00000000
00000000
,
20010000
00000000
00000000
00000000
30100000
01000000
00010000
00100000
00001000
00010000
00000100
00010000
00001000
00010000
00000100
00010000
,
00001000
00010000
00000010
00001000
00000010
00000100
00000010
00001000
00000010
00000100
00000010
00001000
00000010
00000100
00000010
00001000
,
00000002
00000023
00001030
00001000
00200000
00310000
20000000
30200000
,
00010000
00000000
00310000
00000000
00000020
00000000
00001030
00000000
00000001
00000010
00000100
00001000
00000010
00000000
00000110
00000000
,
00001002
00000000
00000000
00000000
00000103
00000010
00001000
00000100
00010000
00001000
00100000
00001000
00010000
00001000
00100000
00001000
,
01000000
00000000
00000000
00010000
00000000
00000000
01000000
00000000
00000000
00100000
00000000
00000000
10000000
00000000
00010000
00000000
01000000
00000000
00100000
00000000
10000000
00000000
00010000
00000000
01000000
00000000
00000000
00100000
00000000
00000000
01000000
00000000
00000000
00010000
00000000
00000000
01000000
00000000
00000000
00100000
00000000
00000000
01000000
00000000
00000000
00010000
00000000
00000000
,
20000000
32000000
00010000
03010000
00000200
00001300
00000020
00010030
,
00001000
00000000
00100000
00000000
00010000
10000000
00100000
00000000
01000000
00000000
00001000
00010000
00000000
00001000
00010000
00000000
,
00000020
00000000
00000000
00000000
,
00000000
00000000
00000000
00000000
,
00000000
00000000
00000000
00000000
,
00000000
00000000
00000000
00000000
,
00010030
00000000
00000000
00000000
00000000
00000000
00000100
00000000
00000000
00001000
00000000
00000000
00000010
00000000
00000000
00000000
00000000
00000000
00000100
00000000
00000000
00000000
00000000
00000000
00000000
00000000
00000000
00000100
00000000
00000000
00000001
00000000
00000000
00000000
00000000
00000000
00001000
00000000
00000000
00000000
00000000
00000000
00000100
00000000
00010000
00000000
00000100
00000000
,
00010000
00000000
00000000
00000000
00000000
00000000
00001000
00000000
00000000
01000000
00000000
00000000
00000000
00000000
00000000
00000000
00000000
00000000
01000000
00000000
00000000
00100000
00000000
00000000
00000000
00000000
00000000
00100000
00000000
00000000
00000000
00000000
00000000
10000000
00000000
00000000
00010000
00000000
00000000
00000000
00000000
00000000
00100000
00000000
00001000
00000000
00100000
00000000
,
00001000
00000000
00000000
00000000
00000000
00000000
00010000
00000000
00000000
00000100
00000000
00000000
00001000
00000000
00000000
00000000
00000000
00000000
00000010
00000000
00000000
00000000
00000000
00000000
00000000
00000000
00000000
00000010
00000000
00000000
00000100
00000000
00000000
00000000
00000000
00000000
00000001
00000000
00000000
00000000
00000000
00000000
00001000
00000000
00000100
00000000
00001000
00000000
,
00000100
00000000
00000000
00000000
00000000
00000000
00010000
00000000
00000000
00001000
00000000
00000000
00000000
00000000
00000000
00000000
00000000
00000000
00001000
00000000
00000000
00100000
00000000
00000000
00000000
00000000
00000000
00100000
00000000
00000000
01000000
00000000
00100000
00000000
01000000
00000000
00100000
00000000
00000000
00000000
00000000
00000000
01000000
00000000
00000000
10000000
00000000
00000000
,
00010000
00000000
00000000
01000000
00100000
10000000
00010000
00000000
00100000
00001000
01000000
00010000
00100000
00000000
00001000
00000000
,
00010000
00000000
00000000
00000000
00000000
00000000
00000000
00000000
00000000
00000100
00000000
00000000
00000010
00000000
00000000
00000001
00000000
00000000
00001000
00000000
00000000
00000000
00000000
00000000
00000010
00000000
00000000
00010000
00000000
00000000
00000100
00000000
00000000
00001000
00000000
00000000
00000010
00000000
00000000
00000000
00000000
00000000
00000100
00000000
00000010
00000000
00000100
00000000
,
00000010
00000000
00000000
00010000
00001000
00100000
00010000
00000000
10000000
00100000
01000000
00010000
00100000
00000000
00001000
00000000
,
00010000
00000100
00001000
00000100
00010000
00000000
00000010
00000000
00000100
00000001
00000010
00000001
00000100
00000010
00000000
00001000
,
00000001
00000000
00000010
00000001
00000100
00000000
00000100
00000010
00010000
00000000
00010000
00001000
00100000
00000000
00100000
01000000
,
10000000
00000000
10000000
00100000
01000000
00000000
01000000
00001000
00010000
00000000
00010000
00000100
00000010
00000000
00000010
00000001
,
00001000
00000000
00000000
00000010
00000000
00000000
00010000
00000000
00000000
00001000
00000000
00000000
00100000
00000000
00000000
00010000
00000000
00000000
10000000
00000000
00000000
00100000
00000000
00000000
01000000
00000000
00000000
00010000
00000000
00000000
00100000
00000000
00000000
00001000
00000000
00000000
00010000
00000000
00001000
00000000
00010000
00000000
00001000
00000000
00010000
00000000
00001000
00000000
,
00200000
00000000
00310000
00000020
00000001
00000000
00000130
00000000
,
00001001
00000000
00000000
00000001
00000100
00001000
00010000
00000000
00001000
00100000
01000000
00100000
00010000
00000000
10000000
00000000
,
10100000
00000000
00100000
01000000
00000000
00001000
00010000
00000100
00000010
00000000
00000001
00001000
00000000
00000010
00000100
00000000
,
00000101
00000000
00000001
00001000
00000100
00000010
00001000
00000000
00010000
01000000
00100000
00010000
10000000
00100000
01000000
00010000
,
00100000
00000000
00001000
00010000
00000000
00000100
00000010
00000000
00001000
00000000
00100000
00010000
00000000
10000000
00100000
01000000
,
00010000
00000000
00000000
10000000
01000000
00010000
00001000
00000000
00010000
00000010
00000100
00000010
00001000
00000000
00000001
00000000
,
00000011
00000000
00000010
00000100
00000000
00010000
00001000
01000000
00100000
00000000
10000000
00010000
00000000
00100000
01000000
00000000
,
11000000
00000000
10000000
00010000
01000000
00001000
00010000
00000000
00000100
00000000
00000001
00000100
00001000
00000001
00000100
00001000
,
00020000
00000000
00000000
00000000
00000000
00000000
00000000
00000000
01030000
00000000
00010000
00000000
00001000
00000010
00000001
00000010
,
00000100
00000000
00000000
00000000
00000000
00000000
00000000
00000000
00000000
00010000
00000000
00000000
00001000
00000000
00000000
01000000
00000000
00000000
01010000
00000000
00000000
00000000
00000000
00000000
00000000
00000000
00000000
00000000
00000000
00000000
01000000
00000000
00000000
00100000
00000000
00000000
10010000
00000000
00000000
00000000
00000000
00000000
10000000
00000000
00010000
00000000
10000000
00000000
,
00010000
00000000
00100000
00001000
00010000
00000000
00000010
00010000
00001000
00000000
00000010
00000100
00001000
00000000
00000001
00000000
,
00000000
00000000
00000100
00000010
00010000
00001000
00011000
00000000
00000000
00100000
00010000
10000000
00100000
01000000
00001000
00010000
,
00011000
00000000
00010000
00000100
00001000
00000000
00000100
00010000
00001000
00000000
01000000
00100000
10000000
00000000
00010000
00000000
,
00100000
00000000
00000000
00000000
00000000
00000000
00001000
00000000
00010000
00000000
00001000
00000000
00010000
00000000
00000000
00000010
00000000
00000000
00001010
00000000
00000000
00000000
00000000
00000000
00000000
00000000
00000000
00000000
00000000
00000000
00000010
00000000
00000000
00000100
00000000
00000000
00001001
00000000
00000000
00000000
00000000
00000000
00000001
00000000
00001000
00000000
00000001
00000000
,
00001000
00000000
00000000
00000000
00000000
00000000
00000100
00000000
00000000
00010000
00000000
00000000
00000000
00000000
00000000
00001000
00000000
00000000
01000000
00000000
00000000
00010000
00000000
00000000
00100000
00000000
00000000
00000000
00000000
00000000
01000000
00000000
00000000
00100000
00000000
00000000
00000000
00000000
00000000
00010000
00000000
00000000
10000000
00000000
00010000
00000000
10000000
00000000
,
00010000
00000000
00000000
00000000
00000000
00000000
00100000
00000000
00001000
00000000
00100000
00000000
00001000
00000000
00000000
00010000
00000000
00000000
00011000
00000000
00000000
00000000
00000000
00000000
00000000
00000000
00000000
00000000
00000000
00000000
00000100
00000000
00001000
00000000
00000100
00000000
00001000
00000000
00000000
00000001
00000000
00000000
00000010
00000000
00000000
00000001
00000000
00000000
,
00000100
00000000
00001000
00010000
00000000
01000000
10000000
00100000
01000000
00000000
00001000
00010000
00000000
00000100
00000010
00000001
,
00000100
00000000
00000000
00000000
;
