#VERSION:0.83;
#TITLE:MAX 300 takamatt MIN REMIX;
#ARTIST:takamatt;
#BANNER:MAX 300 takamatt MIN REMIX.png;
#BACKGROUND:MAX 300 takamatt MIN REMIX-bg.png;
#JACKET:MAX 300 takamatt MIN REMIX-jacket.png;
#MUSIC:MAX 300 takamatt MIN REMIX.ogg;
#OFFSET:1.650706;
#SAMPLESTART:84.82;
#SAMPLELENGTH:15;
#BPMS:0=136,68=68,76=136;

//---------------dance-single - NewbStepper-ESP----------------
#NOTEDATA:;
#CHARTNAME:NewbStepper-ESP;
#STEPSTYPE:dance-single;
#DESCRIPTION:NewbStepper-ESP;
#DIFFICULTY:Hard;
#METER:13;
#RADARVALUES:0.513334,0.683113,0.570654,0.187246,0.543905,403,339,64,21,0,0,0,0,0,0.513334,0.683113,0.570654,0.187246,0.543905,403,339,64,21,0,0,0,0,0;
#CREDIT:NewbStepper;
#NOTES:
0000
0000
0000
0000
,
0000
0000
0000
0000
,
0000
0000
0000
0000
,
0000
0000
0000
0000
,
0000
0000
0000
0000
,
0100
0000
0000
0000
1001
0000
0000
0010
0001
0000
0100
0000
0010
0000
0000
0000
,
0100
0000
0000
0000
1001
0000
0000
0010
1000
0000
0100
0000
0010
0000
0000
0000
,
0001
0000
0000
0000
0101
0000
0000
0010
1000
0000
0001
0000
0010
0000
0000
0000
,
0100
1000
0010
0000
0100
0110
0110
0000
,
0001
0000
0000
0001
0100
0000
0000
0100
0010
0000
0000
0010
1000
0000
0000
1000
,
0100
0000
0000
0100
0001
0000
0000
0001
0100
0000
0000
0100
0010
0000
0000
0010
,
0001
0000
0000
0001
0100
0000
0000
0100
0010
0000
0000
0010
1000
0000
0000
1000
,
0001
0000
0000
0001
0100
0000
0000
0100
0010
0000
0110
0000
0110
0000
0000
0000
,
1000
0010
0000
0010
0100
0000
0000
0000
0001
0000
0000
0100
0010
0000
0000
0000
,
1000
0001
0000
0001
0100
0000
0000
0000
0010
0000
0000
1010
0000
0000
1001
0000
,
0001
0010
0000
0010
0100
0000
0000
0000
1000
0000
0000
0100
0010
0000
0000
0000
,
0001
0000
0000
1000
0000
0000
0000
0000
0000
0001
0000
0000
1000
0000
0000
0000
0000
0000
0010
0000
0000
0000
0000
0000
0100
0000
0000
0000
0000
0000
0000
0000
0000
0000
0000
0000
0001
0000
0000
0000
1000
0000
0000
0000
0001
0000
0000
0000
,
0200
0000
0302
0000
1003
0010
0000
0200
0000
0000
0000
0000
0301
0000
0010
0000
,
0200
0000
2300
0000
3001
0010
0000
0200
0000
0000
0000
0000
1300
0000
0010
0000
,
0110
0000
0000
0100
0001
0000
0000
0000
1000
0000
0001
0000
0010
0000
1000
0000
,
0010
0000
0000
0100
1000
0000
0000
0000
0001
0000
1000
0000
0010
0000
0001
0000
,
0010
0000
0000
1000
0100
0000
0100
0000
0010
0000
0000
0001
0100
0000
0100
0000
,
0010
0000
1000
0010
1000
0000
0001
0010
0001
0100
0000
0000
0010
0000
1000
0001
,
2000
0000
0000
3000
0010
1000
0000
0000
1000
0001
0000
0100
0000
0000
0010
1000
,
0010
0000
0000
1000
0000
0100
0000
0001
0000
0100
0000
1000
0010
0000
1000
0001
,
0010
0000
0000
0010
0001
0000
1000
0000
0000
0001
0000
0100
0000
0001
0010
0000
,
0100
0000
0000
0000
0000
0000
1000
0000
0000
0010
0000
0000
0000
0000
0000
0010
0000
0000
0000
0000
0000
0100
0000
0000
0000
0000
0000
0001
0000
0000
1000
0000
0000
0000
0000
0000
0001
0000
0000
0000
0010
0000
0000
0000
0100
0000
0000
0000
,
1000
0010
0000
0010
0000
0000
0100
0000
0001
1000
0000
0100
0000
0000
0010
0001
,
0010
0000
0000
0001
0000
0100
0000
1000
0000
0100
0000
0001
0010
0000
0001
1000
,
0010
0000
0000
0010
1000
0000
0001
0000
0000
1000
0000
0100
0000
1000
0010
0000
,
0100
0000
0000
0000
0000
0000
0001
0000
0000
0010
0000
0000
0000
0000
0000
0010
0000
0000
0000
0000
0000
0100
0000
0000
0000
0000
0000
0000
0000
0000
1000
0000
0000
0000
0000
0000
0001
0000
0000
0000
1000
0000
0000
0000
0001
0000
0000
0000
,
2002
0000
0000
3003
,
0000
0000
0000
0000
,
0000
0000
0000
0000
,
0000
0000
0000
0000
,
0010
0000
0001
0000
1000
0010
0100
0000
0010
0000
1000
0000
0001
0010
0100
0000
,
1000
0000
0010
0000
0100
0001
1000
0000
0001
0000
0010
0000
0100
1000
0001
0000
,
1000
0010
1000
0010
0100
0001
0100
0001
1000
0010
1000
0010
0100
0001
0100
0001
,
0020
0000
0200
0330
,
1001
0000
0000
1010
0000
0000
1010
0000
0000
0000
0000
0101
0000
0000
0101
0000
,
0000
0000
0000
0110
0000
0000
0110
0000
0110
0000
0101
0000
1001
0000
1100
0000
,
1001
0000
0000
0011
0000
0000
0011
0000
0000
0000
0000
1100
0000
0000
1100
0000
,
0000
0000
0000
0110
0000
0000
0110
0000
0110
0000
1100
0000
1001
0000
0101
0000
,
0000
1001
0000
0000
1010
0000
0000
0110
0000
0000
0101
0000
0000
0011
0000
0000
,
0110
0000
0000
1100
0000
0000
1001
0000
0000
0000
0010
0000
1000
0001
1000
0000
,
0000
1001
0000
0000
0011
0000
0000
0110
0000
0000
1100
0000
0000
1010
0000
0000
,
0110
0000
0000
0101
0000
0000
1001
0000
0010
0000
0001
0000
0100
0000
0010
0000
,
1000
0000
0000
1000
0010
0000
0000
0010
0100
0000
0000
0101
0000
0000
2002
0000
,
0000
0000
3003
0000
0010
0000
0000
0000
0100
0000
0000
1100
0000
0000
2002
0000
,
0000
0000
3003
0000
0010
0000
0000
0000
0100
0000
0000
0101
0000
0000
2002
0000
,
0000
0000
3003
0000
0010
0000
0000
0000
0100
0000
0000
1100
0000
0000
2002
0000
,
0000
0000
3003
0000
0001
0000
0100
0000
1000
0000
0100
0010
0000
0000
0110
0000
,
0001
0000
0010
0000
1000
0000
0010
0000
0001
0000
1000
0010
0000
0000
1001
0000
,
1000
0000
0010
0000
1000
0000
0100
0000
0001
0000
0000
0110
0000
0000
1001
0000
,
0001
0100
0001
0100
0010
1000
0010
1000
0100
0000
0110
0000
0110
0000
0000
0000
,
2002
0000
0000
0000
,
0000
0000
0000
3003
;

//---------------dance-single - NewbStepper-DSP----------------
#NOTEDATA:;
#CHARTNAME:NewbStepper-DSP;
#STEPSTYPE:dance-single;
#DESCRIPTION:NewbStepper-DSP;
#DIFFICULTY:Medium;
#METER:10;
#RADARVALUES:0.371944,0.455409,0.222912,0.106998,0.093623,292,267,25,12,0,0,0,0,0,0.371944,0.455409,0.222912,0.106998,0.093623,292,267,25,12,0,0,0,0,0;
#CREDIT:NewbStepper;
#NOTES:
0000
0000
0000
0000
,
0000
0000
0000
0000
,
0000
0000
0000
0000
,
0000
0000
0000
0000
,
0000
0000
0000
0000
,
0001
0000
1000
1000
0000
0100
0010
0001
,
0000
0001
0000
0001
1000
0100
0001
0100
,
1000
0000
0001
0001
0000
0100
0010
1000
,
0000
1000
0000
1000
0001
0100
0100
0000
,
0010
1001
0100
1001
,
0010
1000
0100
0000
0010
0001
0100
0000
,
0010
1001
0100
1001
,
0010
0001
0100
0000
0010
1000
0100
0000
,
0010
0001
0101
0000
0010
1000
1100
0000
,
0001
0000
0001
0000
1000
0001
1001
0000
,
0010
1000
1100
0000
0010
0001
0101
0000
,
0010
0010
0100
0010
0100
0000
0000
0000
,
2001
0000
3010
0000
0002
0000
0103
0010
,
1002
0000
0013
0000
2000
0000
3100
0010
,
1001
0000
0100
0000
0010
1000
0100
0010
,
0001
0000
0010
0001
1000
0010
0100
0000
,
1001
0000
0100
0000
0010
0001
0100
0010
,
1000
0001
2002
3003
,
0010
0000
1000
0000
0001
0100
1000
0000
,
0100
0000
0001
0010
0100
1000
0001
0000
,
1000
0000
0100
0010
1000
0000
0001
0100
,
1000
0000
0001
0100
1000
0100
0001
0000
,
0010
0000
0001
0000
1000
0100
0001
0000
,
0100
0000
1000
0010
0100
0001
1000
0000
,
0001
0000
0100
0010
0001
0000
1000
0100
,
0001
0000
1000
0100
0001
0100
1000
0000
,
2002
0000
0000
3003
,
0000
0000
0000
0000
,
0000
0000
0000
0000
,
0000
0000
0000
0000
,
0010
1000
0010
1000
0010
1000
0100
0000
,
0010
0001
0010
0001
0010
0001
0100
0000
,
0001
1000
0100
0010
0001
0100
0010
1000
,
0002
0000
2000
3003
,
1000
0000
0000
0010
0000
0000
0110
0000
0000
0000
0000
1000
0000
0000
1000
0000
,
0000
0000
0000
0001
0000
0000
0001
0000
0001
0000
0100
0000
1000
0000
0100
0000
,
0001
0000
0000
0010
0000
0000
0110
0000
0000
0000
0000
0001
0000
0000
0001
0000
,
0000
0000
0000
1000
0000
0000
1000
0000
1000
0000
0100
0000
0001
0000
0100
0000
,
0000
1000
0000
0000
0010
0000
0000
0100
0000
0000
0001
0000
0000
0100
0000
0000
,
1000
0000
0000
0010
0000
0000
0001
0000
0001
0000
0100
0000
1000
0000
0100
0000
,
0000
0001
0000
0000
0010
0000
0000
0100
0000
0000
1000
0000
0000
0100
0000
0000
,
0001
0000
0000
0010
0000
0000
1000
0000
0001
0000
0100
0000
0010
0000
1000
0000
,
0001
0000
0100
0000
0001
0000
0100
0000
1000
0000
0000
0100
0000
0000
0110
0000
,
1000
0000
0100
0000
1000
0000
0100
0000
0001
0000
0000
0100
0000
0000
0110
0000
,
0001
0000
0010
0000
0001
0000
0010
0000
1000
0000
0000
0010
0000
0000
0110
0000
,
1000
0000
0010
0000
1000
0000
0010
0000
0001
0000
0000
0010
0000
0000
0110
0000
,
0000
0000
0000
0000
0001
0000
0100
0000
0010
0000
0000
0100
0000
0000
0101
0000
,
1000
0000
0001
0000
1000
0000
0100
0000
0010
0000
0000
0100
0000
0000
1100
0000
,
1000
0000
0001
0000
1000
0000
0001
0000
0000
0000
0000
0100
0000
0000
0110
0000
,
0001
0100
0010
1000
0100
0010
0001
0000
,
2002
0000
0000
0000
,
0000
0000
0000
3003
;

//---------------dance-single - NewbStepper-BSP----------------
#NOTEDATA:;
#CHARTNAME:NewbStepper-BSP;
#STEPSTYPE:dance-single;
#DESCRIPTION:NewbStepper-BSP;
#DIFFICULTY:Easy;
#METER:4;
#RADARVALUES:0.192341,0.227704,0.017833,0.098081,0,151,149,2,11,0,0,0,0,0,0.192341,0.227704,0.017833,0.098081,0,151,149,2,11,0,0,0,0,0;
#CREDIT:NewbStepper;
#NOTES:
0000
0000
0000
0000
,
0000
0000
0000
0000
,
0000
0000
0000
0000
,
0000
0000
0000
0000
,
0000
0000
0000
0000
,
1000
0001
1000
0000
,
0010
0100
0010
1000
,
0001
1000
0001
0000
,
1000
0001
0100
0000
,
0001
0001
0100
0100
,
0010
0010
1000
1000
,
0001
0001
0010
0010
,
0100
0100
1000
1000
,
0001
0100
0010
1000
,
0001
0010
0100
1000
,
0001
1000
0010
0100
,
0001
1000
0100
0010
,
0002
0003
2000
3000
,
0002
0003
2000
3000
,
0001
0001
0100
0000
,
1000
1000
0100
0000
,
0001
0001
0010
0000
,
1000
1000
0010
0000
,
0001
0100
1000
0100
,
0001
0001
1000
0100
,
0001
0100
1000
1000
,
0001
0010
1000
0010
,
0001
0001
1000
0010
,
0001
0010
1000
1000
,
0001
0100
0010
1000
,
0100
0100
0001
0100
,
0200
0000
0000
0300
,
0000
0000
0000
0000
,
0000
0000
0000
0000
,
0000
0000
0000
0000
,
1000
0100
1000
0100
,
0010
0001
0010
0001
,
1000
0010
0001
0010
,
0200
0000
0000
0300
,
0001
0000
0000
0001
0000
0000
0000
1000
,
0000
0000
0000
0100
0000
0000
0000
0000
,
1000
0000
0000
1000
0000
0000
0000
0001
,
0000
0000
0000
0100
0000
0000
0000
0000
,
0001
0000
1000
0000
,
0001
0000
0100
0000
,
0010
0000
1000
0000
,
0100
0000
0020
0030
,
0001
0001
0100
0010
,
1000
1000
0100
0010
,
0001
0001
0010
0100
,
1000
1000
0010
0000
,
0000
1000
0100
0010
,
0001
1000
0100
0010
,
0001
0100
0000
0000
,
0220
0000
0000
0330
,
2002
0000
0000
0000
,
0000
0000
0000
3003
;

//---------------dance-single - NewbStepper-bSP----------------
#NOTEDATA:;
#CHARTNAME:NewbStepper-bSP;
#STEPSTYPE:dance-single;
#DESCRIPTION:NewbStepper-bSP;
#DIFFICULTY:Beginner;
#METER:2;
#RADARVALUES:0.081522,0.171642,0.017833,0.044582,0,64,62,2,5,0,0,0,0,0,0.081522,0.171642,0.017833,0.044582,0,64,62,2,5,0,0,0,0,0;
#CREDIT:NewbStepper;
#NOTES:
0000
0000
0000
0000
,
0000
0000
0000
0000
,
0000
0000
0000
0000
,
0000
0000
0000
0000
,
0000
0000
0000
0000
,
0001
0000
0000
0000
,
1000
0000
0000
0000
,
1000
0000
0000
0000
,
0001
0000
0000
0000
,
0100
0000
0100
0000
,
0010
0000
0010
0000
,
1000
0000
1000
0000
,
0001
0000
0001
0000
,
1000
1000
0000
0000
,
0001
0001
0000
0000
,
0100
0100
0000
0000
,
0010
0010
0000
0000
,
1000
0000
0000
0000
,
0000
0000
0000
0000
,
0001
0000
0000
0000
,
0001
0000
0000
0000
,
1000
0000
0000
0000
,
1000
0000
0000
0000
,
0010
0000
0000
0000
,
0010
0000
0000
0000
,
0010
0000
0000
0000
,
0010
0000
0000
0000
,
0100
0000
0000
0000
,
0100
0000
0000
0000
,
0100
0000
0000
0000
,
0100
0000
0000
0000
,
1001
0000
0000
0000
,
0000
0000
0000
0000
,
0000
0000
0000
0000
,
0000
0000
0000
0000
,
0001
0000
0001
0000
,
1000
0000
1000
0000
,
0010
0010
0010
0010
,
0020
0000
0000
0030
,
0000
0000
0000
0000
,
0000
0000
0000
0000
,
0000
0000
0000
0000
,
0000
0000
0000
0000
,
2000
0000
0000
0000
,
3000
0000
0000
0000
,
0002
0000
0000
0000
,
0003
0000
0000
0000
,
1000
1000
1000
0000
,
0200
0000
0300
0000
,
0001
0001
0001
0000
,
0200
0000
0300
0000
,
0000
1000
1000
0000
,
0000
0001
0001
0000
,
0100
0100
0000
0000
,
0010
0000
0010
0000
,
1001
0000
0000
0000
;

//---------------dance-double - NewbStepper-EDP----------------
#NOTEDATA:;
#CHARTNAME:NewbStepper-EDP;
#STEPSTYPE:dance-double;
#DESCRIPTION:NewbStepper-EDP;
#DIFFICULTY:Hard;
#METER:13;
#RADARVALUES:0.495501,0.683113,0.490406,0.187246,0.427991,389,334,55,21,0,0,0,0,0,0.495501,0.683113,0.490406,0.187246,0.427991,389,334,55,21,0,0,0,0,0;
#CREDIT:NewbStepper;
#NOTES:
// measure 0
00000000
00000000
00000000
00000000
,  // measure 1
00000000
00000000
00000000
00000000
,  // measure 2
00000000
00000000
00000000
00000000
,  // measure 3
00000000
00000000
00000000
00000000
,  // measure 4
00000000
00000000
00000000
00000000
,  // measure 5
01000000
00000000
00000000
00000000
10010000
00000000
00000000
00100000
10000000
00000000
01000000
00000000
00010000
00000000
00000000
00000000
,  // measure 6
00001000
00010000
00001000
00000000
00000100
00000001
00000010
00000000
,  // measure 7
00000100
00000000
00000000
00000000
00001001
00000000
00000000
00000010
00000001
00000000
00000100
00000000
00001000
00000000
00000000
00000000
,  // measure 8
00010000
01000000
10000000
00100000
10000000
00010000
00010000
00000000
,  // measure 9
10000000
01000000
00010000
00000100
00000001
00000100
00010000
00001000
,  // measure 10
00000010
00010000
00100000
00010000
00000010
00001000
00000010
00000001
,  // measure 11
00001000
00000100
00010000
01000000
00010000
00000100
00001000
00000010
,  // measure 12
00001000
00100000
00010000
00001000
00100000
01000000
01100000
00000000
,  // measure 13
00010000
00001000
00000000
00001000
00010000
00000000
00000000
00000000
00000100
00000000
00000000
00000010
00000001
00000000
00000000
00000000
,  // measure 14
00001000
00000010
00000000
00000010
00000100
00000000
00000000
00000000
00001000
00000000
00000000
00010000
00000000
00000000
00100000
00000000
,  // measure 15
10000000
00010000
00000000
00010000
01000000
00000000
00000000
00000000
00100000
00000000
00000000
00010000
00001000
00000000
00000000
00000000
,  // measure 16
00000100
00000000
00000000
00000001
00000000
00000000
00000010
00000000
00000000
00001000
00000000
00000000
00010000
00000000
00000000
00100000
00000000
00000000
10000000
00000000
00010000
00000000
10000000
00000000
,  // measure 17
00200000
00000000
00320000
00000000
00031000
01000000
00000000
00020000
00000000
00000000
00000000
00000000
00031000
00000000
00000100
00000000
,  // measure 18
00000020
00000000
00002030
00000000
00013000
00000100
00000000
00002000
00000000
00000000
00000000
00000000
00013000
00000000
01000000
00000000
,  // measure 19
00100000
00000000
00000000
10000000
01000000
00000000
00000000
00000000
00010000
00000000
00001000
00000000
00010000
00000000
00000100
00000000
,  // measure 20
00000010
00000000
00000000
00000001
00000100
00000000
00000000
00000000
00000010
00000000
00010000
00000000
00001000
00000000
00000000
00000000
,  // measure 21
00000100
00000001
00000010
00001000
00010000
00000100
00010000
01000000
,  // measure 22
00100000
00000000
00001000
00000000
00000010
00000000
00001000
00000000
00010000
00001000
00000000
00000000
01000000
00000000
00100000
10000000
,  // measure 23
00200000
00000000
00000000
00300000
10000000
01000000
00000000
00000000
01000000
00010000
00000000
00001000
00000000
00000000
00100000
00010000
,  // measure 24
00100000
00000000
00000000
00001000
00000000
00010000
00000000
00001000
00000000
00000100
00000000
00000001
00000010
00000000
00000001
00001000
,  // measure 25
00000010
00000000
00000000
00000010
00000100
00000000
00001000
00000000
00000000
00010000
00000000
00000100
00000000
00000010
00000100
00000000
,  // measure 26
00010000
00000000
00000000
00000000
00000000
00000000
00001000
00000000
00000000
00000010
00000000
00000000
00000000
00000000
00000000
00000010
00000000
00000000
00000000
00000000
00000000
00000100
00000000
00000000
00000000
00000000
00000000
00010000
00000000
00000000
00001000
00000000
00000000
00000000
00000000
00000000
00100000
00000000
00000000
00000000
00010000
00000000
00000000
00000000
01000000
00000000
00000000
00000000
,  // measure 27
00100000
10000000
00000000
10000000
00000000
00000000
01000000
00000000
00010000
00001000
00000000
00000100
00000000
00000000
00000010
00001000
,  // measure 28
00000010
00000000
00000000
00010000
00000000
00001000
00000000
00010000
00000000
01000000
00000000
10000000
00100000
00000000
10000000
00010000
,  // measure 29
00100000
00000000
00000000
00100000
01000000
00000000
00010000
00000000
00000000
00001000
00000000
01000000
00000000
00100000
01000000
00000000
,  // measure 30
00001000
00000000
00000000
00000000
00000000
00000000
00010000
00000000
00000000
00100000
00000000
00000000
00000000
00000000
00000000
00100000
00000000
00000000
00000000
00000000
00000000
01000000
00000000
00000000
00000000
00000000
00000000
00001000
00000000
00000000
00010000
00000000
00000000
00000000
00000000
00000000
00000010
00000000
00000000
00000000
00000100
00000000
00000000
00000000
00000001
00000000
00000000
00000000
,  // measure 31
00002002
00000000
00000000
00003003
,  // measure 32
00000000
00000000
00000000
00000000
,  // measure 33
00000000
00000000
00000000
00000000
,  // measure 34
00000000
00000000
00000000
00000000
,  // measure 35
00000010
00000000
00000001
00000000
00001000
00000010
00001000
00000000
00000001
00000000
00000100
00000000
00001000
00010000
00001000
00000000
,  // measure 36
00100000
00000000
00010000
00000000
10000000
00100000
10000000
00000000
00010000
00000000
01000000
00000000
00100000
10000000
00100000
00000000
,  // measure 37
10000000
00010000
10000000
00010000
00100000
00010000
00100000
00010000
00100000
00001000
00100000
00001000
00010000
00001000
00010000
00001000
,  // measure 38
00020000
00000000
00002000
00033000
,  // measure 39
00011000
00000000
00000000
00011000
00000000
00000000
00011000
00000000
00000000
00000000
00000000
00000110
00000000
00000000
00000110
00000000
,  // measure 40
00000000
00000000
00000000
00001001
00000000
00000000
00000101
00000000
00000101
00000000
00000110
00000000
00001010
00000000
00001001
00000000
,  // measure 41
00000101
00000000
00000000
00001100
00000000
00000000
00011000
00000000
00000000
00000000
00000000
01100000
00000000
00000000
01100000
00000000
,  // measure 42
00000000
00000000
00000000
10010000
00000000
00000000
11000000
00000000
11000000
00000000
01100000
00000000
00110000
00000000
10010000
00000000
,  // measure 43
00000000
11000000
00000000
00000000
10100000
00000000
00000000
01100000
00000000
00000000
01010000
00000000
00000000
00110000
00000000
00000000
,  // measure 44
00101000
00000000
00000000
00011000
00000000
00000000
00010100
00000000
00000000
00000000
00000010
00000000
00000001
00001000
00000001
00000000
,  // measure 45
00000000
00000101
00000000
00000000
00000011
00000000
00000000
00000110
00000000
00000000
00001100
00000000
00000000
00001010
00000000
00000000
,  // measure 46
00010010
00000000
00000000
00011000
00000000
00000000
01001000
00000000
00010000
00000000
00100000
00000000
10000000
00000000
01000000
00000000
,  // measure 47
00100000
00000000
00001000
00000000
00000010
00000000
00001000
00000000
00010000
00000000
00000000
00011000
00000000
00000000
00002020
00000000
,  // measure 48
00000000
00000000
00003030
00000000
00000010
00000000
00000000
00000000
00000100
00000000
00000000
00001100
00000000
00000000
00022000
00000000
,  // measure 49
00000000
00000000
00033000
00000000
00100000
00000000
00000000
00000000
00001000
00000000
00000000
00011000
00000000
00000000
00220000
00000000
,  // measure 50
00000000
00000000
00330000
00000000
00100000
00000000
00000000
00000000
01000000
00000000
00000000
01010000
00000000
00000000
00022000
00000000
,  // measure 51
00000000
00000000
00033000
00000000
00001000
00000000
00000100
00000000
00000001
00000000
00000100
00000010
00000000
00000000
00000110
00000000
,  // measure 52
00000001
00000000
00000100
00000000
00001000
00000000
00010000
00000000
01000000
00000000
10000000
00100000
00000000
00000000
10010000
00000000
,  // measure 53
10000000
00000000
00100000
00000000
10000000
00000000
01000000
00000000
00000000
00000000
00000000
01010000
00000000
00000000
00011000
00000000
,  // measure 54
00001000
00000100
00000001
00000010
00001000
00010000
00100000
00010000
,  // measure 55
00022000
00000000
00000000
00000000
,  // measure 56
00000000
00000000
00000000
00033000
;

//---------------dance-double - NewbStepper-DDP----------------
#NOTEDATA:;
#CHARTNAME:NewbStepper-DDP;
#STEPSTYPE:dance-double;
#DESCRIPTION:NewbStepper-DDP;
#DIFFICULTY:Medium;
#METER:10;
#RADARVALUES:0.359206,0.424424,0.151580,0.106998,0.093623,282,265,17,12,0,0,0,0,0,0.359206,0.424424,0.151580,0.106998,0.093623,282,265,17,12,0,0,0,0,0;
#CREDIT:NewbStepper;
#NOTES:
00000000
00000000
00000000
00000000
,
00000000
00000000
00000000
00000000
,
00000000
00000000
00000000
00000000
,
00000000
00000000
00000000
00000000
,
00000000
00000000
00000000
00000000
,
10000000
00000000
00010000
00010000
00000000
01000000
00100000
00010000
,
00000000
00010000
00000000
00010000
00001000
00000100
00000010
00000100
,
00000001
00000000
00001000
00001000
00000000
00000100
00000010
00001000
,
00000000
00001000
00000000
00001000
00010000
01000000
00100000
00000000
,
01000000
10010000
00100000
10010000
,
01000000
10000000
00100000
00010000
00001000
00000000
00011000
00000000
,
00000100
00001001
00000010
00001001
,
00000100
00000001
00000010
00001000
00010000
00000000
00011000
00000000
,
00100000
10000000
00010000
00000000
00100000
00010000
10000000
00000000
,
01000000
00000000
00010000
00000000
00001000
00010000
00011000
00000000
,
00000010
00000001
00001000
00000000
00000010
00001000
00000001
00000000
,
00000100
00001000
00010000
00001000
00010000
00000000
00000000
00000000
,
00200000
00000000
10300000
00000000
02000000
00000000
03010000
00001000
,
00000020
00000000
00000031
00000000
00000200
00000000
00001300
00010000
,
00100000
00000000
10000000
00000000
00010000
01000000
00100000
00010000
,
00001000
00000000
00000010
00000001
00001000
00000010
00000100
00000000
,
00001001
00000000
00000001
00000000
00001000
00000100
00000010
00001000
,
00010000
00100000
20020000
30030000
,
00100000
00000000
00010000
00000000
10000000
01000000
00010000
00000000
,
00001000
00000000
00100000
00010000
00001000
00000100
00000010
00000000
,
00000001
00000000
00000100
00000010
00001000
00000000
00000001
00000100
,
00001000
00000000
00010000
01000000
10000000
01000000
00010000
00000000
,
00000010
00000000
00001000
00000000
00000001
00000100
00001000
00000000
,
00010000
00000000
00000010
00001000
00010000
01000000
00100000
00000000
,
10000000
00000000
01000000
00100000
00010000
00000000
10000000
01000000
,
00010000
00000000
00001000
00000100
00000001
00000100
00001000
00000000
,
00022000
00000000
00000000
00033000
,
00000000
00000000
00000000
00000000
,
00000000
00000000
00000000
00000000
,
00000000
00000000
00000000
00000000
,
00100000
10000000
00100000
00000000
10000000
01000000
10000000
00000000
,
01000000
00010000
01000000
00000000
00010000
00001000
00010000
00000000
,
00001000
00000010
00001000
00000010
00000001
00000100
00000010
00010000
,
00002000
00000000
00020000
00033000
,
00100000
00000000
00000000
01000000
00000000
00000000
01100000
00000000
00000000
00000000
00000000
00010000
00000000
00000000
00010000
00000000
,
00000000
00000000
00000000
00001000
00000000
00000000
00001000
00000000
00001000
00000000
00000100
00000000
00000001
00000000
00000100
00000000
,
00000010
00000000
00000000
00000100
00000000
00000000
00000110
00000000
00000000
00000000
00000000
00001000
00000000
00000000
00001000
00000000
,
00000000
00000000
00000000
00010000
00000000
00000000
00010000
00000000
00010000
00000000
01000000
00000000
10000000
00000000
01000000
00000000
,
00000000
00010000
00000000
00000000
00100000
00000000
00000000
01000000
00000000
00000000
00010000
00000000
00000000
00001000
00000000
00000000
,
00000100
00000000
00000000
00000001
00000000
00000000
00000010
00000000
00000010
00000000
00000001
00000000
00000100
00000000
00001000
00000000
,
00000000
00010000
00000000
00000000
00100000
00000000
00000000
10000000
00000000
00000000
01000000
00000000
00000000
10000000
00000000
00000000
,
00100000
00000000
00000000
00010000
00000000
00000000
00001000
00000000
00100000
00000000
00010000
00000000
00100000
00000000
00001000
00000000
,
00010000
00000000
00000100
00000000
00010000
00000000
00000100
00000000
00000010
00000000
00000000
00000001
00000000
00000000
00000100
00000000
,
00001000
00000000
00010000
00000000
00001000
00000000
00010000
00000000
01000000
00000000
00000000
00100000
00000000
00000000
00110000
00000000
,
00001000
00000000
01000000
00000000
00001000
00000000
01000000
00000000
00100000
00000000
00000000
10000000
00000000
00000000
01000000
00000000
,
00010000
00000000
00001000
00000000
00010000
00000000
00001000
00000000
00000100
00000000
00000000
00000010
00000000
00000000
00001010
00000000
,
00000000
00000000
00000000
00000000
00000001
00000000
00000100
00000000
00001000
00000000
00000000
00010000
00000000
00000000
00011000
00000000
,
00001000
00000000
00100000
00000000
01000000
00000000
10000000
00000000
00010000
00000000
00000000
01000000
00000000
00000000
01100000
00000000
,
00100000
00000000
10000000
00000000
00100000
00000000
10000000
00000000
00000000
00000000
00000000
01000000
00000000
00000000
00100000
00000000
,
00010000
01000000
00001000
00010000
00000100
00001000
00000001
00000000
,
00002002
00000000
00000000
00000000
,
00003003
00000000
00000000
00000000
;

//---------------dance-double - NewbStepper-BDP----------------
#NOTEDATA:;
#CHARTNAME:NewbStepper-BDP;
#STEPSTYPE:dance-double;
#DESCRIPTION:NewbStepper-BDP;
#DIFFICULTY:Easy;
#METER:5;
#RADARVALUES:0.193615,0.227704,0.017833,0.098081,0,152,150,2,11,0,0,0,0,0,0.193615,0.227704,0.017833,0.098081,0,152,150,2,11,0,0,0,0,0;
#CREDIT:NewbStepper;
#NOTES:
00000000
00000000
00000000
00000000
,
00000000
00000000
00000000
00000000
,
00000000
00000000
00000000
00000000
,
00000000
00000000
00000000
00000000
,
00000000
00000000
00000000
00000000
,
00000001
00001000
00000001
00000000
,
00000010
00000100
00000010
00000001
,
00001000
00000001
00001000
00000000
,
00000010
00010000
00001000
00000000
,
00100000
00100000
00010000
00010000
,
10000000
10000000
00100000
00100000
,
01000000
01000000
00001000
00001000
,
00010000
00010000
00000100
00000100
,
00001000
00000001
00000100
00000010
,
00001000
00000100
00010000
00001000
,
00100000
00010000
01000000
00100000
,
10000000
00010000
00100000
01000000
,
20000000
30000000
00020000
00030000
,
02000000
03000000
00002000
00003000
,
00010000
00010000
00001000
00000000
,
00000010
00000010
00001000
00000000
,
00010000
00010000
00001000
00000000
,
00100000
00100000
01000000
00000000
,
00010000
00001000
00000100
00000010
,
00001000
00000100
00000010
00000001
,
00000100
00001000
00010000
01000000
,
10000000
00010000
01000000
00100000
,
10000000
01000000
00010000
00001000
,
00100000
00010000
00100000
00001000
,
00010000
00000010
00001000
00000010
,
00000100
00000001
00000010
00001000
,
00020000
00000000
00000000
00030000
,
00000000
00000000
00000000
00000000
,
00000000
00000000
00000000
00000000
,
00000000
00000000
00000000
00000000
,
00000001
00000100
00000001
00000100
,
00000010
00001000
00000010
00001000
,
00000100
00010000
00000100
00010000
,
00002000
00000000
00000000
00003000
,
00100000
00000000
00000000
00100000
00000000
00000000
00000000
00001000
,
00000000
00000000
00000000
00010000
00000000
00000000
00000000
00000000
,
00000010
00000000
00000000
00000010
00000000
00000000
00000000
00010000
,
00000000
00000000
00000000
00001000
00000000
00000000
00000000
00000000
,
00100000
00000000
00010000
00000000
,
10000000
00000000
00100000
00000000
,
01000000
00000000
00010000
00000000
,
00100000
00000000
00002000
00003000
,
00010000
00010000
00001000
00000010
,
00000001
00000001
00000100
00000010
,
00001000
00001000
00000001
00000100
,
00001000
00010000
00010000
00000000
,
00001000
00010000
00100000
01000000
,
00010000
00100000
01000000
10000000
,
00100000
01000000
00000000
00000000
,
02200000
00000000
00000000
03300000
,
20020000
00000000
00000000
00000000
,
00000000
00000000
00000000
30030000
;
