#TITLE:M4K3 1T B0UNC3;
#ARTIST:kors k;
#TITLETRANSLIT:MAKE IT BOUNCE;
#BANNER:M4K3 1T B0UNC3.png;
#BACKGROUND:M4K3 1T B0UNC3-bg.png;
#MUSIC:M4K3 1T B0UNC3.ogg;
#OFFSET:1.282;
#SAMPLESTART:86.718;
#SAMPLELENGTH:15;
#DISPLAYBPM:75:150;
#BPMS:0=150,48=300,51=150,79.5=300,80.5=150,111=75,112.5=300,114.5=150,144.5=75,145=150,146=75,149=300,150=150,211=300,214=150,242=75,243=300,244=150,277=75,280=300,281=150;
#STOPS:48=1,79.5=0.2,149=0.2,211=1,243=0.2,280=0.2;
#BGCHANGES:3.25=M4K3 1T B0UNC3.avi=1=0=0=0=StretchNoLoop====,99999=-nosongbg-=1=0=0=0 // don't automatically add -songbackground-;

//---------------dance-single - NewbStepper-bSP----------------
#NOTES:
     dance-single:
     NewbStepper:
     Beginner:
     4:
     0.186684,0.266162,0.059788,0.034164,0,153,146,7,4,0,0,0.186684,0.266162,0.059788,0.034164,0,153,146,7,4,0,0:
0000
0000
0000
0000
,
0000
0000
0000
0000
,
0000
0000
0000
0000
,
0000
0000
0000
0000
,
0000
0000
0000
0000
,
0000
0001
0000
0000
,
1000
0000
0100
0100
,
0000
1000
0000
0001
,
0000
0100
0000
0001
,
0000
0010
0000
0100
,
0000
1000
0000
0010
,
0000
0100
0000
0001
,
0000
0000
0000
0000
,
1000
0000
0000
0001
,
0000
0100
0100
0001
,
0000
1000
0000
0010
,
0010
1000
1000
0001
,
1000
0000
0001
0000
,
0100
0010
0010
0010
,
0000
1000
0000
0100
,
0000
0000
0000
0000
,
1000
0000
0001
0000
,
1000
0001
0000
0010
,
0000
0001
0000
0010
,
0001
1000
0010
1000
,
0000
0001
0000
0010
,
0001
0000
0100
0010
,
0000
1000
0000
0001
,
0000
0000
0000
0000
0000
0000
0000
1000
,
0000
0002
0000
0000
0000
0000
0000
0003
,
0000
0000
0000
0110
0000
0000
0000
0001
,
0000
2000
0000
0000
0000
0000
0000
3000
,
0000
0000
0000
0110
0000
0000
0000
1000
,
0000
0002
0000
0000
0000
0000
0000
0003
,
0000
0000
0000
0110
0000
0000
0000
2000
,
0000
0000
0000
0000
0000
0000
0000
3000
,
0000
0001
0010
0000
,
0000
0000
0000
0000
,
0001
0010
0000
0100
,
0000
1000
0100
0000
,
1000
0010
0000
0100
,
0000
0001
0100
0000
,
0001
0100
0000
0010
,
0000
1000
0010
0000
,
1000
0100
0000
0010
,
0000
0001
0010
0001
,
0000
1001
0000
0110
,
0000
1000
0001
1000
,
0000
1001
0000
0110
,
0000
0001
1000
0001
,
0000
1000
0000
0100
,
0000
0010
0000
0001
,
0000
0100
0000
0000
,
0000
0000
0000
0001
,
0010
0100
1000
0000
,
0001
0001
0000
1000
,
0010
0100
0001
0000
,
1000
1000
0000
0001
,
0100
0010
1000
0000
,
0001
0001
0000
1000
,
0010
0100
0001
0000
,
0000
0000
0001
0100
,
0010
1000
0000
0100
,
0100
0000
1000
0100
,
0010
0001
0000
0100
,
0100
0000
0001
0010
,
0100
1000
0000
0010
,
0010
0000
1000
0010
,
0100
0001
0000
0010
,
0010
1000
0000
0000
;

//---------------dance-single - NewbStepper-BSP----------------
#NOTES:
     dance-single:
     NewbStepper:
     Easy:
     9:
     0.391670,0.450009,0.153740,0.204986,0.029894,321,303,18,24,0,0,0.391670,0.450009,0.153740,0.204986,0.029894,321,303,18,24,0,0:
0000
0000
0000
0000
,
0000
0000
0000
0000
,
0000
0000
0000
0000
,
0000
0000
0000
0000
,
0000
0000
0000
0000
,
0000
0001
0001
0001
,
1000
0100
0020
0000
,
0032
0000
0203
0000
,
0320
0000
1030
0001
,
0101
0100
0110
0010
,
1010
1000
1100
0100
,
0010
0001
0100
0000
0010
1000
0100
0000
,
0110
1001
0000
1000
,
0100
0000
0010
0000
0001
0100
0001
0100
,
0010
0100
0010
0000
0100
0000
0001
0000
,
0010
0000
0100
0000
1000
0100
0001
0000
,
0100
1000
0010
0100
0001
0000
1000
0000
,
0001
0000
0100
0000
0010
0000
1000
0100
,
1000
0100
0010
0100
0010
0000
0100
0000
,
1000
0010
0100
0001
,
0000
0000
0000
0000
1001
0000
1000
0100
,
0010
0000
0001
0000
0100
0000
0010
1000
,
0010
0000
0100
0001
0100
0010
0100
0000
,
0001
0000
0010
0000
1000
0000
0010
0001
,
0010
0100
1000
0000
0101
0000
0001
0100
,
0010
0000
1000
0000
0100
0000
0010
0001
,
0010
0000
0100
1000
0100
0010
0100
0000
,
1000
0010
0001
0020
,
0000
1030
0000
0000
0000
0000
0000
0001
,
0000
0200
0000
0320
0000
2030
0000
3200
,
0000
0310
0001
0010
0000
0100
0000
1000
,
0000
0200
0000
0320
0000
0032
0000
0203
,
0000
0310
1000
0010
0000
0100
0000
0001
,
0000
0020
0000
0230
0000
2300
0000
3020
,
0000
0130
0001
0100
0000
0010
0000
1000
,
0000
0020
0000
0230
0000
0302
0000
0023
,
0000
0130
1000
0000
0002
0000
0000
0000
,
0000
0003
1001
0000
,
1000
0000
0010
0100
0000
0010
1000
0000
,
0100
0000
0010
0000
0001
0100
0000
0000
,
0001
0000
1000
0010
0000
0100
0010
1000
,
0010
0000
0100
0000
0001
1000
0000
0000
,
0001
0000
0010
0100
0000
0010
0001
0000
,
0100
0000
0010
0000
1000
0100
0000
0000
,
1000
0000
0001
0010
0000
0100
0010
0001
,
0010
0000
0100
0000
1000
0001
0000
0000
,
1001
0000
0100
0000
0010
0000
1000
0010
,
1000
0000
0001
0000
0010
0001
0000
0000
,
1001
0000
0100
0000
0010
0000
0001
0010
,
0001
0000
1000
0000
0010
1000
0010
0000
,
0100
0001
0100
0000
0010
0100
0010
0000
,
1000
0001
1000
0000
1100
0000
0001
0000
,
0101
0110
1010
0000
,
1001
0000
1000
0100
,
0010
0000
0001
0000
0100
0001
0100
0001
,
0010
0000
0000
0100
0000
0000
0010
0000
0001
0000
0000
0000
0100
0000
0000
0000
,
0010
0000
1000
0000
0100
1000
0100
1000
,
0010
0000
0000
0100
0000
0000
0010
0000
0000
0000
0000
0000
1000
0000
0000
0000
,
0001
0000
0010
0000
0100
1000
0100
0001
,
0100
0000
0000
0010
0000
0000
0100
0000
1000
0000
0000
0000
0001
0000
0000
0000
,
1000
0010
0200
0310
,
0000
0000
1001
0000
0010
0001
0010
0000
,
0001
0000
0100
0000
0010
0000
0100
0000
0001
0000
0100
0000
0010
0000
0000
0010
,
0000
0100
0000
0000
0010
1000
0010
0000
,
1000
0000
0100
0000
0010
0000
0100
0000
1000
0000
0100
0000
0010
0000
0000
0010
,
0000
0100
0000
0000
1000
0100
0010
0000
,
0001
0000
0100
0000
0010
0000
0100
0000
0001
0000
0100
0000
0010
0000
0000
0010
,
0000
1000
0000
0000
0001
0100
0010
0000
,
1000
0000
0100
0000
0010
0000
0100
0000
1000
0000
0100
0000
0010
0000
0000
0010
,
0000
0001
2000
0000
0000
0000
0000
0000
,
3000
1001
0000
0000
;

//---------------dance-single - NewbStepper-DSP----------------
#NOTES:
     dance-single:
     NewbStepper:
     Medium:
     12:
     0.525887,0.540011,0.273315,0.204986,0.187904,431,399,32,24,0,0,0.525887,0.540011,0.273315,0.204986,0.187904,431,399,32,24,0,0:
0000
0000
0000
0000
,
0000
0000
0000
0000
,
0000
0000
0000
0000
,
0000
0000
0000
0000
,
0000
0000
0000
0000
,
0000
1000
0100
0010
,
0001
0100
0010
1100
,
0010
0101
1000
0110
,
0001
0110
1000
1001
,
0001
0100
0001
0000
0100
1000
0100
0000
,
1000
0010
1000
0000
0010
0001
0010
0000
,
0001
0100
0010
0100
1000
0100
0001
0010
,
0000
0000
1001
0000
0000
0000
1000
0010
,
1000
0000
0000
0000
0100
0000
0000
0100
0010
0000
0001
0000
0100
0000
1000
0000
,
0001
0000
0010
0000
1000
0000
0100
0000
0100
0000
0000
0000
0010
0000
0000
0010
,
0001
0000
0000
0001
0100
0000
0000
0100
0010
0000
1000
0000
0010
0000
0100
0000
,
0010
0000
0001
0000
0010
0000
0000
1000
0000
0000
0100
0000
0010
0000
0000
0000
,
0001
0000
0000
0001
1000
0000
0000
1000
0010
0000
0100
0000
0010
0000
0000
0010
,
1000
0000
0100
0000
0001
0000
0100
0000
1000
0000
0010
0000
1000
0000
0000
1000
,
0001
0000
0000
0000
0000
0000
0000
0000
0000
0000
0000
0000
0001
0000
0000
0000
0010
0000
0000
0000
0000
0000
0000
0000
0000
0000
0000
0000
0010
0000
0000
0000
0100
0000
0000
0000
0000
0000
0000
0000
1000
0000
0000
0000
0000
0000
0000
0000
2020
0000
0000
0000
0000
0000
0000
0000
0000
3030
0000
0000
0000
0000
0000
0000
,
0000
0000
0001
0000
0000
0001
0000
0000
0001
0000
0000
0000
0010
0000
0001
0000
,
0100
0000
0010
0000
1000
0000
0000
0001
0000
0000
1000
0000
0100
0000
0001
0000
,
0100
1000
0010
0010
0100
0000
0010
1000
,
0100
0000
0010
0000
0001
0000
0000
1000
0000
0000
0001
0000
0100
0000
1000
0000
,
0100
0001
0010
0010
0100
0000
1000
0010
,
1000
0000
0010
0000
0100
0000
0000
1000
0000
0000
0100
0000
0001
0000
0010
0000
,
1000
0010
0001
0100
0010
0000
1000
0000
,
0001
0100
0010
1000
0100
0010
0002
1000
,
0103
0110
0000
0000
0000
0010
0000
1000
,
0001
0100
0100
0100
0100
0010
0010
0010
,
0010
1000
0001
0010
0000
0110
0000
0001
,
1000
0000
0000
0200
0000
0000
0000
0320
0000
0000
0000
0230
0000
0000
0000
2300
0000
0000
0000
3020
0000
0000
0000
0230
,
0000
0301
1000
1001
0000
0010
0000
0001
,
1000
0100
0100
0100
0100
0010
0010
0010
,
0010
0001
1000
0010
0000
0110
0000
1000
,
0001
0000
0000
0200
0000
0000
0000
0320
0000
0000
0000
0230
0000
0000
0000
0302
0000
0000
0000
0023
0000
0000
0000
0230
,
0000
1300
1001
0000
0220
0000
0000
0000
,
0000
0330
1001
0000
,
0010
0000
0010
0000
0010
0000
1000
0000
0000
0000
0100
0000
0010
0000
0000
0001
,
0000
0000
0100
0000
0010
0000
0000
1000
0000
0000
0100
0000
0000
0000
0000
0000
,
0010
0000
0010
0000
0010
0000
0001
0000
0000
0000
1000
0000
0010
0000
0000
0001
,
0000
0000
0010
0000
1000
0000
0000
0100
0000
0000
0010
0000
0000
0000
0000
0000
,
0001
0000
0001
0000
0001
0000
0100
0000
0000
0000
1000
0000
0100
0000
0000
0001
,
0000
0000
0100
0000
0010
0000
0000
1000
0000
0000
0100
0000
0000
0000
0000
0000
,
1000
0000
1000
0000
1000
0000
0100
0000
0000
0000
0001
0000
0100
0000
0000
1000
,
0000
0000
0100
0000
0010
0000
0000
0001
0000
0000
0100
0000
0110
0000
0000
0000
,
1000
0000
0010
0100
0001
0010
1000
0010
,
0001
0000
0100
0000
0010
0000
0000
1000
0000
0000
0100
0000
0110
0000
0000
0000
,
0001
0000
0010
0100
1000
0010
0001
0010
,
1000
0000
0100
0000
0010
0000
0000
0001
0000
0000
1000
0000
0010
0000
1000
0000
,
0010
0100
0001
0100
0001
0010
0100
0010
,
0100
1000
0100
0010
0001
0100
0010
2000
,
0000
3020
0000
0000
0230
0000
0000
0302
0000
0000
0013
0000
0000
0000
0000
0000
,
0110
0000
0000
0000
1000
0001
1000
0100
,
0010
0001
0100
1000
0001
0010
1000
0100
,
0010
0000
0000
0010
0000
0000
0010
0000
0000
0000
0000
0000
0001
0000
0100
0000
,
0010
1000
0100
0001
1000
0010
0001
0100
,
0010
0000
0000
0010
0000
0000
0010
0000
1000
0000
0000
0000
0001
0000
0100
0000
,
0010
1000
0100
0010
0001
0100
1000
0100
,
0001
0000
0000
1000
0000
0000
0010
0000
0000
0000
0000
0000
1000
0000
0100
0000
,
0010
0001
0100
0010
2000
0001
3010
0000
,
0110
0000
0000
0000
1000
0001
0000
0000
0010
0000
0001
0000
0010
0000
0100
0000
,
1000
0000
0010
0000
0001
0000
1000
0000
0100
0000
0001
0000
0011
0000
0000
0101
,
0000
0110
0000
0000
0010
1000
0010
0100
,
0001
0000
0010
0000
1000
0000
0001
0000
0100
0000
1000
0000
1010
0000
0000
1100
,
0000
0110
0000
0000
0001
0100
0010
0100
,
1000
0000
0001
0000
0010
0000
1000
0000
0100
0000
0001
0000
0101
0000
0000
1100
,
0000
0110
0000
0000
1000
0100
0010
0100
,
0001
0000
1000
0000
0010
0000
0001
0000
0100
0000
1000
0000
1100
0000
0000
0101
,
0000
1010
0220
0000
0000
0000
0000
0000
,
0330
1001
0000
0000
;

//---------------dance-single - NewbStepper-ESP----------------
#NOTES:
     dance-single:
     NewbStepper:
     Hard:
     15:
     0.784561,0.870017,0.828486,0.179363,0.764428,643,546,97,21,0,0,0.784561,0.870017,0.828486,0.179363,0.764428,643,546,97,21,0,0:
0000
0000
0000
0000
,
0000
0000
0000
0000
,
0000
0000
0000
0000
,
0000
0000
0000
0000
,
0000
0000
0000
0000
,
0000
0011
0100
1000
,
0010
0000
0000
0000
0100
0000
0000
0000
0001
0000
0000
0010
0000
0000
0100
0000
,
1000
0000
0000
0010
0000
0000
0100
0000
0001
0000
0000
0010
0000
0000
1000
0000
,
0010
0000
0000
0001
0000
0000
0100
0000
0010
0000
0000
0000
1001
0000
0000
0000
,
1000
1000
0100
0100
0010
0010
0001
0001
,
0101
0100
0010
1000
1100
0100
0110
0000
,
0001
0000
0100
0000
0010
0000
1000
0000
0100
0010
0001
0100
0010
1000
0100
0010
,
0000
0000
0110
0000
0000
0000
0011
0100
,
1000
0000
0000
0000
1010
0000
0000
0010
0100
0000
1000
0000
0100
0000
0001
0000
,
0010
0000
0001
0100
0010
0000
0000
0110
0000
0000
1001
0000
1010
0000
0000
0010
,
0100
0000
0000
0100
0001
0000
0000
0001
0010
0000
1000
0000
0010
0000
0001
0000
,
0100
0100
0110
0010
1010
1000
1010
0100
,
0001
0000
0000
0000
0011
0000
0000
0010
0100
0000
0001
0000
0100
0000
1000
0000
,
0010
0000
1000
0100
0010
0000
0000
0110
0000
0000
1001
0000
0011
0000
0000
0010
,
0100
0000
0000
0000
0000
0000
0000
0000
0000
0000
0000
0000
0100
0000
0000
0000
1000
0000
0000
0000
0000
0000
0000
0000
0000
0000
0000
0000
1000
0000
0000
0000
0010
0000
0000
0000
0000
0000
0000
0000
0100
0000
0000
0000
0000
0000
0000
0000
0220
0000
0000
0000
0000
0000
0000
0000
0000
0330
0000
0000
0000
0000
0000
0000
,
0000
0000
1001
0000
0000
1001
0000
0000
1001
0000
0000
0000
0010
1000
0010
0000
,
0110
0000
0100
0000
0101
0000
0001
0010
1000
0000
0010
0000
0001
0100
0000
0001
,
0100
0000
0010
0000
0110
0000
0000
0110
0000
0000
0110
0000
1001
0000
0100
0000
,
0011
0000
0100
0000
1010
0000
1000
0100
0000
0010
0100
0000
1000
0010
0000
0000
,
0110
0000
0100
0001
0010
0000
0010
0000
0110
0000
0000
0000
1001
0000
0010
0000
,
0110
0000
0100
0000
1100
0000
1000
0010
0001
0000
0010
0000
1000
0100
0000
1000
,
0100
0000
0010
0000
0110
0000
0000
0110
0000
0000
0110
0000
1001
0000
0100
0000
,
1010
0000
0100
0000
0011
0000
0001
0100
0000
0010
0100
0000
0002
0000
1000
1000
,
1003
0000
1100
0000
0000
0000
0000
0000
0000
0000
0011
0000
0000
0010
0100
0000
,
1000
0000
0000
0001
0000
0100
0000
0010
0000
1000
0000
0100
0000
0001
0000
0100
0000
1000
0000
0001
0000
0100
0000
0010
,
0000
0000
1000
0000
0000
0000
0100
0000
0000
0000
0000
0000
0010
0000
0000
0000
0000
0000
0110
0000
0000
0000
0000
0000
0000
0000
0000
0000
0000
0000
1001
0000
0000
0000
0000
0000
0000
0000
0000
1000
0000
0000
0100
0000
0000
0000
0000
0000
,
1100
0000
0000
0020
0000
0000
0000
0032
0000
0000
0000
0203
0000
0000
0000
0320
0000
0000
0000
2030
0000
0000
0000
3200
,
0000
0000
0310
0000
0100
0000
1001
0000
0000
0000
1010
0000
0000
0010
0100
0000
,
0001
0000
0000
1000
0000
0100
0000
0010
0000
0001
0000
0100
0000
1000
0000
0100
0000
0001
0000
1000
0000
0100
0000
0010
,
0000
0000
0001
0000
0000
0000
0100
0000
0000
0000
0000
0000
0010
0000
0000
0000
0000
0000
0110
0000
0000
0000
0000
0000
0000
0000
0000
0000
0000
0000
1001
0000
0000
0000
0000
0000
0000
0000
0000
0001
0000
0000
0100
0000
0000
0000
0000
0000
,
0101
0000
0000
0020
0000
0000
0000
2030
0000
0000
0000
3200
0000
0000
0000
0320
0000
0000
0000
0032
0000
0000
0000
0203
,
0000
0310
1010
0000
0220
0000
0000
0000
,
0000
0330
1001
0000
,
1000
0000
1000
0000
0001
0000
0200
0000
0000
0000
0310
0000
1000
0000
0100
0010
,
0100
0000
1000
0000
0101
0000
0000
0110
0000
0000
1010
0000
0000
0000
0000
0000
,
0001
0100
0001
0100
0010
0000
1000
0100
0000
0000
0001
0000
0100
1000
0000
0100
,
0010
0000
0001
0000
0101
0000
0000
1010
0000
0000
1001
0000
0000
0000
0000
0000
,
0010
1000
0001
0000
0010
0000
0001
0100
0000
0000
1000
0000
0100
0010
0000
0100
,
0010
0000
1000
0000
1010
0000
0000
0110
0000
0000
0101
0000
0000
0000
0000
0000
,
1000
0100
1000
0100
0010
0000
0001
0100
0000
0000
1000
0000
0100
0001
0100
0010
,
1000
0000
0001
0000
0101
0000
0000
1010
0000
0000
1001
0000
1010
0000
0000
0000
,
0100
0010
0100
0010
0100
0000
0001
0010
0100
0000
1000
0000
0001
0100
0000
1000
,
0100
0000
0010
0000
1000
0000
0100
0010
0000
0100
1000
0000
0001
0000
0000
0000
,
0100
0010
0100
0000
0001
0000
1000
0100
0010
0000
0001
0000
1000
0001
0100
0001
,
1000
0000
0001
0000
0110
0000
0000
1010
0000
0000
0101
0000
1000
0000
0100
0001
,
0000
0100
1000
0000
0001
0000
0100
1000
0000
0100
0001
0000
1000
0000
1000
0000
,
0100
0000
0100
0000
0010
0000
0010
0000
0001
0000
0001
0000
0100
0001
0100
0000
,
0010
1000
0010
0000
0100
0010
1000
0100
0010
0001
0100
0010
0000
0000
0000
0000
,
0110
0000
0000
0000
0000
0000
0000
0000
1010
0000
0100
0000
0001
1000
0010
0000
,
1000
0010
0100
0000
0001
0100
0010
0000
1000
0100
0010
0001
0100
0010
1000
0000
,
1010
0000
0000
1010
0000
0000
0101
0000
0011
0000
0100
0000
1000
0001
0010
0000
,
0001
0010
0100
0000
1000
0100
0010
0000
0001
0100
0010
1000
0100
0010
0001
0000
,
0011
0000
0000
0011
0000
0000
1100
0000
1010
0000
0000
0000
0100
0010
0100
0000
,
0001
1000
0001
0000
0010
0100
1000
0000
0010
0100
0001
1000
0100
0010
0001
0100
,
0010
0000
0000
0110
0000
0000
1001
0000
0011
0000
0000
0000
0100
0010
0100
0000
,
1000
0001
1000
0000
0010
0100
0001
0000
0020
0100
0100
0100
0130
0000
0000
0000
,
0110
0000
0000
0000
1000
0100
0000
0000
0010
0001
0010
0001
1000
0010
1000
0010
,
0100
0001
0100
0001
1000
0100
1000
0100
0010
0001
0010
0100
0010
0000
0000
0110
,
0000
0000
0110
0000
1001
0000
0000
0000
0010
1000
0010
1000
0001
0010
0001
0010
,
0100
1000
0100
1000
0001
0100
0001
0100
0010
1000
0010
0100
0010
0000
0000
1010
,
0000
0000
0101
0000
1001
0000
0000
0000
1000
0100
1000
0100
0010
0001
0010
0001
,
1000
0100
0010
0001
1000
0010
0100
0001
0010
0100
1000
0001
0100
0000
0000
0101
,
0000
0000
1100
0000
1001
0000
0000
0000
0001
0100
0001
0100
0010
1000
0010
1000
,
0001
0100
0010
1000
0001
0010
0100
1000
0010
0100
0001
1000
0100
0000
0000
1100
,
0000
0101
0220
0000
0000
0000
0000
0000
,
0330
1001
0000
0000
;

//---------------dance-double - NewbStepper-BDP----------------
#NOTES:
     dance-double:
     NewbStepper:
     Easy:
     9:
     0.386790,0.450009,0.153740,0.204986,0.029894,317,299,18,24,0,0,0.386790,0.450009,0.153740,0.204986,0.029894,317,299,18,24,0,0:
00000000
00000000
00000000
00000000
,
00000000
00000000
00000000
00000000
,
00000000
00000000
00000000
00000000
,
00000000
00000000
00000000
00000000
,
00000000
00000000
00000000
00000000
,
00000000
00001000
00001000
00001000
,
01000000
00100000
00020000
00000000
,
00032000
00000000
00203000
00000000
,
02300000
00000000
13000000
00010000
,
01010000
01000000
01100000
00100000
,
10100000
10000000
11000000
01000000
,
00010000
00001000
00010000
00000000
00001000
00000010
00001000
00000000
,
00011000
00011000
00000000
00010000
,
00001000
00000000
00000100
00000000
00000001
00000100
00000001
00000100
,
00000010
00000100
00000010
00000000
00000100
00000000
00001000
00000000
,
00010000
00000000
00100000
00000000
00010000
00000000
00001000
00100000
,
00001000
00000000
00010000
00100000
01000000
00000000
00000000
00000000
,
00001000
00000000
00010000
00000000
01000000
00000000
10000000
01000000
,
10000000
01000000
00100000
01000000
00100000
00000000
01000000
00000000
,
00010000
00001000
00000010
00001000
,
00000000
00000000
00000000
00000000
00011000
00000000
00100000
00010000
,
10000000
00000000
01000000
00000000
00010000
00000000
00001000
00010000
,
00001000
00000000
00000100
00000010
00000100
00000001
00000100
00000000
,
00000001
00000000
00000010
00000000
00001000
00000000
00000010
00000100
,
00000010
00001000
00010000
00000000
00011000
00000000
00000010
00001000
,
00000001
00000000
00000100
00000000
00001000
00000000
00010000
00001000
,
00010000
00000000
01000000
00100000
01000000
10000000
01000000
00000000
,
10000000
00100000
00010000
00002000
,
00000000
00013000
00000000
00000000
00000000
00000000
00000000
00001000
,
00000000
00000200
00000000
00000302
00000000
00000023
00000000
00000230
,
00000000
00001300
00000010
00001000
00000000
00000100
00000000
00010000
,
00000000
02000000
00000000
23000000
00000000
30200000
00000000
02300000
,
00000000
03010000
00100000
00010000
00000000
01000000
00000000
00001000
,
00000000
00000020
00000000
00000032
00000000
00000203
00000000
00000320
,
00000000
00001030
00000100
00001000
00000000
00000010
00000000
00010000
,
00000000
00200000
00000000
20300000
00000000
32000000
00000000
03200000
,
00000000
00310000
01000000
00000000
00002000
00000000
00000000
00000000
,
00000000
00003000
00011000
00000000
,
00010000
00000000
00000010
00000100
00000000
00000010
00001000
00000000
,
00000001
00000000
00000100
00000000
00001000
00010000
00000000
00000000
,
00001000
00000000
00100000
01000000
00000000
00100000
00010000
00000000
,
10000000
00000000
01000000
00000000
00010000
00001000
00000000
00000000
,
00010000
00000000
00000100
00000010
00000000
00000100
00001000
00000000
,
00000001
00000000
00000010
00000000
00001000
00010000
00000000
00000000
,
00001000
00000000
01000000
00100000
00000000
01000000
00010000
00000000
,
10000000
00000000
00100000
00000000
00010000
00001000
00000000
00000000
,
00011000
00000000
00000100
00000000
00000010
00000000
00000001
00000100
,
00000001
00000000
00000010
00000000
00000100
00001000
00000000
00000000
,
00011000
00000000
01000000
00000000
00100000
00000000
10000000
01000000
,
10000000
00000000
00010000
00000000
00100000
00010000
00100000
00000000
,
00001000
00010000
00001000
00000000
00010000
00000010
00010000
00000000
,
00000010
00001000
00000010
00000000
00001010
00000000
00000100
00000000
,
00000101
00001100
00011000
00000000
,
00011000
00000000
00001000
00010000
,
01000000
00000000
10000000
00000000
00100000
10000000
00100000
10000000
,
01000000
00000000
00000000
00100000
00000000
00000000
01000000
00000000
00010000
00000000
00000000
00000000
00001000
00000000
00000000
00000000
,
00000100
00000000
00000001
00000000
00000010
00000001
00000010
00000001
,
00000100
00000000
00000000
00000010
00000000
00000000
00000100
00000000
00000000
00000000
00000000
00000000
00000001
00000000
00000000
00000000
,
00001000
00000000
00000010
00000000
00000100
00000010
00000100
00001000
,
00010000
00000000
00000000
00001000
00000000
00000000
00010000
00000000
00100000
00000000
00000000
00000000
10000000
00000000
00000000
00000000
,
00100000
10000000
02000000
03100000
,
00000000
00000000
10010000
00000000
00100000
10000000
00100000
00000000
,
10000000
00000000
01000000
00000000
00100000
00000000
01000000
00000000
10000000
00000000
01000000
00000000
00010000
00000000
00000000
00010000
,
00000000
00001000
00000000
00000000
00000010
00000001
00000010
00000000
,
00000001
00000000
00000100
00000000
00000010
00000000
00000100
00000000
00000001
00000000
00000100
00000000
00001000
00000000
00000000
00001000
,
00000000
00010000
00000000
00000000
00010000
01000000
10000000
00000000
,
00100000
00000000
10000000
00000000
00010000
00000000
10000000
00000000
00100000
00000000
10000000
00000000
00010000
00000000
00000000
00010000
,
00000000
00100000
00000000
00000000
00001000
00000100
00000001
00000000
,
00000010
00000000
00000001
00000000
00001000
00000000
00000001
00000000
00000010
00000000
00000001
00000000
00001000
00000000
00000000
00001000
,
00000000
00000100
00020000
00000000
00000000
00000000
00000000
00000000
,
00030000
00011000
00000000
00000000
;

//---------------dance-double - NewbStepper-DDP----------------
#NOTES:
     dance-double:
     NewbStepper:
     Medium:
     12:
     0.503925,0.540011,0.204986,0.187904,0.140928,413,389,24,22,0,0,0.503925,0.540011,0.204986,0.187904,0.140928,413,389,24,22,0,0:
00000000
00000000
00000000
00000000
,
00000000
00000000
00000000
00000000
,
00000000
00000000
00000000
00000000
,
00000000
00000000
00000000
00000000
,
00000000
00000000
00000000
00000000
,
00000000
10000000
01000000
00100000
,
00010000
00001000
00000100
00000010
,
00000001
00000101
00001000
00001100
,
00010000
00011000
00100000
00110000
,
10000000
01000000
10000000
00000000
01000000
00010000
01000000
00000000
,
00010000
00001000
00010000
00000000
00001000
00000010
00001000
00000000
,
00000010
00000001
00000100
00001000
00010000
00100000
00010000
00001000
,
00000000
00000000
00011000
00000000
00000000
00000000
00001000
00100000
,
00001000
00000000
00000000
00000000
00100000
00000000
00000000
00100000
00010000
00000000
00001000
00000000
00010000
00000000
00100000
00000000
,
01000000
00000000
10000000
00000000
01000000
00000000
00010000
00000000
00001000
00000000
00000000
00000000
00000010
00000000
00000000
00000010
,
00000001
00000000
00000000
00000001
00000100
00000000
00000000
00000100
00001000
00000000
00010000
00000000
00001000
00000000
00000010
00000000
,
00001000
00010000
01000000
10000000
01000000
00000000
00010000
00000010
,
00010000
00000000
00000000
00000000
00000010
00000000
00000000
00000010
00001000
00000000
00010000
00000000
00001000
00000000
00000010
00000000
,
00000100
00000000
00000001
00000000
00000100
00000000
00001000
00000000
00010000
00000000
00000000
00000000
00100000
00000000
00000000
00100000
,
10000000
00000000
00000000
00000000
00000000
00000000
00000000
00000000
00000000
00000000
00000000
00000000
10000000
00000000
00000000
00000000
01000000
00000000
00000000
00000000
00000000
00000000
00000000
00000000
00000000
00000000
00000000
00000000
01000000
00000000
00000000
00000000
00010000
00000000
00000000
00000000
00000000
00000000
00000000
00000000
00001000
00000000
00000000
00000000
00000000
00000000
00000000
00000000
00020000
00000000
00000000
00000000
00000000
00000000
00000000
00000000
00000000
00030000
00000000
00000000
00000000
00000000
00000000
00000000
,
00000000
00000000
00000010
00000000
00000000
00000010
00000000
00000000
00000010
00000000
00000000
00000000
00001000
00000000
00000001
00000000
,
00000100
00000010
00000001
00000010
00001000
00000100
00010000
00001000
,
00100000
10000000
00100000
00010000
10000000
00000000
00010000
10000000
,
01000000
00100000
10000000
00100000
00010000
01000000
00001000
00010000
,
00000010
00000001
00000010
00001000
00000001
00000000
00001000
00000010
,
00001000
00000100
00000001
00000100
00001000
00000010
00001000
00010000
,
01000000
00100000
10000000
00000000
00010000
00000000
01000000
00000000
,
00100000
10000000
01000000
00010000
00001000
00000100
00000002
00001000
,
00001003
00001001
00000000
00000000
00000000
00000010
00000000
00010000
,
00001000
00100000
00010000
00001000
00000100
00000010
00000001
00000100
,
00001000
00010000
00100000
10000000
00000000
01100000
00000000
00010000
,
10000000
00000000
00000000
02000000
00000000
00000000
00000000
03020000
00000000
00000000
00000000
00032000
00000000
00000000
00000000
00003200
00000000
00000000
00000000
00002300
00000000
00000000
00000000
00023000
,
00000000
01030000
00000000
10010000
00000000
00100000
00000000
00001000
,
00010000
00000010
00001000
00010000
01000000
00100000
10000000
01000000
,
00010000
00001000
00000010
00000001
00000000
00000110
00000000
00001000
,
00000001
00000000
00000000
00000200
00000000
00000000
00000000
00002300
00000000
00000000
00000000
00023000
00000000
00000000
00000000
02030000
00000000
00000000
00000000
03020000
00000000
00000000
00000000
00032000
,
00000000
00003100
00000010
00000000
00000220
00000000
00000000
00000000
,
00000000
00000330
00001001
00000000
,
00000010
00000010
00000010
00000001
00000000
00000100
00000010
00000000
,
00001000
00000000
00000000
00000000
00010000
00000000
00000000
01000000
00000000
00000000
00100000
00000000
00000000
00000000
00000000
00000000
,
00100000
00100000
00100000
10000000
00000000
01000000
00100000
00000000
,
00010000
00000000
00000000
00000000
00001000
00000000
00000000
00000100
00000000
00000000
00000010
00000000
00000000
00000000
00000000
00000000
,
00000001
00000000
00000001
00000000
00000001
00000000
00000100
00000000
00000000
00000000
00001000
00000000
00010000
00000000
00000000
00100000
,
00000000
00000000
10000000
00000000
00010000
00000000
00000000
01000000
00000000
00000000
00100000
00000000
00000000
00000000
00000000
00000000
,
10000000
00000000
10000000
00000000
10000000
00000000
01000000
00000000
00000000
00000000
00010000
00000000
00001000
00000000
00000000
00000010
,
00000000
00000000
00000001
00000000
00001000
00000000
00000000
00000100
00000000
00000000
00000010
00000000
00000110
00000000
00000000
00000000
,
00001000
00000000
00000010
00000100
00000001
00000010
00001000
00010000
,
00100000
00000000
10000000
00000000
01000000
00000000
00000000
00010000
00000000
00000000
01000000
00000000
01100000
00000000
00000000
00000000
,
00010000
00000000
00100000
01000000
10000000
00100000
00010000
00001000
,
00000010
00000000
00000001
00000000
00000100
00000000
00000000
00001000
00000000
00000000
00000100
00000000
00000001
00000000
00000010
00000000
,
00000001
00000010
00000100
00001000
00000100
00001000
00010000
00100000
,
00010000
00100000
01000000
10000000
01000000
10000000
00200000
00000000
,
00320000
00032000
00013000
00000000
,
00011000
00000000
00000000
00000000
00010000
00001000
00000100
00000000
,
00000001
00000010
00000001
00000000
00000100
00001000
00010000
00100000
,
10000000
00000000
00000000
00010000
00000000
00000000
01000000
00000000
00001000
00000000
00010000
00000000
01000000
00000000
00000000
00000000
,
10000000
00100000
10000000
00000000
01000000
00010000
00001000
00000010
,
00000001
00000000
00000000
00001000
00000000
00000000
00000100
00000000
00000010
00000000
00000001
00000000
00000100
00000000
00000000
00000000
,
00001000
00010000
00100000
00000000
00010000
00001000
00010000
01000000
,
10000000
00000000
00000000
00010000
00000000
00000000
00100000
00000000
00000000
00000000
00000000
00000000
01000000
00000000
00000000
00000000
,
00010000
00001000
00000010
00000000
00000002
00001000
00001003
00000000
,
00001001
00000000
00000110
00000000
00000001
00000100
00001000
00000001
,
00000010
00000000
00001000
00000000
00010000
00000000
01000000
00000000
00100000
00000000
10000000
00000000
10100000
00000000
00000000
01010000
,
00000000
10010000
00000000
00000000
10000000
01000000
00010000
10000000
,
00100000
00000000
00010000
00000000
00001000
00000000
00000100
00000000
00000010
00000000
00000001
00000000
00000011
00000000
00000000
00001100
,
00000000
00001001
00000000
00000000
00000100
00010000
00001000
00000100
,
00001000
00000000
00010000
00000000
00000100
00000000
00000001
00000000
00000100
00000000
00010000
00000000
00001000
00000000
00000000
00000100
,
00000000
00001000
00000000
00000000
01000000
00001000
00010000
01000000
,
00010000
00000000
00001000
00000000
01000000
00000000
10000000
00000000
01000000
00000000
00001000
00000000
00010000
00000000
00000000
01000000
,
00000000
00100000
02200000
00000000
00000000
00000000
00000000
00000000
,
03300000
10010000
00000000
00000000
;

//---------------dance-double - NewbStepper-EDP----------------
#NOTES:
     dance-double:
     NewbStepper:
     Hard:
     15:
     0.745516,0.870017,0.649123,0.179363,0.747346,611,535,76,21,0,0,0.745516,0.870017,0.649123,0.179363,0.747346,611,535,76,21,0,0:
// measure 0
00000000
00000000
00000000
00000000
,  // measure 1
00000000
00000000
00000000
00000000
,  // measure 2
00000000
00000000
00000000
00000000
,  // measure 3
00000000
00000000
00000000
00000000
,  // measure 4
00000000
00000000
00000000
00000000
,  // measure 5
00000000
00000011
00000100
00001000
,  // measure 6
00000010
00000000
00000000
00000000
00000100
00000000
00000000
00000000
00001000
00000000
00000000
00010000
00000000
00000000
00100000
00000000
,  // measure 7
10000000
00000000
00000000
00100000
00000000
00000000
00010000
00000000
00001000
00000000
00000000
00000010
00000000
00000000
00001000
00000000
,  // measure 8
00010000
00000000
00000000
01000000
00000000
00000000
00010000
00000000
00001000
00000000
00000000
00000000
00000110
00000000
00000000
00000000
,  // measure 9
00000001
00000001
00000100
00000100
00000010
00000010
00001000
00001000
,  // measure 10
00010000
00010000
01000000
01000000
00100000
00100000
10100000
00000000
,  // measure 11
10000000
00000000
01000000
00000000
00100000
00000000
00010000
00000000
00100000
00001000
00010000
00001000
00100000
00001000
00010000
00000010
,  // measure 12
00000000
00000000
00000110
00000000
00000000
00000000
00001000
00000100
,  // measure 13
00000001
00000000
00000000
00000000
00000110
00000000
00000000
00000010
00001000
00000000
00010000
00000000
00001000
00000000
00000000
00000000
,  // measure 14
00100000
00000000
00010000
00000000
01000000
00000000
00000000
01100000
00000000
00000000
01010000
00000000
10010000
00000000
00000000
10000000
,  // measure 15
01000000
00000000
00000000
01000000
00010000
00000000
00000000
00010000
00001000
00000000
00000010
00000000
00001000
00000000
00010000
00000000
,  // measure 16
01000000
00100000
01100000
00000000
10000000
00000000
00010000
01000000
,  // measure 17
10000000
00000000
00000000
00000000
01100000
00000000
00000000
00100000
00010000
00000000
00001000
00000000
00010000
00000000
00000000
00000000
,  // measure 18
00000010
00000000
00001000
00000000
00000100
00000000
00000000
00000110
00000000
00000000
00001100
00000000
00001001
00000000
00000000
00000001
,  // measure 19
00000100
00000000
00000000
00000000
00000000
00000000
00000000
00000000
00000000
00000000
00000000
00000000
00000100
00000000
00000000
00000000
00001000
00000000
00000000
00000000
00000000
00000000
00000000
00000000
00000000
00000000
00000000
00000000
00001000
00000000
00000000
00000000
00010000
00000000
00000000
00000000
00000000
00000000
00000000
00000000
00100000
00000000
00000000
00000000
00000000
00000000
00000000
00000000
02200000
00000000
00000000
00000000
00000000
00000000
00000000
00000000
00000000
03300000
00000000
00000000
00000000
00000000
00000000
00000000
,  // measure 20
00000000
00000000
10010000
00000000
00000000
10010000
00000000
00000000
10010000
00000000
00000000
00000000
00100000
10000000
00100000
00000000
,  // measure 21
01000000
00000000
00010000
00000000
00100000
00000000
00001000
00010000
00100000
00000000
00010000
00000000
00001000
00000010
00000000
00001000
,  // measure 22
00000010
00000000
00000001
00000000
00000101
00000000
00000000
00001010
00000000
00000000
00001001
00000000
00000010
00000000
00001000
00000000
,  // measure 23
00000100
00000000
00000010
00000000
00001000
00000000
00010000
00001000
00000010
00000000
00001000
00000000
00010000
00100000
00000000
00000000
,  // measure 24
01100000
00000000
10000000
01000000
00010000
00000000
00001000
00000000
00000010
00000000
00000000
00000000
00000001
00000000
00000010
00000000
,  // measure 25
00000100
00000000
00001000
00000000
00000010
00000000
00010000
00001000
00000010
00000000
00001000
00000000
00010000
00100000
00000000
00010000
,  // measure 26
00100000
00000000
10000000
00000000
11000000
00000000
00000000
00110000
00000000
00000000
10010000
00000000
00100000
00000000
00010000
00000000
,  // measure 27
01000000
00000000
00100000
00000000
00010000
00000000
00001000
00010000
00100000
00000000
00010000
00000000
00002000
00000000
00010000
00010000
,  // measure 28
00013000
00000000
00011000
00000000
00000000
00000000
00000000
00000000
00000000
00000000
00000110
00000000
00000000
00000010
00000001
00000000
,  // measure 29
00001000
00000000
00000000
00000001
00000000
00000100
00000000
00000010
00000000
00001000
00000000
00000100
00000000
00010000
00000000
00001000
00000000
00100000
00000000
00010000
00000000
01000000
00000000
00100000
,  // measure 30
00000000
00000000
10000000
00000000
00000000
00000000
01000000
00000000
00000000
00000000
00000000
00000000
00100000
00000000
00000000
00000000
00000000
00000000
01100000
00000000
00000000
00000000
00000000
00000000
00000000
00000000
00000000
00000000
00000000
00000000
00011000
00000000
00000000
00000000
00000000
00000000
00000000
00000000
00000000
00010000
00000000
00000000
00001000
00000000
00000000
00000000
00000000
00000000
,  // measure 31
00000010
00000000
00000000
00000002
00000000
00000000
00000000
00000023
00000000
00000000
00000000
00002030
00000000
00000000
00000000
00023000
00000000
00000000
00000000
00230000
00000000
00000000
00000000
20300000
,  // measure 32
00000000
00000000
30100000
00000000
01000000
00000000
10010000
00000000
00000000
00000000
01100000
00000000
00000000
00100000
10000000
00000000
,  // measure 33
00010000
00000000
00000000
10000000
00000000
01000000
00000000
00100000
00000000
00010000
00000000
01000000
00000000
00001000
00000000
00010000
00000000
00000010
00000000
00001000
00000000
00000100
00000000
00000010
,  // measure 34
00000000
00000000
00000001
00000000
00000000
00000000
00000100
00000000
00000000
00000000
00000000
00000000
00000010
00000000
00000000
00000000
00000000
00000000
00000110
00000000
00000000
00000000
00000000
00000000
00000000
00000000
00000000
00000000
00000000
00000000
00011000
00000000
00000000
00000000
00000000
00000000
00000000
00000000
00000000
00001000
00000000
00000000
00010000
00000000
00000000
00000000
00000000
00000000
,  // measure 35
00100000
00000000
00000000
20000000
00000000
00000000
00000000
30200000
00000000
00000000
00000000
00320000
00000000
00000000
00000000
00032000
00000000
00000000
00000000
00003020
00000000
00000000
00000000
00000032
,  // measure 36
00000000
00000013
00000011
00000000
00000220
00000000
00000000
00000000
,  // measure 37
00000000
00000330
00001001
00000000
,  // measure 38
00000001
00000000
00000001
00000000
00000100
00000000
00002000
00000000
00000000
00000000
00013000
00000000
00000010
00000000
00001000
00000010
,  // measure 39
00001000
00000000
00010000
00000000
01000000
00000000
00000000
00100000
00000000
00000000
10100000
00000000
00000000
00000000
00000000
00000000
,  // measure 40
01000000
00100000
01000000
00000000
00001000
00000000
00010000
00001000
00000000
00000000
00000010
00000000
00001000
00010000
00000000
00001000
,  // measure 41
00010000
00000000
00100000
00000000
10100000
00000000
00000000
01010000
00000000
00000000
10010000
00000000
00000000
00000000
00000000
00000000
,  // measure 42
10000000
00100000
10000000
00100000
01000000
00000000
00010000
00100000
00000000
00000000
01000000
00000000
00010000
00001000
00000000
00010000
,  // measure 43
00001000
00000000
00000100
00000000
00000001
00000000
00000000
00000010
00000000
00000000
00000011
00000000
00000000
00000000
00000000
00000000
,  // measure 44
00000100
00000010
00000100
00000000
00010000
00000000
00001000
00010000
00000000
00000000
00100000
00000000
00010000
00001000
00000000
00010000
,  // measure 45
00001000
00000000
00000010
00000000
00000011
00000000
00000000
00001100
00000000
00000000
00001001
00000000
00001010
00000000
00000000
00000000
,  // measure 46
00000100
00000001
00000100
00000001
00000100
00000000
00000001
00001000
00000100
00000000
00000010
00000000
00001000
00010000
00000000
00001000
,  // measure 47
00010000
00000000
00100000
00000000
10100000
00000000
00000000
01010000
00000000
00000000
10010000
00000000
00110000
00000000
00000000
00000000
,  // measure 48
01000000
10000000
01000000
10000000
01000000
00000000
10000000
00010000
01000000
00000000
00100000
00000000
00010000
00001000
00000000
00010000
,  // measure 49
00001000
00000000
00000010
00000000
00000011
00000000
00000000
00000110
00000000
00000000
00001100
00000000
00000001
00000000
00000100
00001000
,  // measure 50
00000000
00000100
00001000
00000000
00010000
00000000
00100000
10000000
00000000
00100000
10000000
00000000
01000000
00000000
00010000
00001000
,  // measure 51
00000000
00010000
00001000
00000000
00000010
00000000
00000001
00000100
00000000
00000001
00000100
00000000
00001000
00000000
00000100
00000000
,  // measure 52
00000001
00000000
00000100
00000000
00000010
00010000
00001000
00010000
00000010
00010000
00001000
00100000
00000000
00000000
00000000
00000000
,  // measure 53
01100000
00000000
00000000
00000000
00000000
00000000
00000000
00000000
00010000
00000000
01000000
00000000
00100000
10000000
00100000
00000000
,  // measure 54
01000000
00010000
01000000
00000000
00001000
00010000
00001000
00000000
00000010
00000001
00000010
00000001
00001000
00000000
00000010
00000000
,  // measure 55
00000110
00000000
00000000
00000110
00000000
00000000
00000101
00000000
00001000
00000000
00000100
00000000
00000010
00000001
00000010
00000000
,  // measure 56
00000100
00001000
00000100
00000000
00010000
00001000
00010000
00000000
00100000
10000000
00100000
10000000
00010000
00000000
00100000
00000000
,  // measure 57
01100000
00000000
00000000
01100000
00000000
00000000
11000000
00000000
10010000
00000000
00000000
00000000
10000000
00100000
01000000
00000000
,  // measure 58
00010000
00100000
00001000
00000000
00010000
00000100
00010000
00000100
00001000
00000010
00001000
00000010
00000100
00000001
00001000
00000100
,  // measure 59
00000010
00000000
00000000
00000011
00000000
00000000
00000101
00000000
00001001
00000000
00000000
00000000
00000001
00000010
00000100
00000000
,  // measure 60
00001000
00000010
00010000
00000000
00001000
01000000
00001000
00000000
00200000
01000000
01000000
01000000
01300000
00000000
00000000
00000000
,  // measure 61
01100000
00000000
00000000
00000000
10000000
01000000
00000000
00000000
00100000
00010000
00100000
00010000
10000000
00100000
10000000
00100000
,  // measure 62
01000000
00001000
01000000
00001000
00010000
00000100
00010000
00000100
00001000
00000100
00000010
00000001
00000010
00000000
00000000
00000110
,  // measure 63
00000000
00000000
00000110
00000000
00001001
00000000
00000000
00000000
00000010
00001000
00000010
00001000
00000001
00000010
00000001
00000010
,  // measure 64
00000100
00010000
00000100
00010000
00001000
01000000
00001000
01000000
00010000
01000000
00100000
10000000
00100000
00000000
00000000
01100000
,  // measure 65
00000000
00000000
01100000
00000000
10010000
00000000
00000000
00000000
10000000
01000000
10000000
01000000
00100000
00010000
00100000
00010000
,  // measure 66
10000000
01000000
00100000
00010000
00100000
00001000
00010000
00000100
00001000
00000010
00000100
00000001
00000010
00000000
00000000
00000011
,  // measure 67
00000000
00000000
00001100
00000000
00001001
00000000
00000000
00000000
00000001
00000100
00000001
00000100
00000010
00001000
00000010
00001000
,  // measure 68
00000001
00000100
00000010
00001000
00000010
00010000
00001000
01000000
00010000
00100000
01000000
10000000
00100000
00000000
00000000
10100000
,  // measure 69
00000000
01010000
02200000
00000000
00000000
00000000
00000000
00000000
,  // measure 70
03300000
10010000
00000000
00000000
;
