#TITLE:Lucid;
#ARTIST:DeBisco;
#BANNER:Lucid.png;
#BACKGROUND:Lucid-bg.png;
#MUSIC:Lucid.ogg;
#SAMPLESTART:59.97;
#SAMPLELENGTH:15;
#BPMS:0=140;
#STOPS:68=1.286,133=1.286;

//---------------dance-single - DDRDAIKENKAI-bSP----------------
#NOTES:
     dance-single:
     DDRDAIKENKAI:
     Beginner:
     4:
     :
0000
0000
0000
0000
,
0000
0000
0000
0000
,
0000
0000
0000
0000
,
0000
0000
0000
0000
,
0000
0000
0000
0000
,
1000
0000
0000
0000
,
0001
0000
0000
0000
,
1000
0000
0000
0000
,
0001
0000
0000
0000
,
1001
0000
0001
0000
,
1000
0000
1000
0000
,
0010
0000
0010
0000
,
0100
0000
0100
0000
,
0001
0001
0000
1000
,
0000
0001
0000
0001
,
0000
1000
0000
0001
,
0000
1000
0000
0001
,
0001
0200
0000
0300
,
0000
0002
0000
0003
,
0000
0020
0000
0030
,
0000
0200
0000
0300
,
0000
2000
0000
3000
,
0000
0200
0000
0300
,
0000
0020
0000
0030
,
0000
0002
0000
0003
,
0000
1001
0000
0000
,
0000
0100
0000
0000
,
0000
0010
0000
0000
,
0000
1000
0000
0000
,
0000
1001
0000
0000
,
0000
0110
0000
0000
,
0000
1001
0000
1001
,
0000
0110
0110
0110
,
0000
2000
3000
0000
,
0001
0000
0100
0100
,
0100
0000
0010
0000
,
0100
0000
1000
1000
,
1000
0000
0100
0000
,
0010
0000
0100
0100
,
0100
0000
0001
0001
,
0000
1000
0000
0100
,
0100
0100
0100
0000
,
0100
0000
1000
1000
,
1000
0000
0001
0000
,
0100
0000
0010
0010
,
0010
0000
0110
0000
,
0100
0000
0010
0000
,
0010
0000
1000
0000
,
0001
0000
1000
1000
,
1000
1000
1000
0000
,
0100
0000
1000
0000
,
0100
0000
0010
0000
,
0001
0000
0010
0000
,
0001
0000
0100
0100
,
0000
0010
0000
1000
,
0000
0001
0000
0010
,
0000
0100
0000
0010
,
0000
0001
0001
0000
;

//---------------dance-single - DDRDAIKENKAI-BSP----------------
#NOTES:
     dance-single:
     DDRDAIKENKAI:
     Easy:
     6:
     :
0000
0000
0000
0000
,
0000
0000
0000
0000
,
0000
0000
0000
0000
,
0000
0000
0000
0000
,
0000
0000
0000
0000
,
0010
0010
0100
0010
,
1000
1000
0001
1000
,
0100
0100
0010
0100
,
0020
0001
0000
0031
,
1000
0010
1000
0001
,
1000
0100
0010
0100
,
1000
0010
0100
0001
,
0010
0001
0100
0010
,
1000
0100
0010
0010
,
0001
0100
0010
0010
,
1000
0100
0010
0010
,
0001
0100
0010
0010
,
2000
3200
0000
0000
,
0000
2300
0000
0000
,
0000
3002
0000
0000
,
0000
0203
0000
0000
,
0310
2000
0000
0000
,
0000
3002
0000
0000
,
0000
0023
0000
0000
,
0000
0032
0000
0000
,
1003
2000
0010
3010
,
0000
0200
0010
0310
,
1000
0002
0010
0013
,
0000
0200
0010
0310
,
0001
1001
0100
0000
,
0100
0110
0010
0000
,
0010
1001
0100
1001
,
0010
1001
0110
1001
,
0110
2000
3001
0100
,
0010
0100
1000
0100
,
0010
1000
0001
0010
,
0100
0010
1000
0010
,
0100
1000
0010
1000
,
0100
1000
0010
0100
,
0001
0100
0010
1000
,
0001
0010
0002
1000
,
0000
0103
0110
0010
,
0100
0001
1000
0001
,
0100
0010
1000
1000
,
0010
0010
0100
0100
,
0001
0001
2000
0010
,
0001
0001
3002
0100
,
1000
1000
2003
0100
,
3002
0100
2003
3002
,
0203
0320
2030
3100
,
0010
0001
0002
0103
,
0010
1000
2000
3010
,
0100
0001
0002
0013
,
0100
1000
0020
0130
,
0100
0010
0200
0310
,
0020
1030
0002
1003
,
2000
3100
2000
3001
,
0001
1000
1001
0000
;

//---------------dance-single - DDRDAIKENKAI-DSP----------------
#NOTES:
     dance-single:
     DDRDAIKENKAI:
     Medium:
     10:
     :
0000
0000
0000
0000
,
0000
0000
0000
0000
,
0000
0000
0000
0000
,
0000
0000
0000
0000
,
0000
0000
0000
0000
,
1001
0000
0000
0000
0110
0000
0000
0000
1000
0000
0100
0000
0001
0000
0000
0001
,
0100
0000
0000
0000
0110
0000
0000
0000
0001
0000
0100
0000
1000
0000
0000
1000
,
0100
0000
0000
0000
0110
0000
0000
0000
0010
0000
1000
0000
0100
0000
0000
0100
,
0020
0001
0000
0001
0000
0001
0031
0100
,
0010
0000
1000
0000
0010
0000
0000
0000
0100
0000
0001
0000
0100
0000
0000
0100
,
0001
0000
0010
0000
0001
0000
0000
0000
1000
0000
0100
0000
1000
0000
0000
1000
,
0010
0000
1000
0000
0100
0000
0000
0000
0010
0000
0001
0000
0100
0000
0000
0100
,
0001
0000
0010
0000
0100
0000
0000
0000
1000
0000
0001
0000
0100
0000
0000
0001
,
2000
0000
0100
0000
3100
0000
0000
0000
0010
0000
0001
0000
0100
0000
0000
0100
,
0002
0000
0010
0000
0013
0000
0000
0000
0100
0000
1000
0000
0001
0000
0000
0001
,
0200
0000
0010
0000
0310
0000
0000
0000
1000
0000
0100
0000
0010
0000
0000
0010
,
0200
0000
1000
0000
1300
0000
0000
0000
0001
0000
0100
0000
0010
0000
0000
1000
,
0020
0000
2030
0000
0000
3100
0010
0000
,
0000
0000
0002
0000
0000
0103
0010
0000
,
0010
1000
0200
0000
0000
0000
0010
0000
,
0000
0310
0001
1000
0001
0010
0000
0000
,
0001
0000
0200
0000
0000
0310
1000
0000
,
0000
0000
0020
0000
0000
1030
0001
0000
,
1000
0001
0200
0000
0000
0000
0010
0000
,
0000
0310
1000
0001
1000
0010
0000
1000
,
0100
0000
0100
1000
0010
0100
0002
0000
,
0000
0000
0013
0100
0010
0001
1000
0000
,
0010
2000
0001
0000
,
3001
0100
0010
1000
0001
0010
0000
0000
,
0001
0100
0210
0000
0310
0000
1000
0100
,
0010
0000
0120
0000
0130
0000
1000
0001
,
0100
1001
0010
1001
,
0100
0000
0000
0000
1010
0000
0000
0001
0010
0000
0000
0001
0100
0000
0000
0010
,
1000
0000
0000
0001
2000
0000
3000
0000
0100
0000
1000
0000
0010
0000
1000
0000
,
0100
0010
0001
0000
0100
0001
0010
0001
,
0100
0010
1000
0000
0100
0010
0100
1000
,
0001
0010
0001
0000
0100
0010
0100
0001
,
1000
0000
1001
0000
0001
0010
0001
1000
,
0010
0100
0001
0000
1000
0010
1000
0001
,
0100
0010
1000
0000
0100
0001
0100
1000
,
0010
0100
0001
0000
0010
1000
0010
0002
,
0000
1003
0100
0000
1001
0001
0010
0100
,
0010
0000
0001
0000
0100
0010
0000
0000
1000
0000
0100
0000
0010
0000
0100
0000
,
1000
0000
0001
0000
0100
0010
0000
0000
0100
0000
1000
0000
0100
0000
0001
0000
,
0100
0000
1000
0000
0100
0010
0000
0000
1000
0000
0100
0000
1000
0000
0010
0000
,
1000
0000
0100
0000
1000
0010
0000
0000
0001
0000
0010
0000
0100
0000
1000
0000
,
0001
0000
0010
0000
0100
1000
0000
0000
0100
0000
0001
0000
1000
0000
0010
0000
,
0100
0000
0001
0000
1000
0010
0000
0000
1000
0000
0100
0000
0010
0000
0100
0000
,
0001
0000
0100
0000
0010
0001
0000
0000
0001
1000
0000
0000
0100
0000
1000
0001
,
0000
0100
0010
0010
0110
0000
1001
0000
,
0010
0001
0000
0001
0100
0000
0000
0000
1010
0000
0000
0000
0101
0000
0000
0000
,
0001
1000
0000
1000
0100
0000
0000
0000
1001
0000
0000
0000
0110
0000
0000
0000
,
1000
0001
0000
0001
0010
0000
0000
0000
0011
0000
0000
0000
1100
0000
0000
0000
,
1000
0001
0000
0001
0100
0000
0000
0000
0001
0000
0010
0000
0001
0000
0001
0000
,
1000
0001
0000
0001
0100
0000
0000
0000
0010
0000
1000
0000
0010
0000
0010
0000
,
1000
0100
0000
0100
0010
0000
0000
0000
0001
0000
0100
0000
0010
0000
0100
0000
,
0001
1000
0000
1000
0010
0000
0000
0000
1000
0000
0100
0000
0010
0000
0100
0000
,
1000
0001
0000
0001
1000
0000
0010
0000
0110
0000
0000
0000
0000
0000
0000
0000
;

//---------------dance-single - DDRDAIKENKAI-ESP----------------
#NOTES:
     dance-single:
     DDRDAIKENKAI:
     Hard:
     14:
     :
0000
0000
0000
0000
,
0000
0000
0000
0000
,
0000
0000
0000
0000
,
0000
0000
0000
0000
,
0000
0000
0000
0000
,
1000
0000
0010
0000
1000
0000
0100
0000
0010
0000
0001
0000
0100
0000
0000
0100
,
0010
0000
0100
0000
0001
0000
0010
0000
1000
0000
0010
0000
0001
0000
0000
0001
,
0010
0000
0001
0000
1000
0000
0010
0000
0100
0000
0001
0000
1000
0000
0000
1000
,
0001
0000
0001
1000
0000
0000
0001
1000
0000
0000
0001
1000
0001
0000
0010
0000
,
0110
0000
0100
0000
1001
0000
0000
0000
1000
0100
0000
1000
0001
0000
0000
0001
,
0010
0000
0001
0000
0101
0000
0000
0000
0010
1000
0000
0001
1000
0000
0000
1000
,
0010
0000
1000
0000
1100
0000
0000
0000
0010
0001
0000
1000
0010
0000
0000
0010
,
1000
0000
0010
0000
0110
0000
0000
0000
0001
1000
0000
0010
1000
0000
0000
0001
,
1000
0000
0100
0000
0010
0000
0100
0000
1000
0001
0000
0100
0001
0000
0000
0010
,
0001
0000
0100
0000
0010
0000
1000
0000
0100
0010
0000
0001
1000
0000
0000
0010
,
1000
0000
0001
0000
0100
0000
0010
0000
0100
0001
0000
1000
0010
0000
0000
1000
,
0001
0000
0100
0000
0010
1000
0010
0000
1000
0001
0000
1000
0001
0000
0000
0100
,
0010
0000
1002
0000
0000
1003
0010
0000
,
0000
0000
0200
0000
0000
0301
0010
0000
,
0001
0100
0020
0000
0000
0000
0000
0000
,
0000
0130
0001
0010
0100
0010
0000
0000
,
0001
0000
0200
0000
0000
0301
1000
0000
,
0000
0000
0200
0000
0000
0310
0001
0000
,
1000
0001
0200
0000
0000
0000
0000
0000
,
0000
0310
1000
0001
1000
0010
0000
1000
,
0200
0000
0000
0000
1300
0001
0000
0000
0100
0000
0010
1000
0000
0010
1000
0000
,
0000
0001
0000
0000
1000
0100
0000
0000
0010
0000
0100
1000
0000
0100
1000
0000
,
0000
0001
0000
0000
0100
0010
0000
0000
1000
0000
0001
0100
0000
0001
0100
0000
,
0000
0010
0000
0000
0100
0001
0000
0000
1000
0000
0100
0010
0000
0100
0010
0000
,
0001
0100
0001
0000
0010
0001
0000
0000
1000
0000
0100
0010
0000
0100
0010
0000
,
0001
1000
0000
0000
0010
1000
0000
0000
0010
0000
1000
0001
0000
1000
0001
0000
,
0100
0010
0000
0000
1000
0100
0000
0000
1000
0000
0010
0100
0000
0010
0100
0000
,
0010
1000
0000
0000
0001
0010
0000
0010
0100
0000
0010
0001
0000
0010
0001
0000
,
1000
0100
0000
1000
0020
0000
0000
0000
0130
0001
0000
0100
0001
0000
0010
0001
,
0000
0010
0001
0000
1000
0001
0000
0000
0010
0001
0000
0001
1000
0000
0010
1000
,
0000
0010
1000
0000
0001
1000
0000
0000
0100
0010
0000
0010
0001
0000
0100
0010
,
0000
0100
0010
0000
1000
0001
0000
0000
0010
0100
0000
0100
0010
0000
0100
0010
,
0000
0100
1000
0000
0100
1000
0100
0010
0100
1000
0000
1000
0010
0000
0100
0010
,
0000
0100
0010
0000
0100
0001
0000
0000
1000
0100
0000
0100
1000
0000
0001
0100
,
0000
0001
0100
0000
0001
1000
0000
0000
0010
1000
0000
1000
0100
0000
1000
0001
,
0000
1000
0001
0000
0010
0001
0000
0000
1000
0100
0000
0100
0010
0000
0100
0010
,
0000
0100
1000
0000
0001
1000
0001
0100
0001
0010
0000
0001
0010
0000
0100
1000
,
0000
0100
1000
0000
0010
0100
0010
0000
0100
0001
0000
0100
0001
0000
1000
0010
,
0000
1000
0010
0000
1000
0001
1000
0000
0001
0010
0000
0001
1000
0000
0010
1000
,
0000
0100
1000
0000
0001
0100
0001
0000
1000
0010
0000
0100
0010
0000
0100
0001
,
0000
0010
0001
0000
1000
0100
0010
0001
1000
0010
0000
1000
0001
0000
0010
0001
,
0000
0100
0001
0000
1000
0100
1000
0000
0001
0100
0000
0001
1000
0000
0010
1000
,
0000
0100
1000
0000
0001
0010
0001
0000
1000
0010
0000
0100
0001
0000
0010
0001
,
0000
0100
0010
0000
1000
0100
1000
0000
0001
0010
0000
0010
0100
0000
0100
1000
,
0000
1000
0001
0000
0010
0100
1000
0001
0100
0000
0001
0000
1000
0010
1000
0010
,
0100
0001
0000
0001
0010
0000
0000
0010
0100
0000
0010
0000
0001
0100
0001
0100
,
0010
0100
0000
0100
0001
0000
0000
1000
0100
0000
1000
0000
0001
0010
0001
0010
,
0100
1000
0000
1000
0001
0000
0000
1000
0100
0000
1000
0000
0010
0100
0010
0100
,
0001
1000
0000
1000
0010
0000
0000
1000
0100
0000
0001
0000
0100
1000
0100
1000
,
0010
0100
0000
0100
0001
0000
0000
1000
0010
0000
0001
0000
0010
1000
0010
1000
,
0001
0100
0000
0100
0001
0000
0000
1000
0100
0000
0100
0000
1000
0001
1000
0001
,
0010
0001
0000
0001
1000
0000
0000
0010
0100
0000
0100
0000
0001
1000
0001
1000
,
0100
1000
0000
1000
0001
0000
1000
0001
0100
0000
0000
0000
0000
0000
0000
0000
;

//---------------dance-double - DDRDAIKENKAI-BDP----------------
#NOTES:
     dance-double:
     DDRDAIKENKAI:
     Easy:
     6:
     :
00000000
00000000
00000000
00000000
,
00000000
00000000
00000000
00000000
,
00000000
00000000
00000000
00000000
,
00000000
00000000
00000000
00000000
,
00000000
00000000
00000000
00000000
,
00010000
01000000
00100000
10000000
,
01000000
00100000
01000000
10000000
,
00010000
01000000
00001000
00010000
,
00000020
00001000
00000000
00001000
,
00001030
00000001
00000100
00000001
,
00000010
00000001
00000100
00000001
,
00000010
00000100
00001000
00000001
,
00000100
00000010
00000100
00000010
,
00001000
00010000
01000000
10000000
,
01000000
00010000
00100000
10000000
,
00100000
00010000
00001000
00000100
,
00000001
00000100
00001000
00000001
,
00000010
00000110
00000000
00000200
,
00000000
00000310
00000000
00000001
,
00001000
00002000
00000000
00003020
,
00000000
00000000
00001030
00000000
00000000
00000100
00000000
00000000
,
00010000
00200000
00000000
10300000
,
00000000
02000000
00000000
03100000
,
00010000
02000000
00000000
03020000
,
00000000
00000000
00130000
00000000
00000000
00001000
00000000
00000000
,
00010000
00011000
00001000
00000200
,
00000000
00000301
00000010
00000001
,
00000010
00000100
00010000
00002000
,
00000000
00103000
00010000
01000000
,
00100000
01100000
10000000
00010000
,
10000000
01100000
00001000
00010000
,
00001000
00000110
00000100
00001001
,
00000001
00000011
00000101
00001010
,
00001100
00020000
00032000
00010000
,
00023000
01000000
01030000
10000000
,
00010000
01000000
00200000
10000000
,
20300000
01000000
31000000
00100000
,
00010000
00001000
00000200
00001000
,
00002300
00000010
00003010
00000100
,
00000001
00000010
00000002
00000100
,
00000203
00000010
00000310
00001000
,
00000100
00010000
00001000
00100000
,
02000000
00000000
03100000
00001000
,
00010000
00000100
00020000
00001000
,
00001000
00031000
00100000
00001000
,
00010000
00000100
00000110
00000001
,
00000100
00000010
00001000
00000100
,
00010000
00001000
00100000
00010000
,
01000000
00100000
10000000
01000000
,
00100000
00010000
10010000
10000000
,
00100000
00010000
00001000
00010000
,
00100000
10000000
00010000
00100000
,
00001000
00000100
00000001
00000010
,
00000100
00001000
00000001
00000100
,
00001000
00000100
00000010
00001000
,
00000100
00010000
00100000
10000000
,
01000000
00100000
00002000
00010000
,
00010000
00013000
00011000
00000000
;

//---------------dance-double - DDRDAIKENKAI-DDP----------------
#NOTES:
     dance-double:
     DDRDAIKENKAI:
     Medium:
     9:
     :
00000000
00000000
00000000
00000000
,
00000000
00000000
00000000
00000000
,
00000000
00000000
00000000
00000000
,
00000000
00000000
00000000
00000000
,
00000000
00000000
00000000
00000000
,
01000000
00010000
01000000
00000000
00010000
00100000
00010000
00000000
,
00100000
10000000
00100000
00000000
10000000
01000000
10000000
00000000
,
01000000
00010000
01000000
00000000
00001000
00010000
00001000
00000000
,
00000020
00000001
00000000
00000031
,
00000011
00000000
00000001
00000000
00000100
00000001
00000010
00000000
,
00000100
00000000
00001000
00000000
00000001
00000100
00001000
00000000
,
00000100
00000000
00000010
00000000
00010000
00001000
00100000
00000000
,
00010000
00000000
01000000
00000000
00010000
00100000
01000000
00000000
,
01100000
00000000
11000000
00000000
00010000
00100000
00001000
00000000
,
00011000
00000000
00001010
00000000
00001000
00000001
00000010
00000000
,
00000011
00000000
00000101
00000000
00000001
00001000
00000100
00000000
,
00000110
00000000
00010100
00000000
00001000
00100000
00010000
00000000
,
10000000
00000000
00011000
00000000
00000000
00001000
00000002
00000000
,
00000000
00000000
00000023
00000000
00000000
00000130
00002000
00000000
,
00003001
00000100
00000002
00000000
00000000
00000000
00000203
00000000
,
00000000
00000310
00001000
00000010
00001000
00000010
00000000
00000000
,
00010000
00000000
00002000
00000000
00000000
00100000
00203000
00000000
,
00000000
00000000
00320000
00000000
00000000
10000000
20030000
00000000
,
30100000
10000000
02000000
00000000
00000000
00000000
03020000
00000000
,
00000000
00031000
00010000
00001000
00010000
00000010
00000000
00001000
,
00000100
00000000
00001200
00000000
00000310
00000001
00002000
00000000
,
00003000
00000000
00000001
00000100
00000001
00001000
00000000
00000000
,
00000010
00010000
00000010
00000001
,
00000100
00001000
00000001
00001000
00000001
00000010
00000000
00000000
,
00000100
00010000
00011000
00000000
00001000
00000000
00100000
00010000
,
01000000
00000000
01100000
00000000
00100000
00000000
10000000
01000000
,
00100000
01100000
10000000
10100000
,
01000000
01010000
00011000
00001100
,
00011000
00000000
00100000
00000000
00011000
00000000
00001000
00010000
,
00000100
00001000
00000010
00000000
00000100
00000000
00000100
00000001
,
00000010
00000000
00000010
00000001
00000100
00000000
00001000
00000000
,
00010000
00000000
00100000
10000000
01000000
00100000
00010000
01000000
,
00000000
00001000
00010000
00000000
00011000
00000000
00001000
00100000
,
00010000
01000000
00100000
00000000
10000000
00000000
10000000
00100000
,
00010000
00000000
00010000
00100000
10000000
00000000
00010000
00000000
,
00001000
00000000
00000001
00000010
00000100
00000010
00000001
00000100
,
00000000
00000010
00000100
00000000
00000210
00000000
00001300
00010000
,
00200000
10000000
10300000
00000000
00100000
01000000
00100000
10000000
,
00000000
10000000
00020000
00000000
00230000
00000000
00302000
00000000
,
00013000
00001000
00010000
00000100
00000010
00000100
00000000
00000010
,
00000000
00000000
00000001
00000100
00000120
00000000
00000130
00000000
,
00000010
00001000
00000100
00000000
00010000
00000100
00010000
00001000
,
00100000
00110000
10000000
11000000
,
10000000
00010000
01000000
00000000
00100000
00010000
00100000
01000000
,
00000000
00010000
00100000
01000000
10000000
00000000
01000000
00000000
,
00010000
01000000
10000000
00000000
00010000
00000000
01000000
00000000
,
10000000
01000000
00010000
00000000
00001000
00000000
00000001
00000000
,
00000100
00000001
00000010
00000000
00000100
00000000
00001000
00000000
,
00000001
00000100
00001000
00000000
00010000
00000000
10000000
00000000
,
01000000
00100000
10000000
00000000
01000000
00000000
00100000
00000000
,
00001000
00010000
00000100
00000000
00000010
00000001
00000100
00000000
,
00000010
00001000
00000100
00000000
00010000
00001000
00010000
00001000
,
00100000
00010000
01000000
00000000
01100000
00000000
00000000
00000000
;

//---------------dance-double - DDRDAIKENKAI-EDP----------------
#NOTES:
     dance-double:
     DDRDAIKENKAI:
     Hard:
     13:
     :
00000000
00000000
00000000
00000000
,
00000000
00000000
00000000
00000000
,
00000000
00000000
00000000
00000000
,
00000000
00000000
00000000
00000000
,
00000000
00000000
00000000
00000000
,
00001000
00000000
00100000
00000000
00010000
00000000
10000000
00000000
00100000
01000000
00000000
00100000
01000000
00000000
00000000
00100000
,
10000000
00000000
00010000
00000000
00100000
00000000
00001000
00000000
00000010
00000100
00000000
00000010
00000100
00000000
00000000
00000001
,
00000100
00000000
00001000
00000000
00000001
00000000
00000100
00000000
00000010
00000100
00000000
00000010
00000100
00000000
00000000
00000010
,
00001000
00000000
00000010
00000000
00010000
00000000
00100000
00000000
01000000
00100000
00000000
01000000
00100000
00000000
00000000
10000000
,
00100000
00000000
10000000
00000000
00010000
00000000
00100000
00000000
00001000
00010000
00000000
00001000
00010000
00000000
00000000
00000010
,
00001000
00000000
00000001
00000000
00000010
00000000
00000001
00000000
00000100
00000001
00000000
00000100
00000001
00000000
00000000
00001000
,
00000001
00000000
00001000
00000000
00000001
00000000
00000010
00000000
00000100
00000010
00000000
00000100
00000010
00000000
00000000
00000100
,
00000001
00000000
00000100
00000000
00001000
00000000
00000001
00000000
00000100
00000010
00000000
00000100
00000010
00000000
00000000
00001000
,
00000010
00000000
00010000
00000000
00001000
00000000
00100000
00000000
00001000
00010000
00000000
00001000
00010000
00000000
00000000
00000010
,
00001000
00000000
00000001
00000000
00000010
00000000
00000001
00000000
00001000
00000010
00000000
00001000
00000010
00000000
00000000
00010000
,
00001000
00000000
00100000
00000000
00010000
00000000
01000000
00000000
00100000
10000000
00000000
00100000
10000000
00000000
00000000
00100000
,
01000000
00000000
00010000
00000000
00100000
00000000
00001000
00000000
00000010
00000001
00000000
00000010
00000001
00000000
00000100
00000002
,
00002000
00003003
00002001
00000000
00000000
00003100
00000010
00000000
,
00000000
00000000
00000002
00000000
00000000
00000103
00000010
00000000
,
00000010
00001000
00000200
00000000
00000000
00000000
00020300
00000000
,
00000000
00031000
00100000
00010000
01000000
00200000
00000000
00000000
,
10300000
00000000
02000000
00000000
00000000
03100000
00020000
00000000
,
00000000
00000000
02030000
00000000
00000000
03100000
10000000
00000000
,
10000000
00010000
00200000
00000000
00000000
00000000
00302000
00000000
,
00000000
00003100
00001000
00010000
00001000
00000010
00000000
00000001
,
00000100
00000000
00000101
00000100
00000010
00010000
00002000
00000000
,
00003000
00000000
00010000
00100000
10000000
00010000
00000000
00000000
,
20000000
32000000
03020000
00230000
,
10300000
01000000
00100000
00010000
00001000
00000100
00000000
00000000
,
00000010
00000001
00002001
00000000
00003010
00000000
00001000
00000100
,
00010000
00000000
00012000
00000000
00103000
00000000
01000000
10000000
,
00010000
01200000
10300000
02100000
,
03010000
00000000
00000000
00000000
10010000
00000000
00000000
00100000
01000000
00000000
00000000
00001000
00010000
00000000
00000000
00000010
,
00000100
00000000
00000000
00000001
00001000
00000000
00000000
00000000
00110000
00000000
00010000
00000000
10000000
00000000
00100000
00000000
,
01000000
00000000
00100000
00000000
10000000
00010000
00000000
00000000
00100000
00000000
00010000
00000000
00001000
00000000
00010000
00000000
,
00100000
00000000
00001000
00000000
00010000
00000100
00000000
00000000
00001000
00000000
00000001
00000000
00000010
00000000
00000001
00000000
,
00000100
00000000
00000010
00000000
00001000
00000010
00000000
00000000
00010000
00000000
00001000
00000000
01000000
00000000
00001000
00000000
,
00010000
00000000
00001000
00000000
00100000
00010000
00100000
00010000
00100000
00000000
00010000
00000000
01000000
00000000
00010000
00000000
,
00100000
00000000
01000000
00000000
10000000
00010000
00000000
00000000
01000000
00000000
00010000
00000000
10000000
00000000
00100000
00000000
,
00010000
00000000
00100000
00000000
10000000
00100000
00000000
00000000
01000000
00000000
00100000
00000000
10000000
00000000
00010000
00000000
,
00100000
00000000
00001000
00000000
00010000
00000100
00000000
00000000
00010000
00000000
00001000
00000000
00010000
00000000
00000010
00000000
,
00001000
00000000
00000001
00000000
00000010
00000001
00000010
00000001
00000010
00000001
00000000
00000001
00000100
00000000
00000100
00000010
,
00000000
00000010
00001000
00000000
00001000
00000010
00000000
00000000
00000010
00010000
00000000
00010000
00001000
00000000
00001000
00100000
,
00000000
00100000
00010000
00000000
00010000
10000000
00000000
00000000
10000000
00100000
00000000
00100000
10000000
00000000
10000000
00010000
,
00000000
00010000
00100000
00000000
00100000
01000000
00000000
00000000
01000000
00010000
00000000
00010000
00001000
00000000
00001000
00000010
,
00000000
00000010
00000001
00000000
00000001
00000100
00000001
00000100
00000001
00001000
00000000
00000001
00000010
00000000
00000001
00001000
,
00000000
00000001
00000100
00000000
00000010
00001000
00000000
00000000
00000010
00010000
00000000
00001000
01000000
00000000
00010000
10000000
,
00000000
00100000
10000000
00000000
01000000
00100000
00000000
00000000
01000000
10000000
00000000
00010000
01000000
00000000
00100000
10000000
,
00000000
00010000
00100000
00000000
00001000
00010000
00000000
00000000
00000100
00000010
00000000
00000100
00001000
00000000
00000010
00010000
,
00000000
00001000
00100000
00000000
00010000
00100000
00010000
00100000
00010000
00000000
00100000
00000000
00001000
00000000
00010000
00000000
,
00000010
00001000
00000000
00000001
00000010
00000000
00000000
00000001
00001000
00000000
00000010
00000000
00000100
00000000
00000001
00000000
,
00000010
00000100
00000000
00000100
00000010
00000000
00000000
00000001
00001000
00000000
00000010
00000000
00000100
00000000
00000001
00000000
,
00001000
00000010
00000000
00010000
00001000
00000000
00000000
00010000
00001000
00000000
00100000
00000000
00010000
00000000
01000000
00000000
,
00010000
00100000
00000000
00010000
00100000
00000000
00000000
00010000
00100000
00000000
10000000
00000000
01000000
00000000
00010000
00000000
,
10000000
00010000
00000000
10000000
00010000
00000000
00000000
10000000
00100000
00000000
00010000
00000000
00001000
00000000
00000010
00000000
,
00000001
00001000
00000000
00000001
00001000
00000000
00000000
00000001
00000010
00000000
00001000
00000000
00000100
00000000
00000001
00000000
,
00001000
00000001
00000000
00001000
00000001
00000000
00000000
00001000
00000001
00000000
00000010
00000000
00001000
00000000
00010000
00000000
,
00001000
00010000
00001000
00010000
00001000
00000000
00100000
00010000
01000000
00000000
00000000
00000000
00000000
00000000
00000000
00000000
;
