#TITLE:Love Is Dreaminess;
#ARTIST:L.E.D.-G vs GUHROOVY fw/ Asuka;
#BANNER:Love Is Dreaminess.png;
#BACKGROUND:Love Is Dreaminess-bg.png;
#MUSIC:Love Is Dreaminess.ogg;
#SAMPLESTART:78.123;
#SAMPLELENGTH:15;
#BPMS:0=178;
#BGCHANGES:3.250=Love Is Dreaminess.avi=1.000=0=0=0=StretchNoLoop====,99999=-nosongbg-=1.000=0=0=0 // don't automatically add -songbackground-;

//---------------dance-single - KONAMI-bSP----------------
#NOTES:
     dance-single:
     KONAMI:
     Beginner:
     3:
     0.182208,0.289212,0.154355,0,0,157,138,19,0,0,0,0.182208,0.289212,0.154355,0,0,157,138,19,0,0,0:
0000
0000
0000
0000
,
0000
0000
0000
0000
,
0000
0000
0000
0000
,
0000
0000
0000
0000
,
0000
0000
0000
0000
,
0000
0000
0000
0000
,
1000
0000
1000
0000
,
0100
0000
0100
0000
,
0001
0000
0001
0000
,
1001
0000
0000
0000
,
0010
0000
0000
0000
,
0100
0000
0000
0000
,
1000
0000
0000
0000
,
0100
0000
0000
0000
,
0001
0000
0000
0000
,
0010
0000
0000
0000
,
0100
0000
0000
0000
,
1000
0000
0000
0000
,
1001
0000
0100
0000
,
1000
0000
0100
0000
,
0001
0000
0100
0000
,
0010
0000
0100
0000
,
1001
0000
0000
0000
,
1001
0000
0000
0000
,
0110
0000
1001
0000
,
0110
0000
0000
0000
,
1001
0000
0000
0000
,
1000
0000
0000
0000
,
0001
0000
0000
0000
,
0100
0000
0000
0000
,
0010
0000
0000
0000
,
0100
0000
0000
0000
,
1000
0000
0001
0000
,
1000
0000
0000
0000
,
0010
0000
0001
0000
,
0001
0000
0100
0000
,
1000
0000
1000
0000
,
0010
0000
0010
0000
,
0100
0000
1000
0000
,
0001
0000
0100
0000
,
0010
0000
1000
0000
,
1001
0000
0000
0000
,
1000
0000
1000
0000
,
0001
0000
0001
0000
,
1000
0000
0100
0000
,
0010
0000
0001
0000
,
0100
0000
0100
0000
,
1000
0000
1000
0000
,
0010
0000
0010
0000
,
0001
0000
0000
0000
,
1000
0000
0000
0000
,
0001
0000
0000
0000
,
0001
0000
0000
0000
,
1000
0000
0000
0000
,
0010
0000
0000
0000
,
1000
0000
0000
0000
,
0001
0000
0000
0000
,
1001
0000
0000
0000
,
1000
0000
0100
0000
,
0001
0000
0001
0000
,
1000
0000
1000
0000
,
0100
0000
0100
0000
,
0001
0000
1000
0000
,
0001
0000
1000
0000
,
0010
0000
0010
0000
,
1000
0000
0001
0000
,
0010
0000
0100
0000
,
1000
0000
0001
0000
,
0100
0000
0001
0000
,
1000
0000
0001
0000
,
0001
0000
0100
0000
,
0010
0000
0100
0000
,
0010
0000
0100
0000
,
0010
0000
0100
0000
,
0001
0000
1001
0000
,
1000
0000
1001
0000
,
0100
0000
0110
0000
,
0100
0000
0110
0000
,
1000
0000
0110
0000
,
0010
0000
1001
0000
,
0010
0000
1001
0000
,
0010
0000
0110
0000
,
1000
0000
1000
0000
,
0001
0000
0001
0000
,
0001
0000
1000
0000
,
1000
0000
1000
0000
,
0100
0000
0100
0000
,
0001
0000
0001
0000
,
0010
0000
0100
0000
,
1001
0000
0000
0000
;

//---------------dance-single - KONAMI-BSP----------------
#NOTES:
     dance-single:
     KONAMI:
     Easy:
     6:
     0.230952,0.361515,0.154355,0.081239,0,199,180,19,10,0,0,0.230952,0.361515,0.154355,0.081239,0,199,180,19,10,0,0:
0000
0000
0000
0000
,
0000
0000
0000
0000
,
0000
0000
0000
0000
,
0000
0000
0000
0000
,
0000
0000
0000
0000
,
0000
0000
0000
0000
,
1000
0000
1000
0000
,
0100
0000
0100
0000
,
0001
0000
0001
0000
,
2002
0000
0000
3003
,
0020
0000
0000
0000
,
0230
0000
0000
0000
,
2300
0000
0000
0000
,
3200
0000
0000
0000
,
0302
0000
0000
0000
,
0023
0000
0000
0000
,
0230
0000
0000
0000
,
2300
0000
0000
3000
,
1001
0000
0100
0000
,
1000
0000
0100
0000
,
0001
0000
0100
0000
,
0010
0000
0100
0000
,
1001
0000
0000
0000
,
1001
0000
0000
0000
,
0110
0000
1001
0000
,
0110
0000
0000
0000
,
1001
0000
0000
0000
,
1000
0000
0000
0000
,
0001
0000
0000
0000
,
0100
0000
0000
0000
,
0010
0000
0000
0000
,
0100
0000
0000
0000
,
1000
0000
0001
0000
,
1000
0000
0000
0000
,
0010
0000
0001
0000
,
0001
0000
0100
0000
,
1000
0000
1000
0000
,
0010
0000
0010
0000
,
0100
0000
1000
0000
,
0001
0000
0100
0000
,
0010
0000
1000
0001
,
1001
0000
0000
0000
,
1000
0000
1000
0000
,
0001
0000
0001
0000
,
1000
0000
0100
0000
,
0010
0000
0001
0000
,
0100
0000
0100
0000
,
1000
0000
1000
0000
,
0010
0000
0010
0000
,
0001
0000
0000
0000
,
1000
1000
0000
0000
,
0001
0001
0000
0000
,
0001
0100
0000
0000
,
1000
0100
0000
0000
,
0010
0010
0000
0000
,
1000
0001
0000
0000
,
0001
1000
0000
0000
,
1001
0000
0000
0000
,
1000
0000
0100
0000
,
0001
0000
0001
0000
,
1000
0000
1000
0000
,
0100
0100
0100
0100
,
0001
0000
1000
0000
,
0001
0000
1000
0000
,
0010
0010
0010
0010
,
1000
0000
0001
0000
,
0010
1000
0100
0001
,
1000
1000
0001
0001
,
0100
1000
0001
0100
,
1000
0010
0001
0010
,
0001
1000
0100
0001
,
0010
0010
0100
0100
,
0010
0010
0100
0100
,
0010
0001
0100
1000
,
0001
0000
1001
0000
,
1000
0000
1001
0000
,
0100
0000
1100
0000
,
0100
0000
0101
0000
,
1000
0000
1100
0000
,
0010
0000
0011
0000
,
0010
0000
1010
0000
,
0010
0000
0110
0000
,
1000
0100
1000
0100
,
0001
0100
0001
0100
,
0001
0010
1000
0010
,
1000
0001
1000
0001
,
0100
1000
0100
1000
,
0001
0100
0001
0100
,
0010
1000
0100
0001
,
1001
0000
0000
0000
;

//---------------dance-single - KONAMI-DSP----------------
#NOTES:
     dance-single:
     KONAMI:
     Medium:
     10:
     0.485115,0.650728,0.812394,0.219346,0,418,318,100,27,0,0,0.485115,0.650728,0.812394,0.219346,0,418,318,100,27,0,0:
0000
0000
0000
0000
,
0000
0000
0000
0000
,
0000
0000
0000
0000
,
0000
0000
0000
0000
,
0000
0000
0000
0000
,
0000
0000
0000
0000
,
0010
0100
1000
0010
,
0100
0100
0100
0100
,
0010
1000
0100
0100
,
2002
0000
0000
3003
,
1001
0110
0100
0010
,
0010
0100
0100
0010
,
0110
1100
0101
0011
,
2002
0000
0000
3003
,
0110
1001
1000
0001
,
0001
1000
1001
0110
,
1000
0001
0001
1000
,
1000
0001
1000
0001
,
1100
0101
1001
1100
,
0011
1100
1010
0101
,
0110
1001
0010
0100
,
0220
0000
0000
0330
,
0100
0001
0001
1000
,
0100
0100
0100
0100
,
0010
0100
0010
0100
,
2002
0000
0000
3003
,
0010
0100
0010
0000
0200
0000
0300
0000
,
0001
1000
0001
0000
2000
0000
3000
0000
,
1000
0001
1000
0000
0002
0000
0003
0000
,
0100
0010
0100
0000
0020
0000
0030
0000
,
0010
0100
0010
0000
0200
0000
0300
0000
,
0010
1000
0010
0000
2000
0000
3000
0000
,
0010
0001
0010
0000
0002
0000
0003
0000
,
0001
1000
0001
0000
2002
0000
3003
0000
,
0101
1100
0100
0010
,
0010
0100
0010
0100
,
0110
1001
0001
1000
,
1000
0001
1000
0001
,
1100
0011
1000
0001
,
0001
1000
1000
0001
,
1010
0011
0100
0010
,
0100
1000
0100
0001
,
0011
1100
0100
0010
,
1000
0001
0100
0001
,
1001
0110
0100
0001
,
0100
0010
1000
0001
,
1100
0101
0100
0001
,
1000
0001
0001
0010
,
1010
0110
0100
0100
,
1000
1000
0001
1000
,
0110
0101
0100
0100
,
1010
1001
0100
0100
,
0101
1100
0100
0100
,
1001
0110
0010
0010
,
0011
1100
0010
0010
,
0101
1010
1000
1000
,
0011
0110
1100
0110
,
2002
0000
0000
3003
,
1000
0001
1010
0101
,
0001
1000
1100
0101
,
0010
0100
0110
1001
,
0010
0100
1001
0110
,
0010
0100
0010
1000
,
1000
0010
0010
0100
,
1000
0001
0001
1000
,
0110
1001
1010
1100
,
0101
0110
0011
1100
,
1001
0011
1100
0101
,
1010
1100
0101
1100
,
0101
1001
0100
0001
,
0110
0110
1000
0100
,
0011
1100
0001
1000
,
1000
0001
0100
0010
,
0010
0100
0100
0010
,
0100
0001
1000
0000
0002
0000
0003
0000
,
0100
1000
0001
0000
2000
0000
3000
0000
,
0010
0001
0100
0000
0002
0000
0003
0000
,
0010
1000
0100
0000
2000
0000
3000
0000
,
1000
0100
0001
0000
0200
0000
0300
0000
,
0001
0100
1000
0000
0200
0000
0300
0000
,
0100
0010
1000
0000
0020
0000
0030
0000
,
0100
0010
0001
0000
0020
0000
0030
0000
,
0010
0010
1001
0001
,
0010
0010
1001
0001
,
0010
0010
0110
0100
,
1000
1000
1001
0001
,
0100
0100
1100
0100
,
0010
0010
0011
0101
,
1100
1010
1100
0101
,
1001
0000
0000
0000
;

//---------------dance-single - KONAMI-ESP----------------
#NOTES:
     dance-single:
     KONAMI:
     Hard:
     13:
     0.629025,0.650728,0.625543,0.081239,0,542,465,77,10,0,0,0.629025,0.650728,0.625543,0.081239,0,542,465,77,10,0,0:
0000
0000
0000
0000
,
0000
0000
0000
0000
,
0000
0000
0000
0000
,
0000
0000
0000
0000
,
0000
0000
0000
0000
,
0000
0000
0000
0000
,
0010
0001
0100
1000
0100
0001
0010
0000
,
0001
1000
0100
0001
0100
1000
0100
0000
,
0010
0001
1000
0010
0100
1000
0100
0000
,
2002
0000
0000
3003
,
1001
0000
0110
0000
0100
0001
0010
0000
,
0010
0001
0100
0000
0100
0001
0010
0000
,
0110
1100
0101
0011
,
2002
0000
0000
3003
,
0110
0000
1001
0000
1000
0100
0001
0000
,
0001
0100
1000
0000
1001
0000
0110
0000
,
1000
0010
0001
0000
0001
0010
1000
0000
,
1000
0100
0001
0100
1000
0100
0001
0000
,
1100
0101
1001
1100
,
0011
1100
1010
0101
,
0110
0000
1001
0000
0010
1000
0100
0000
,
0220
0000
0000
0330
,
0100
1000
0001
0100
0001
0100
1000
0000
,
0100
0001
0100
1000
0100
1000
0100
0000
,
0010
1000
0100
0000
0010
0001
0100
0000
,
2002
0000
0000
3003
,
0010
1000
0010
1000
0000
0100
0000
0010
,
0001
0010
0001
1000
0000
1000
0000
0100
,
1000
0100
1000
0001
0000
0001
0000
0010
,
0100
1000
0100
0001
0000
0001
0000
1000
,
0100
1000
0100
0001
0000
0001
0000
0010
,
0100
1000
0100
0010
0000
0010
0000
0100
,
1000
0100
0010
0100
0000
0100
0000
0010
,
0001
0100
1000
0100
0000
0100
0000
0000
,
0101
0000
1100
0000
0100
1000
0010
0000
,
0010
1000
0100
0000
0010
1000
0100
0000
,
0110
0000
1001
0000
0001
0010
1000
0000
,
1000
0010
0001
0000
1000
0010
0001
0000
,
1100
0000
0011
0000
1000
0100
0001
0000
,
0001
0100
1000
0000
1000
0010
0001
0000
,
0010
0001
0010
0001
0000
1000
0000
1000
,
0100
1000
0100
1000
0000
0000
0000
0000
,
0010
1000
0100
1000
0100
0001
0100
0001
,
0100
0010
0001
0010
0001
0010
1000
0010
,
1000
0010
0100
1000
0100
1000
0100
0001
,
0100
0001
0100
1000
0100
0001
0100
0000
,
1000
0010
0001
0010
0100
0010
0001
0010
,
1000
0100
0001
0100
0001
0100
0010
1000
,
0010
1000
0010
0001
0100
0001
0100
0010
,
1000
0010
1000
0010
0001
0010
1000
0000
,
0110
0000
0101
0000
0100
0001
0100
0000
,
1010
0000
1001
0000
0100
1000
0100
0000
,
0101
0000
1100
0000
0100
0010
0100
0000
,
1001
0000
0110
0000
0010
1000
0010
0000
,
0011
0000
1100
0000
0010
0001
0010
0000
,
0101
0000
1010
0000
1000
0001
1000
0000
,
0011
0110
1100
0110
,
2002
0000
0000
3003
,
1000
0010
0001
0000
1010
0000
0101
0000
,
0001
0100
1000
0000
1100
0000
0101
0000
,
0010
1000
0100
0000
0110
0000
1001
0000
,
0010
0001
0100
0000
1001
0000
0110
0000
,
0010
1000
0100
0000
0010
0100
1000
0000
,
1000
0100
0010
0000
0010
0001
0100
0000
,
1000
0100
0001
0000
0001
0010
1000
0000
,
0110
1001
1010
1100
,
0101
0110
0011
1100
,
1001
0011
1100
0101
,
1010
1100
0101
1100
,
0101
0000
1001
0000
0100
0001
0100
0000
,
0110
0000
0110
0000
0100
1000
0100
0000
,
0011
0000
1100
0000
0001
0100
1000
0000
,
1000
0100
0001
0000
0100
1000
0010
0000
,
0010
0001
0100
1000
0100
0001
0010
0000
,
0100
0001
0100
0001
0000
1000
0000
0001
,
1000
0001
1000
0100
0000
0010
0000
0010
,
0100
0001
0100
0001
0000
0100
0000
0010
,
0100
1000
0100
1000
0000
0100
0000
0010
,
0100
0010
0100
0001
0000
1000
0000
1000
,
0010
0100
0001
0100
0000
0001
0000
0001
,
0100
0001
0100
1000
0000
0100
0000
0100
,
0001
0100
0001
1000
0000
1000
0000
0000
,
0010
0100
0010
0100
1000
0100
0001
0000
,
0010
0100
0010
0100
1000
0010
0001
0000
,
0010
0100
0010
0100
0010
0001
0100
0000
,
1000
0100
1000
0100
0001
0010
0001
0000
,
0100
0001
0100
0001
0100
1000
0100
1000
,
0010
0001
0010
0001
0010
1000
0100
0001
,
1000
0010
0001
1000
0100
0001
0100
1000
,
0100
0000
0000
0000
;

//---------------dance-single - Talkion-CSP----------------
#NOTES:
     dance-single:
     Talkion:
     Challenge:
     16:
     0.812394,0.950501,0.341205,0.308710,0.414321,700,658,42,38,0,0,0.812394,0.950501,0.341205,0.308710,0.414321,700,658,42,38,0,0:
0000
0000
0000
0000
,
0000
0000
0000
0000
,
0000
0000
0000
0000
,
0000
0000
0000
0000
,
0000
0000
0000
0000
,
0000
0000
0000
0000
,
1000
0000
0100
0000
0010
0000
0100
0000
1000
0000
0001
0100
0000
0010
0100
0000
,
0001
0000
1000
0000
0100
0000
1000
0000
0001
0000
0010
0100
0000
1000
0100
0000
,
0010
0000
0001
0000
0100
0000
0001
0000
0010
0000
0100
1000
0000
0001
0100
0000
,
0020
0000
0000
0030
,
1000
0100
0010
2000
0000
3020
0000
0000
,
0031
0100
0010
0002
0000
0023
0000
0000
,
1030
0001
0010
2000
0000
3020
0000
0000
,
0032
0000
0103
0010
1000
0100
0020
0000
,
0130
1000
0001
0200
0000
2300
0000
0000
,
3100
0001
1000
0200
0000
0302
0000
0000
,
1003
0010
0001
0200
0000
0320
0000
0000
,
2030
0000
3100
0010
0001
0100
0020
0000
,
1030
0000
1000
0001
0010
1000
0010
0000
,
0100
0000
0100
1000
0001
0100
0010
0000
,
0001
0000
0001
0010
1000
0100
0010
0000
,
0100
0000
0100
1000
0001
0100
0010
0000
,
1000
0001
1000
0001
0010
0100
1000
0001
,
1000
0010
0100
0001
1000
0100
0010
0001
,
0110
0000
1000
0100
0011
0000
0001
0100
,
1010
0000
1000
0100
0010
0001
0110
0000
,
1000
0100
0010
0120
0000
1000
0000
0001
,
0031
0100
0010
0120
0000
0001
0000
1000
,
1030
0001
0010
0210
0000
0001
0000
1000
,
1300
0010
0100
0210
0000
1000
0000
0001
,
0301
0010
0100
1200
0000
0001
0000
1000
,
1300
0010
0100
0201
0000
1000
0000
0001
,
0301
0000
0010
0100
1001
0000
0100
0010
,
2002
0000
0000
0000
0000
0000
0000
0000
3003
0000
0000
0000
0001
0000
0100
0010
,
0100
0000
0010
0000
1000
0100
1000
0100
1000
0000
0001
0000
0100
0000
0010
0000
,
1000
0000
0100
0000
0010
0001
0010
0001
0010
0000
0100
0000
1000
0000
0001
0000
,
0100
0000
0010
0000
0100
0001
0100
0001
0100
0000
0010
0000
1000
0000
0100
0000
,
0010
0000
1001
0000
1001
0000
0000
0000
0101
0000
0000
0100
0010
0000
1000
0000
,
0001
0000
0010
0000
0100
1000
0100
1000
0100
0000
0010
0000
0001
0000
0100
0000
,
0010
0000
1000
0000
0001
0010
0001
0010
0001
0000
1000
0000
0010
0000
0100
0000
,
0001
0000
1000
0000
0100
0010
0100
0010
0100
0000
1000
0000
0001
0000
0200
0000
,
0020
0000
0000
0000
0330
0000
0010
0010
,
0010
0000
1000
0000
0100
0000
0010
0000
0001
0000
0100
0010
0000
0100
0001
0000
,
1000
0000
0100
0000
0010
0000
0100
0000
1000
0000
0010
0100
0000
0001
0100
0000
,
0010
0000
1000
0000
0001
0000
0010
0000
0100
0000
1000
0001
0000
0100
0010
0000
,
0100
0000
1001
0000
1001
0000
0000
0000
1010
0000
0000
0010
0100
0000
0010
0000
,
0100
0000
0001
0000
0010
0000
0100
0000
0001
0000
0100
1000
0000
0001
0100
0000
,
0010
0000
0001
0000
0010
0000
0100
0000
0001
0000
1000
0100
0000
0010
0001
0000
,
1000
0000
0010
0000
0100
0000
0010
0000
1000
0000
0001
0010
0000
0100
0010
0000
,
0002
1000
0000
1000
0000
2003
0010
0010
,
3010
0000
0000
0000
0110
0000
0001
0000
1000
0000
0100
0010
0000
0100
0010
0000
,
0001
0000
1000
0001
1000
0000
0010
0000
0100
0001
0100
0001
1000
0000
0100
0000
,
0010
0000
0000
0000
0011
0000
0100
0000
1000
0000
0001
0100
0000
0001
0100
0000
,
0010
0000
1001
0000
1001
0000
0000
0000
1100
0000
0000
0100
0010
0000
0001
0000
,
1000
0000
0000
0000
1001
0000
0100
0000
0010
1000
0010
1000
0010
0000
0100
0000
,
0001
1000
0001
1000
0001
0000
0010
0000
0100
1000
0100
1000
0100
0000
0010
0000
,
0001
1000
0001
0000
0100
0010
1000
0000
0100
0010
0001
0000
0100
0010
0200
0000
,
0020
0000
0000
0000
0330
0000
0100
0100
,
0100
0001
1000
0100
0010
1000
0001
0100
,
0010
0001
1000
0001
0200
0010
0310
0000
,
0100
0001
1000
0100
0001
0100
1000
0100
,
0010
0000
1001
0000
1001
0000
0000
0000
0101
0000
0000
0100
0001
0000
0100
0000
,
0010
1000
0001
0010
0100
0001
1000
0010
,
0100
1000
0001
1000
0020
0100
0130
0000
,
0010
1000
0001
0010
1000
0010
0001
0010
,
0100
0000
1001
0000
1001
0000
0100
0010
0100
0000
0010
0000
0110
0000
0000
0000
,
1000
0000
0100
0000
0010
0001
0010
0001
0010
0000
0100
0000
1000
0000
0001
0000
,
0100
0000
0010
0100
0010
0000
1000
0000
0200
0000
0010
0000
0310
0000
0000
0000
,
0001
0000
0010
0000
0100
1000
0100
1000
0100
0000
0010
0000
0001
0000
0100
0000
,
0010
0000
1001
0000
1001
0000
0000
0000
1100
0000
0000
1000
0100
0000
0010
0000
,
0100
0000
1000
0000
0001
0100
0001
0100
0001
0000
1000
0000
0100
0000
0010
0000
,
0001
0000
0100
0001
0200
0000
0000
0000
0310
0000
0000
0010
1000
0000
0001
0000
,
1000
0000
0100
1000
0100
0000
0010
0100
0010
0000
0001
0010
0001
0000
1000
0010
,
0100
0000
0001
0010
0100
0000
1000
0001
1000
0000
0010
0100
0010
0100
0001
1000
,
0200
0000
0010
0000
0310
0001
1000
0010
,
0100
0000
0010
0000
1000
0001
1000
0001
0010
0000
0100
0000
0010
0000
0001
0000
,
0100
0000
0010
0000
1000
0100
1000
0100
0010
0000
0100
0000
1000
0000
0001
0000
,
0100
0000
1001
0000
1001
0000
0000
0000
0011
0000
0000
0010
0001
0000
0100
0000
,
0010
0000
1000
0000
0100
0010
0100
0010
0001
0000
0010
0000
0100
0000
1000
0000
,
0001
0000
0100
0000
0010
0100
0010
0100
0001
0000
1000
0000
0100
0000
0010
0000
,
0001
0000
1000
0000
0010
0100
0010
0100
0001
0000
0100
0000
0010
0000
1000
0000
,
0100
0000
0011
0000
0011
0000
1000
0001
1000
0000
0010
0000
0110
0000
0000
0000
,
0001
0000
0010
0000
0100
1000
0100
1000
0010
0000
0100
0000
1000
0000
0100
0000
,
0010
0000
1000
0000
0100
0010
0100
0010
0001
0000
0100
0000
0010
0000
0001
0000
,
0010
0000
0100
0000
0010
1000
0010
1000
0100
0000
1000
0000
0001
0000
0100
0000
,
0010
0000
1001
0000
1001
0000
0000
0000
0101
0000
0000
0001
0100
0000
0010
0000
,
0100
0000
0010
0000
1000
0100
1000
0100
0010
0000
1000
0000
0010
0000
0100
1000
,
0100
0000
1000
0000
0001
0100
0001
0100
0010
0000
0001
0000
0010
0000
0100
0001
,
0100
0000
0010
1000
0100
0000
0010
0001
0100
0000
0010
1000
0001
1000
0100
0020
,
0200
0000
0000
0000
,
0330
0000
0000
0000
;

//---------------dance-double - KONAMI-BDP----------------
#NOTES:
     dance-double:
     KONAMI:
     Easy:
     5:
     0.248360,0.325364,0.308710,0.154355,0,214,176,38,19,0,0,0.248360,0.325364,0.308710,0.154355,0,214,176,38,19,0,0:
00000000
00000000
00000000
00000000
,
00000000
00000000
00000000
00000000
,
00000000
00000000
00000000
00000000
,
00000000
00000000
00000000
00000000
,
00000000
00000000
00000000
00000000
,
00000000
00000000
00000000
00000000
,
01000000
00000000
00010000
00000000
,
00001000
00000000
00000100
00000000
,
00001001
00000000
00000110
00000000
,
00002002
00000000
00000000
00003003
,
00000220
00000000
00000000
00000000
,
00000000
00000000
00000000
00000330
,
00002002
00000000
00000000
00000000
,
00000000
00000000
00000000
00003003
,
00000020
00000000
00002030
00000000
,
00003200
00000000
00000302
00000000
,
00000023
00000000
00002030
00000000
,
00003002
00000000
00000003
00000000
,
00001001
00000000
00000100
00000000
,
00001000
00000000
00010000
00000000
,
01000000
00000000
10000000
00000000
,
01000000
00000000
00010000
00000000
,
01100000
00000000
00010000
00000000
,
00011000
00000000
00001000
00000000
,
00001001
00000000
00000110
00000000
,
00001001
00000000
00000000
00000110
,
00000001
00000100
00001000
00000000
,
00001000
00000100
00000001
00000000
,
00000100
00001000
00010000
00000000
,
00001000
00010000
01000000
00000000
,
10000000
01000000
00010000
00000000
,
00010000
01000000
10000000
00000000
,
00100000
00010000
00001000
00000000
,
00010000
00001000
00000010
00000000
,
00001001
00000000
00001000
00000000
,
00000110
00000000
00000100
00000000
,
00001000
00000000
00011000
00000000
,
00010000
00000000
00011000
00000000
,
00100000
00000000
01100000
00000000
,
00010000
00000000
10010000
00000000
,
00010000
00000000
00011000
00000000
,
00011000
00000000
00000000
00000000
,
00100000
00000000
10000000
00000000
,
00010000
00000000
01000000
00000000
,
00001000
00000000
00010000
00000000
,
00000100
00000000
00001000
00000000
,
00000001
00000000
00000010
00000000
,
00001000
00000000
00010000
00000000
,
00001000
00000000
00010000
00000000
,
00011000
00000000
00000000
00000000
,
00010000
00000000
01100000
00000000
,
00100000
00000000
10010000
00000000
,
10000000
00000000
01100000
00000000
,
00010000
00000000
00011000
00000000
,
00001000
00000000
00000110
00000000
,
00000100
00000000
00001001
00000000
,
00001000
00000000
00000110
00000000
,
00022000
00000000
00033000
00000000
,
00010000
00000000
00011000
00000000
,
00100000
00000000
10100000
00000000
,
01000000
00000000
11000000
00000000
,
00010000
00000000
01010000
00000000
,
00001000
00000000
00011000
00000000
,
00000010
00000000
00000011
00000000
,
00000100
00000000
00000101
00000000
,
00001000
00000000
00001100
00000000
,
00000010
00000001
00000000
00000100
,
00000000
00001000
00000000
00010000
,
00100000
10000000
00000000
01000000
,
00000000
00010000
00000000
00001000
,
00000100
00000001
00000000
00000010
,
00000000
00001000
00000000
00010000
,
01000000
10000000
00000000
00100000
,
00000000
00010000
00000000
00001000
,
00000200
00000001
00000000
00000010
,
00000000
00000001
00000000
00000310
,
00000002
00000010
00000000
00001000
,
00000000
00000010
00000000
00001003
,
00000020
00001000
00000000
00000100
,
00000000
00001000
00000000
00000130
,
00002000
00000100
00000000
00000001
,
00000000
00000100
00000000
00003001
,
00001000
00000100
00010000
00000000
,
00001000
00010000
01000000
00000000
,
00010000
00001000
01000000
00000000
,
00001000
00010000
00000100
00000000
,
00000001
00000000
00000010
00000000
,
00001000
00000000
00000100
00000000
,
00000001
00000000
00000010
00000000
,
00001001
00000000
00000000
00000000
;

//---------------dance-double - KONAMI-DDP----------------
#NOTES:
     dance-double:
     KONAMI:
     Medium:
     8:
     0.376022,0.469970,0.194975,0.268090,0,324,300,24,33,0,0,0.376022,0.469970,0.194975,0.268090,0,324,300,24,33,0,0:
00000000
00000000
00000000
00000000
,
00000000
00000000
00000000
00000000
,
00000000
00000000
00000000
00000000
,
00000000
00000000
00000000
00000000
,
00000000
00000000
00000000
00000000
,
00000000
00000000
00000000
00000000
,
00000001
00000100
00000010
00001000
,
00000010
00000100
00000011
00000100
,
00001000
00010000
01000000
10000000
,
20020000
00000000
00000000
30030000
,
10000000
01000000
00100000
01000000
,
00010000
00001000
00000100
00000001
,
00000010
00000100
00000001
00000100
,
00001000
00000010
00000100
00001000
,
00010000
01000000
10000000
01000000
,
00100000
00010000
10000000
01000000
,
00100000
00010000
01000000
00010000
,
10000000
01000000
00010000
00001000
,
00011000
00001000
00010000
00000100
,
00010000
00001000
00010000
00000010
,
00010000
00001000
00100000
00001000
,
00010000
00001000
01000000
00001000
,
00011000
00010000
01000000
10000000
,
10010000
10000000
00100000
01000000
,
01100000
00000000
10010000
00000000
,
20020000
00000000
00000000
30030000
,
00010000
01000000
10000000
00000000
01000000
00000000
00010000
00000000
,
10000000
01000000
00010000
00001000
,
00010000
00001000
00010000
00000000
00001000
00000000
00010000
00000000
,
00001000
00000100
00000001
00000100
,
00000001
00000100
00001000
00000000
00000100
00000000
00000010
00000000
,
00001000
00000001
00000010
00000100
,
00000010
00000100
00000010
00000000
00000100
00000000
00001000
00000000
,
00000001
00000100
00001000
00010000
,
00011000
00000000
00001000
00010000
,
00110000
00000000
00010000
00100000
,
10100000
00000000
00100000
10000000
,
11000000
00000000
10000000
01000000
,
01010000
00000000
01000000
00010000
,
00011000
00000000
00010000
00001000
,
00001100
00000000
00000101
00000000
,
00002002
00000000
00000000
00003003
,
00000001
00000100
00000001
00000100
,
00000010
00001000
00000010
00001000
,
00000100
00010000
00000100
00010000
,
00001000
00010000
00001000
00010000
,
00001000
00100000
00001000
00100000
,
00010000
01000000
00010000
01000000
,
00100000
10000000
00100000
10000000
,
02200000
00000000
00000000
03300000
,
00100000
10000000
00100000
10000000
,
00010000
01000000
00010000
01000000
,
00001000
01000000
00001000
01000000
,
00001000
00010000
00001000
00010000
,
00000010
00010000
00000010
00010000
,
00000010
00001000
00000010
00001000
,
00000001
00000100
00000001
00000100
,
00000220
00000000
00000000
00000330
,
00000001
00000100
00001000
00010000
,
00001000
00010000
00100000
10000000
,
00100000
10000000
01000000
00010000
,
01000000
00010000
00001000
00000010
,
00001000
00000010
00000001
00000100
,
00000001
00000100
00001000
00010000
,
00001000
00010000
00100000
10000000
,
00100000
10000000
01000000
00010000
,
01000000
00100000
00010000
10000000
,
00100000
01000000
00010000
10000000
,
01000000
00010000
00100000
01000000
,
00010000
00001000
00010000
00001000
,
00000010
00000100
00001000
00000010
,
00000100
00000001
00001000
00000100
,
00000010
00000001
00001000
00000100
,
00001001
00000110
00000110
00001001
,
00000002
00000100
00000010
00000103
,
00000200
00001000
00000001
00001300
,
00002000
00010000
00010000
00013000
,
00020000
01000000
01000000
01030000
,
02000000
10000000
00010000
13000000
,
20000000
00100000
01000000
30100000
,
00200000
10000000
00010000
10300000
,
20000000
01000000
00100000
31000000
,
00200000
00000000
20300000
00000000
,
32000000
00000000
03020000
00000000
,
00032000
00000000
00003200
00000000
,
00000302
00000000
00000023
00000000
,
00002030
00000000
00023000
00000000
,
00032000
00000000
00023000
00000000
,
00032000
00023000
00032000
00013000
,
00011000
00000000
00000000
00000000
;

//---------------dance-double - KONAMI-EDP----------------
#NOTES:
     dance-double:
     KONAMI:
     Hard:
     13:
     0.521093,0.619755,0.170603,0.219346,0.032496,449,428,21,27,0,0,0.521093,0.619755,0.170603,0.219346,0.032496,449,428,21,27,0,0:
00000000
00000000
00000000
00000000
,
00000000
00000000
00000000
00000000
,
00000000
00000000
00000000
00000000
,
00000000
00000000
00000000
00000000
,
00000000
00000000
00000000
00000000
,
00000000
00000000
00000000
00000000
,
00001000
00000000
00010000
00000000
01000000
00000000
10000000
01000000
,
00010000
00000000
00010000
01000000
10000000
00000000
10000000
01000000
,
00010000
01000000
00100000
00001000
,
00022000
00000000
00000000
00000000
00033000
00000000
00000000
00000000
00000000
00000000
00000000
00010000
00000000
00000000
00000000
00000000
,
00000010
00000000
00001000
00001000
00000000
00000100
00000000
00000010
,
00000000
00000001
00000000
00001000
00000000
00000010
00000000
00000000
,
00001000
00000000
00000001
00000100
00000000
00000002
00000000
00002000
,
00000000
00000000
00000000
00000000
,
00003003
00000000
00000000
00000010
00001000
00000010
00000000
00001000
,
00000000
00000100
00000000
00010000
00000000
00010000
00000000
00001000
,
00000000
00000000
00010000
00001000
00010000
01000000
00000000
00010000
,
00000000
00001000
00000000
00010000
00000000
00011000
00000000
00000000
,
00000000
00100000
00000000
01000000
00000000
10000000
00000000
00100000
,
00000000
01000000
00000000
00010000
00000000
00100000
00000000
00001000
,
00000000
00010000
00000000
00000010
00000000
00001000
00000000
00000100
,
00000000
00000010
00000000
00001000
00000000
00010000
00000000
00001000
,
00022000
00033000
00000000
00000000
,
00022000
00033000
00000000
00000000
,
10010000
00000000
00011000
00000000
,
00002002
00000000
00003003
00001001
,
00000001
00000010
00000100
00001000
00000000
00001000
00000000
00000001
,
00001000
00000010
00000100
00000001
00000000
00000100
00000000
00001000
,
00010000
01000000
00010000
00001000
00000000
00001000
00000000
00010000
,
00001000
00000100
00001000
00010000
00000000
00010000
00000000
00010000
,
00022000
00033000
00000000
00000000
,
00022000
00033000
00000000
00000000
,
00001001
00000000
00011000
00000000
,
10010000
00000000
00000000
00000000
00000000
00000000
01000000
01000000
,
11000000
01000000
00100000
00010000
00000000
10000000
00000000
10000000
,
00010000
01000000
00100000
10000000
00000000
01000000
00000000
00010000
,
00001000
00000100
00001000
00010000
00000000
00010000
00000000
00001000
,
00010000
00000000
01000000
00000000
00010000
00000000
00000000
00000000
00001000
00000000
00000000
00010000
00000000
00000000
00001000
00000000
,
00010000
01000000
10000000
00100000
00000000
00100000
00000000
10000000
,
01000000
00010000
00001000
00000010
00000000
00000010
00000000
00000001
,
00000100
00001000
00010000
00100000
00000000
00100000
00000000
00010000
,
00001000
00010000
00001000
00011000
00000000
00000000
00010000
00001000
,
00010000
00001000
00010000
00001000
00000100
00000000
00001000
00000100
,
00000001
00000000
00000100
00000001
00000010
00000000
00000010
00001000
,
00000010
00001000
00010000
00001000
00010000
00000000
00010000
01000000
,
00010000
00000000
01000000
00000000
10000000
00000000
00000000
00000000
00100000
00000000
00000000
01000000
00000000
00000000
00010000
00000000
,
10000000
00100000
10000000
01000000
10000000
00000000
01000000
10000000
,
01000000
00000000
00010000
01000000
00010000
00000000
00001000
00010000
,
00001000
00010000
00001000
00000100
00000001
00000000
00000001
00000100
,
00002000
00000000
00000000
00000000
00000000
00000000
00013000
00001000
,
00010000
01000000
10000000
00000000
10000000
00100000
00010000
00000000
,
00010000
00100000
10000000
00000000
10000000
01000000
00010000
00000000
,
00001000
00000100
00000001
00000000
00000001
00000010
00001000
00000000
,
00001000
00000000
00000010
00000000
00000001
00000000
00000000
00000000
00001000
00000000
00000000
00000001
00000000
00000000
00000100
00000000
,
00001001
00001000
00001100
00000100
,
00010100
00010000
00011000
00001000
,
00010000
01000000
00100000
00010000
01000000
00100000
10000000
00010000
,
20020000
00000000
00000000
00000000
00030000
00000000
01000000
01000000
,
31000000
00100000
00000000
00010000
00000000
10000000
00000000
00010000
,
00000000
01000000
00000000
00001000
00000000
00010000
00000000
00000100
,
00000000
00001000
00000000
00000010
00000000
00000100
00000000
00000001
,
00000100
00000000
00000001
00000000
00001000
00000000
00000000
00000000
00000010
00000000
00000000
00000100
00000000
00000000
00000001
00000000
,
00001000
00000001
00000000
00000100
00000000
00000010
00000000
00001000
,
00000000
00000100
00000000
00010000
00000000
00001000
00000000
01000000
,
00000000
00010000
00000000
10000000
00000000
00100000
00000000
01000000
,
00010000
00010000
10000000
10000000
00100000
00100000
01000000
00100000
,
01000000
00010000
10000000
00000000
01000000
10000000
00010000
00000000
,
00100000
00001000
00010000
00000000
00001000
00010000
00000010
00000000
,
00001000
00000001
00000100
00000000
00000001
00001000
00000010
00000000
,
00000100
00000000
00000001
00000000
00001000
00000000
00000000
00000000
00000001
00000000
00000000
00000010
00000000
00000000
00000100
00000000
,
00000100
00001000
00000001
00001000
00000000
00000000
00000000
00000000
,
00000100
00010000
00000100
00010000
00000000
00000000
00000000
00000000
,
00001000
00010000
00001000
00100000
00001000
00010000
00000010
00010000
,
00001000
01000000
00001000
00010000
00000100
00010000
00001000
00100000
,
00010000
01000000
00010000
20000000
00000000
30100000
00000000
00100000
,
10000000
00010000
01000000
00002000
00000000
00013000
00000000
00010000
,
00001000
00000100
00001000
00020000
00000000
00031000
00000000
00001000
,
00000100
00000000
00000001
00000000
00001000
00000000
00000000
00000000
00000001
00000000
00000000
00000100
00000000
00000000
00000010
00000000
,
00001000
00000100
00010000
00002000
00000000
00013000
00000000
00010000
,
00001000
00000100
00001000
00020000
00000000
00031000
00000000
00001000
,
00010000
01000000
00010000
00002000
00000000
00013000
00000000
00010000
,
01000000
10000000
00100000
01000000
00000000
00100000
10000000
00100000
,
01000000
00010000
01000000
00010000
00100000
00010000
10000000
01000000
,
10000000
00100000
00010000
00001000
00010000
00001000
00000100
00000001
,
00000100
00000010
00001000
00000010
00001000
00000100
00001000
00000001
,
00000010
00000000
00000001
00000000
00000100
00000000
00001000
00000000
00010000
00000000
00000000
00001000
00000000
00000000
00010000
00000000
,
00100000
10000000
01000000
20000000
00000000
30010000
00000000
00010000
,
01000000
00001000
00010000
00000200
00000000
00000310
00000000
00000001
,
00000010
00000100
00001000
00000010
00000100
00001000
00010000
00001000
,
00022000
00000000
00000000
00033000
;

//---------------dance-double - Talkion-CDP----------------
#NOTES:
     dance-double:
     Talkion:
     Challenge:
     16:
     0.760169,0.913943,0.162479,0.178727,0.259966,655,635,20,22,0,0,0.760169,0.913943,0.162479,0.178727,0.259966,655,635,20,22,0,0:
// measure 0
00000000
00000000
00000000
00000000
,  // measure 1
00000000
00000000
00000000
00000000
,  // measure 2
00000000
00000000
00000000
00000000
,  // measure 3
00000000
00000000
00000000
00000000
,  // measure 4
00000000
00000000
00000000
00000000
,  // measure 5
00000000
00000000
00000000
00000000
,  // measure 6
10000000
00000000
01000000
00000000
00100000
00000000
00001000
00000000
00010000
00000000
00000100
00001000
00000000
00000010
00001000
00000000
,  // measure 7
00000001
00000000
00000010
00000000
00000100
00000000
00010000
00000000
00001000
00000000
00100000
00010000
00000000
01000000
00010000
00000000
,  // measure 8
10000000
00000000
01000000
00000000
00010000
00000000
00001000
00000000
00100000
00000000
00001000
00010000
00000000
00000100
00001000
00000000
,  // measure 9
00000020
00000000
00000000
00000030
,  // measure 10
00000100
00000001
00000010
00000200
00000000
00020300
00000000
00000000
,  // measure 11
01030000
10000000
00010000
02000000
00000000
03200000
00000000
00000000
,  // measure 12
10300000
01000000
00010000
00002000
00000000
00003020
00000000
00000000
,  // measure 13
00000031
00000000
00000010
00001000
00010000
00000010
00000100
00000000
,  // measure 14
00001000
00000100
00000001
00000020
00000000
00002030
00000000
00000000
,  // measure 15
00103000
00010000
01000000
00200000
00000000
20300000
00000000
00000000
,  // measure 16
31000000
00010000
00001000
00200000
00000000
00302000
00000000
00000000
,  // measure 17
00013000
00000000
00001000
00000100
00000001
00000010
00001000
00000000
,  // measure 18
00010000
00000000
00010000
00000000
01000000
00100000
00010000
01000000
,  // measure 19
00001000
00000000
00001000
00000000
00000100
00000010
00001000
00000100
,  // measure 20
00010000
00000000
00010000
00000000
01000000
10000000
00010000
01000000
,  // measure 21
00100000
00000000
00010000
00000000
00001000
00000100
00000001
00000000
,  // measure 22
00000010
00000001
00000010
00000001
00001000
00000010
00010000
00001000
,  // measure 23
00100000
00010000
00100000
00010000
10000000
00100000
00010000
00001000
,  // measure 24
00000100
00001000
00010000
00001000
00000010
00001000
00010000
00000010
,  // measure 25
00000100
00001000
00010000
01000000
00100000
00010000
10010000
00000000
,  // measure 26
10000000
00100000
00010000
00001000
00000000
00000110
00000000
00001001
,  // measure 27
00000001
00000100
00001000
00010000
00000000
01100000
00000000
10010000
,  // measure 28
10000000
00010000
00100000
01000000
00000000
00110000
00000000
00011000
,  // measure 29
00001000
00000100
00000010
00001000
00000000
00001001
00000000
00000011
,  // measure 30
00000010
00001000
00010000
01000000
00000000
10010000
00000000
11000000
,  // measure 31
01000000
00010000
00001000
00000010
00000000
00001001
00000000
00000011
,  // measure 32
00000010
00001000
00010000
00100000
10000000
01000000
00100000
00001000
,  // measure 33
00022000
00000000
00000000
00000000
00033000
00000000
00000100
00000100
,  // measure 34
00000100
00000000
00001000
00000000
00000001
00000000
00000100
00000010
00001000
00000000
00000100
00000000
00000010
00000000
00001000
00000000
,  // measure 35
00010000
00000000
00100000
00000000
01000000
00000000
00010000
10000000
01000000
00000000
00100000
00000000
01000000
00000000
10000000
00000000
,  // measure 36
00100000
00000000
00010000
00000000
00001000
00000000
00100000
00001000
00010000
00000000
00001000
00000000
00000100
00000000
00000001
00000000
,  // measure 37
00000010
00000000
00001000
00000000
00010000
00000000
01000000
00000000
10000000
00000000
00010000
10000000
00010000
00000000
00000000
00000000
,  // measure 38
10000000
00000000
01000000
00000000
00100000
00000000
00010000
01000000
00001000
00000000
00010000
00000000
00100000
00000000
00010000
00000000
,  // measure 39
00001000
00000000
00000010
00000000
00000100
00000000
00010000
00000010
00001000
00000000
00000001
00000000
00000100
00000000
00001000
00000000
,  // measure 40
00010000
00001000
00000010
00001000
00010000
01000000
10000000
00010000
,  // measure 41
20020000
00000000
00000000
00000000
30030000
00000000
00100000
00100000
,  // measure 42
00100000
00000000
10000000
00000000
00010000
00000000
00100000
00000000
00001000
00000000
00100000
00010000
00000000
00100000
00001000
00000000
,  // measure 43
00010000
00000000
00000100
00000000
00001000
00000000
00000001
00000000
00000100
00000000
00000010
00001000
00000000
00000010
00000100
00000000
,  // measure 44
00000001
00000000
00000010
00000000
00001000
00000000
00010000
00000000
00001000
00000000
00100000
00010000
00000000
01000000
00010000
00000000
,  // measure 45
10000000
00000000
01000000
00000000
00010000
00000000
00001000
00000000
00000010
00000000
00000100
00000010
00000100
00000000
00000000
00000000
,  // measure 46
00000010
00000000
00000001
00000000
00000100
00000000
00001000
00000000
00000100
00000000
00000010
00001000
00000000
00000100
00010000
00000000
,  // measure 47
00001000
00000000
00010000
00000000
01000000
00000000
00010000
00000000
00001000
00000000
00100000
00010000
00000000
01000000
00100000
00000000
,  // measure 48
10000000
00000000
01000000
00000000
00100000
00000000
00001000
00000000
00010000
00000000
00100000
01000000
00000000
00010000
01000000
00000000
,  // measure 49
00002000
00010000
00000000
00010000
00000000
00013000
00000100
00000100
,  // measure 50
00000100
00000000
00000110
00000001
00000100
00001000
01000000
00001000
,  // measure 51
00010000
00100000
10000000
01000000
00100000
00010000
01000000
01000000
,  // measure 52
01000000
00000000
01100000
10000000
01000000
00010000
00000100
00010000
,  // measure 53
00001000
00000000
00000010
00000000
00000001
00000000
00000100
00000000
00000010
00000000
00001000
00000001
00001000
00000000
00000000
00000000
,  // measure 54
00000001
00000000
00001000
00000000
00000010
00000000
00001000
00000000
00000100
00000000
00010000
00001000
00000000
00100000
00010000
00000000
,  // measure 55
01000000
00000000
00100000
00000000
10000000
00000000
00100000
00000000
00010000
00000000
00001000
00100000
00000000
00010000
00100000
00000000
,  // measure 56
01000000
00000000
10000000
00010000
10000000
00000000
00100000
01000000
00010000
00000000
00100000
00001000
00010000
00000000
00001000
00000000
,  // measure 57
00022000
00000000
00000000
00000000
00033000
00000000
00000010
00000010
,  // measure 58
00000010
00001000
00000010
00000001
00000010
00001000
00000100
00000010
,  // measure 59
00001000
00010000
00100000
10000000
01000000
00100000
00010000
00000000
,  // measure 60
00010000
10000000
00100000
00010000
00000010
00010000
00000100
00010000
,  // measure 61
00001000
00000010
00000001
00000100
00000010
00001000
00000100
00000000
,  // measure 62
00000100
00001000
00000100
00000001
00000100
00001000
00000010
00000100
,  // measure 63
00001000
00010000
01000000
10000000
00100000
01000000
00010000
00000000
,  // measure 64
00010000
10000000
01000000
00010000
00001000
00000010
00001000
00010000
,  // measure 65
00000010
00000100
00000010
00001000
00000001
00000001
00000001
00000000
,  // measure 66
00000010
00000000
00000001
00000000
00001000
00000010
00001000
00000010
00010000
00000000
00001000
00000000
00010000
00000000
01000000
00000000
,  // measure 67
10000000
00010000
01000000
00100000
00010000
00001000
00100000
00000000
,  // measure 68
01000000
00000000
10000000
00000000
00010000
01000000
00010000
01000000
00001000
00000000
00010000
00000000
00001000
00000000
00000010
00000000
,  // measure 69
00000001
00000000
00000100
00000000
00001000
00000000
00000100
00000000
00000001
00000000
00001000
00000001
00001000
00000000
00000000
00000000
,  // measure 70
00000001
00000010
00001000
00000010
00000001
00000010
00001000
00100000
,  // measure 71
00010000
01000000
10000000
01000000
00010000
00100000
00001000
00000010
,  // measure 72
00000001
00000000
00000100
00000010
00001000
00000000
00000010
00001000
00000100
00000000
00010000
00001000
00010000
00000000
00001000
00100000
,  // measure 73
00010000
00000000
01000000
00010000
01000000
00010000
10000000
00000000
00010000
00100000
00001000
00000000
00011000
00000000
00000000
00000000
,  // measure 74
00010000
00000000
01000000
00000000
00100000
00000000
00010000
10000000
00100000
00000000
01000000
00000000
00001000
00000000
00010000
00000000
,  // measure 75
00100000
00000000
00010000
00000000
00001000
00000000
00000010
00000100
00001000
00000000
00000001
00000000
00000100
00000000
00000010
00000000
,  // measure 76
00010000
00000000
00001000
00000000
00000010
00000000
00000100
00001000
00000001
00000000
00000100
00000000
00000010
00000000
00001000
00000000
,  // measure 77
00010000
00000000
01000000
00000000
10000000
00000000
01000000
00000000
00010000
00000000
10000000
00010000
10000000
00000000
00000000
00000000
,  // measure 78
00010000
00000000
00100000
00000000
01000000
00000000
00010000
00001000
00100000
00000000
00010000
00000000
10000000
00000000
00100000
00000000
,  // measure 79
00010000
00000000
00001000
00000000
00010000
00000000
00000100
00001000
00000010
00000000
00010000
00000000
00001000
00000000
00000010
00000000
,  // measure 80
00000001
00000000
00001000
00000000
00000010
00000000
00000100
00000010
00001000
00000000
00000001
00000000
00000010
00000000
00001000
00000000
,  // measure 81
00010000
00001000
00000100
00000001
00001000
00000100
00000110
00000000
,  // measure 82
00000001
00000000
00000010
00000000
00001000
00000000
00010000
00000100
00001000
00000000
00000010
00000000
00001000
00000000
00000100
00000000
,  // measure 83
00010000
00000000
00001000
00000000
00100000
00000000
00010000
01000000
10000000
00000000
01000000
00000000
00010000
00000000
10000000
00000000
,  // measure 84
01000000
00000000
00010000
00000000
00001000
00000000
00100000
00010000
01000000
00000000
00100000
00000000
00010000
00000000
00001000
00000000
,  // measure 85
00000100
00000000
00000001
00000000
00000010
00000000
00001000
00000000
00010000
00000000
00001000
00010000
00001000
00000000
00000000
00000000
,  // measure 86
00000010
00000000
00000001
00000000
00000100
00000000
00000010
00000100
00000001
00000000
00001000
00000000
00000100
00000000
00000001
00000100
,  // measure 87
00001000
00000000
00000010
00000000
00010000
00000000
00001000
00100000
00010000
00000000
10000000
00000000
00100000
00000000
00010000
00100000
,  // measure 88
10000000
00000000
01000000
00000000
00010000
00000000
00001000
00000000
00000010
00000001
00000010
00000001
00001000
00000010
00001000
00000020
,  // measure 89
00000200
00000000
00000000
00000000
,  // measure 90
00000330
00000000
00000000
00000000
;
