#TITLE:Lost wing at.0;
#ARTIST:猫叉Master+;
#ARTISTTRANSLIT:Nekomata Master+;
#BANNER:Lost wing at.0.png;
#BACKGROUND:Lost wing at.0-bg.png;
#MUSIC:Lost wing at.0.ogg;
#OFFSET:-0.006;
#SAMPLESTART:1.129;
#SAMPLELENGTH:15;
#BPMS:0=185;
#BGCHANGES:-0.25=Lost wing at.0.avi=1=0=0=0=StretchNoLoop====,99999=-nosongbg-=1=0=0=0 // don't automatically add -songbackground-;

//---------------dance-single - NewbStepper-bSP----------------
#NOTES:
     dance-single:
     NewbStepper:
     Beginner:
     2:
     0.072807,0.109211,0.032359,0.088987,0,63,59,4,11,0,0,0.072807,0.109211,0.032359,0.088987,0,63,59,4,11,0,0:
0000
0000
0000
0000
,
0001
0000
0000
0000
,
0000
0000
0000
0000
,
0000
0000
0000
0000
,
1000
0000
0000
0000
,
0000
0000
0000
0000
,
0000
0000
0000
0000
,
0001
0000
0000
0000
,
0000
0000
0000
0000
,
0000
0000
0000
0000
,
1000
0000
0000
0000
,
0000
0000
0000
0000
,
1001
0000
0000
0000
,
0000
0000
0000
0000
,
0000
0000
0000
0000
,
0000
0000
0000
0000
,
0010
0000
0000
0000
,
0010
0000
0000
0000
,
0100
0000
0000
0000
,
0000
0000
0000
0000
,
0010
0000
0000
0000
,
0010
0000
0000
0000
,
0100
0000
0000
0000
,
0000
0000
0000
0000
,
0002
0000
0000
0003
,
2000
0000
0000
3000
,
0020
0000
0000
0000
0000
0000
0000
0030
,
0000
0000
0000
0000
,
2000
0000
0000
3000
,
0002
0000
0000
0003
,
0020
0000
0000
0000
0000
0000
0000
0030
,
0000
0000
0000
0000
,
0001
0000
0000
0000
,
0001
0000
0000
0000
,
1000
0000
0000
0000
,
1000
0000
0000
0000
,
0100
0000
0000
0000
,
0100
0000
0000
0000
,
0010
0000
0000
0000
,
0000
0000
0000
0000
,
0000
0000
0000
0000
,
0000
0000
0000
0000
,
1001
0000
0000
0000
,
0000
0000
0000
0000
,
0010
0000
0000
0000
,
0000
0000
0000
0000
,
0100
0000
0000
0000
,
0000
0000
0000
0000
,
0010
0000
0000
0000
,
0000
0000
0000
0000
,
0001
0000
0000
0000
,
0000
0000
0000
0000
,
1001
0000
0000
0000
,
0000
0000
0000
0000
,
0100
0000
0000
0000
,
0000
0000
0000
0000
,
0010
0000
0000
0000
,
1000
0000
0000
0000
,
0001
0000
0000
1000
,
0000
0000
0000
0000
,
0001
0000
0000
1000
,
0000
0000
0000
0000
,
0010
0000
0000
0010
,
0000
0000
0100
0000
,
0000
0100
0000
0000
,
0001
0000
0000
0002
,
0000
0000
0000
0003
,
2000
0000
0000
0000
,
0000
0000
0000
0000
,
0000
3000
0000
0000
,
0010
0000
0000
0010
,
0000
0000
0100
0000
,
0000
0100
0000
0000
,
0010
0000
0000
0200
,
0000
0000
0000
0300
,
0002
0000
0000
0000
,
0000
0000
0000
0003
,
1000
0000
0001
0000
,
0200
0000
0000
0000
,
0000
0000
0000
0300
,
0000
0000
0000
0000
,
0001
0000
0000
0000
,
0000
0000
0000
0000
,
0000
0000
0000
0000
,
1000
0000
0000
0000
,
0000
0000
0000
0000
,
0000
0000
0000
0000
,
0001
0000
0000
0000
,
0000
0000
0000
0000
,
1001
0000
0000
0000
,
0100
0000
0000
0000
;

//---------------dance-single - NewbStepper-BSP----------------
#NOTES:
     dance-single:
     NewbStepper:
     Easy:
     6:
     0.205709,0.327633,0.137525,0.226512,0,178,161,17,28,0,0,0.205709,0.327633,0.137525,0.226512,0,178,161,17,28,0,0:
0000
0000
0000
0000
,
2000
0000
0000
0001
0000
0000
0001
0000
,
0000
0001
0000
0000
0000
0000
3000
0000
,
0000
0000
0000
0000
,
0200
0000
0000
0010
0000
0000
0010
0000
,
0000
0010
0000
0000
0010
0000
0300
0000
,
0000
0000
0000
0000
,
0002
0000
0000
1000
0000
0000
1000
0000
,
0000
1000
0000
0000
0000
0000
0003
0000
,
0000
0000
0000
0000
,
0020
0000
0000
0100
0000
0000
0100
0000
,
0000
0100
0000
0000
0030
0000
0000
0000
,
0110
0000
0000
0000
,
1001
0000
0000
0000
,
0000
0000
0000
0000
,
0000
0000
0000
0000
,
0001
1000
0000
1000
,
0100
1000
0000
1000
,
0010
0000
1000
0000
0000
0100
0000
0100
,
0000
0000
0000
0010
0000
0010
0000
0000
,
0001
0000
0000
0002
0000
0000
0003
0000
,
0100
0000
0000
0200
0000
0000
0300
0000
,
1000
0000
0000
2000
0000
0000
3000
0010
,
0000
0001
0000
0100
0000
0010
0000
0000
,
1001
0000
0000
2000
0000
0000
3000
0000
,
1001
0000
0000
0002
0000
0000
0003
0000
,
0110
0000
0000
0200
0000
0000
0300
0010
,
0000
1000
0000
0010
0000
0100
0000
0002
,
0000
0000
0000
1003
0000
0000
0000
0000
,
1001
0000
0000
0002
0000
0000
0003
0000
,
1000
0000
0100
0000
0000
0010
0000
0010
,
0000
0001
0000
0100
0000
0010
0000
2000
,
0000
0000
0000
3000
,
0002
0000
0000
0003
,
0200
0000
0000
0300
,
0020
0000
0000
0030
,
1000
0200
0000
0300
,
0020
0000
0000
0030
,
0002
0000
0000
0000
0000
0000
0003
1000
,
0000
0100
0000
0010
0000
0001
0000
0200
,
0000
0000
0000
0000
,
0000
0000
0300
0000
,
1010
0000
0000
0101
,
0000
0000
0000
0000
,
0010
0000
0000
0010
,
0000
0000
0000
0000
,
0100
0000
0000
0100
,
0000
0000
0000
0000
,
0010
0000
0000
0010
,
0000
0000
0000
0000
,
1000
0000
0000
0001
,
0000
0000
0000
0000
,
1100
0000
0000
0101
,
0000
0000
0000
0000
,
0011
0000
0000
1010
,
0000
0000
0000
0000
,
1001
0000
1000
0000
,
0100
0000
0100
0000
,
0010
0000
0000
0010
,
0000
0001
0100
0001
,
0101
0000
0000
1010
,
0000
0000
0000
0000
,
1000
0100
0001
0100
,
1000
0001
0100
1000
,
0100
0001
1000
0010
,
0100
0001
0010
0100
,
2000
0000
0000
3000
,
0001
0100
0010
2000
,
0000
0000
0000
0000
,
3000
0000
0000
0000
,
0001
0100
1000
0100
,
0001
1000
0100
0001
,
0100
1000
0001
0010
,
0100
1000
0010
0200
,
0000
0000
0000
0300
,
0010
1000
0001
0020
,
0000
0000
0000
0030
,
0001
0000
0100
0000
,
0010
0000
0000
1000
0000
0000
0001
0000
,
0000
0200
0000
0000
0000
0000
0000
0000
,
0000
0000
0000
0300
,
0002
0000
0000
1000
0000
0000
1000
0000
,
0000
1000
0000
0000
0000
0000
0003
0000
,
0000
0000
0000
0000
,
0200
0000
0000
0010
0000
0000
0010
0000
,
0000
0010
0000
0000
0000
0000
0300
0000
,
0000
0000
0000
0000
,
2000
0000
0000
0001
0000
0000
0001
0000
,
0000
0001
0000
0000
0000
0000
3000
0000
,
0110
0000
0000
0000
,
1001
0000
0000
0000
;

//---------------dance-single - NewbStepper-DSP----------------
#NOTES:
     dance-single:
     NewbStepper:
     Medium:
     9:
     0.317810,0.526639,0.129435,0.436844,0.048538,275,259,16,54,0,0,0.317810,0.526639,0.129435,0.436844,0.048538,275,259,16,54,0,0:
0000
0000
0000
0000
,
0200
0000
0000
0001
0000
0000
1000
0000
,
0000
0020
0000
0000
0000
0000
0000
0000
,
0000
0000
0000
0330
,
2000
0000
0000
0010
0000
0000
0001
0000
,
0000
0200
0000
0000
0000
0000
0000
0000
,
0000
0000
0000
3300
,
0002
0000
0000
0023
0000
0000
0230
0000
,
0000
2300
0000
0000
0000
0000
0000
0000
,
0000
0000
0000
3000
,
0002
0000
0000
0203
0000
0000
0320
0000
,
0000
2030
0000
0000
0000
0000
0000
0000
,
0002
0000
0000
3003
,
0220
0000
0000
0000
,
0330
0000
0000
0000
,
0000
0000
0000
0000
,
1000
0000
0100
0000
0000
1000
0100
0000
,
0010
0000
0001
0000
0000
0010
0001
0000
,
0100
0000
0010
0000
0000
1000
0000
0001
,
0000
0100
0010
0100
0000
0001
0000
0000
,
0020
0000
0030
0001
0000
1000
0100
0000
,
0020
0000
0030
0001
0000
1000
0100
0000
,
0010
0000
0002
0000
0003
0100
0010
1000
,
0000
0100
0000
0010
0000
0001
1000
0000
,
0020
0000
0030
1000
0000
0001
0100
0000
,
0020
0000
0030
1000
0000
0001
0100
0000
,
0010
0000
1000
0000
0100
0010
0001
0010
,
0000
0100
0000
1000
0000
0010
0000
0200
,
0000
0000
0300
0001
0000
1000
0010
0000
,
0200
0000
0300
0001
0000
1000
0010
0000
,
0100
0000
0001
0000
1000
0100
1000
0001
,
0000
0100
0010
0100
0000
0001
0000
0020
,
0000
0000
0000
0030
,
0200
0000
0000
0300
,
2000
0000
0000
0000
3000
0001
0000
0100
,
0000
0010
0000
1000
0000
0100
0000
0020
,
0000
0030
0002
0000
0003
0100
0010
0000
,
1000
0000
0200
0000
0300
0010
0001
0000
,
0100
0000
0020
0000
0030
1000
0100
0001
,
0000
0100
0000
0010
0000
0001
0000
2002
,
0000
0000
0000
0000
,
0000
0000
0000
3003
,
0010
0000
0000
0001
0000
0000
0010
0000
0000
0000
0000
0000
0100
0000
0000
1000
,
0000
0100
0000
0000
0000
0000
0000
0000
,
2000
0000
0000
0100
3000
0000
0002
0000
,
0000
0100
0003
0000
0000
0000
0000
0000
,
0100
0000
0000
0100
0000
0000
0100
0000
0000
0000
0000
0000
0010
0000
0000
0010
,
0000
0010
0000
0000
0000
0000
0000
0000
,
2000
0000
0000
0010
3000
0000
0002
0000
,
0000
0010
0003
0000
0000
0000
0000
0000
,
0110
0000
0000
1001
,
0000
0000
0000
1000
0100
1000
0001
0000
,
0010
0000
0000
0010
0000
0000
0010
0000
0000
0000
0000
0000
0100
0000
0000
0100
,
0000
0100
0000
0000
0000
0000
0000
0000
,
1000
0000
0000
0100
0000
0000
1000
0000
0000
0000
0000
0000
0001
0000
0000
0100
,
0000
0001
0000
0000
0000
0000
0000
0000
,
0001
0100
1000
0100
,
0001
0000
1001
0000
,
1000
0000
0000
0100
0000
0000
1000
0000
0000
0000
0001
0000
1000
0000
0000
0100
,
0000
1000
0000
0010
0100
0001
0010
0000
,
0001
0000
0000
0100
0000
0000
0001
0000
0000
0000
1000
0000
0001
0000
0000
0100
,
0000
0001
0000
0000
0000
0000
0000
0000
,
1000
0000
0100
0010
0100
0000
0001
0000
,
0100
0010
0100
0000
1000
0000
0010
0100
,
0010
0000
0001
0000
0010
0100
0010
0000
,
1000
0100
1000
0100
0010
0001
0010
0001
,
0200
0000
0000
0000
0000
0000
0000
0310
,
1000
0010
1000
0010
0100
0001
2000
0000
,
0000
0000
0000
0000
,
0000
3000
0010
0100
0001
0000
1000
0000
,
0001
0000
0100
0010
0100
0000
1000
0000
,
0100
0010
0100
0000
0001
0000
0010
0100
,
0010
0000
1000
0000
0010
0100
0010
0000
,
0001
0100
0001
0100
0010
1000
0020
0000
,
0000
0000
0000
0000
0000
0000
0000
1030
,
0001
0000
0100
0000
1000
0100
0002
0000
,
0000
0000
0000
0003
,
0110
0000
0101
0000
,
1001
0000
0000
0011
0000
0000
1100
0000
,
0000
0220
0000
0000
0000
0000
0000
0000
,
0000
0000
0000
0330
,
2000
0000
0000
3020
0000
0000
0230
0000
,
0000
0302
0000
0000
0000
0000
0000
0000
,
0000
0000
0000
0003
,
2000
0000
0000
3200
0000
0000
0320
0000
,
0000
0032
0000
0000
0000
0000
0000
0000
,
0000
0000
0000
0003
,
1100
0000
0000
0110
0000
0000
0011
0000
,
0000
0202
0000
0000
0000
0000
0003
0000
,
0020
0000
0000
0330
,
2002
0000
0000
0000
,
0000
0000
0000
0000
,
0000
0000
0000
0000
,
3003
0000
0000
0000
;

//---------------dance-single - Marten-ESP----------------
#NOTES:
     dance-single:
     Marten:
     Hard:
     12:
     0.496939,0.714725,0.550099,0.760432,0.088987,430,362,68,94,0,0,0.496939,0.714725,0.550099,0.760432,0.088987,430,362,68,94,0,0:
// measure 0
0000
0000
0000
0000
,  // measure 1
2000
0000
0000
3020
0000
0000
0230
0000
,  // measure 2
0000
0302
0000
0000
0000
0000
0000
0000
,  // measure 3
0000
0000
0000
0003
,  // measure 4
0002
0000
0000
0023
0000
0000
0230
0000
,  // measure 5
0000
2300
0000
0000
0000
0000
0000
0000
,  // measure 6
0000
0000
0000
3000
,  // measure 7
0202
0000
0303
0022
0000
0033
2200
0000
,  // measure 8
3300
2020
0000
0000
0000
0000
0000
0000
,  // measure 9
0000
0000
0030
0000
3010
0100
0001
0000
,  // measure 10
0202
0000
0303
2200
0000
3300
2020
0000
,  // measure 11
3030
0022
0000
0000
0000
0000
0030
0000
,  // measure 12
2003
0000
0000
0000
0000
0000
0000
0000
0000
0000
3010
0100
,  // measure 13
0002
0000
0000
0100
0000
0000
0100
0000
0000
0000
0000
0000
0000
0000
0023
0000
,  // measure 14
0000
0100
0100
0000
0000
0100
0030
0100
,  // measure 15
1000
0000
0001
0000
1000
0010
0110
0000
,  // measure 16
0102
0000
1003
0001
1000
0001
0100
0000
,  // measure 17
0020
0000
1030
0100
1000
0001
0100
0000
,  // measure 18
0002
0000
1003
0010
1000
0010
0100
0002
,  // measure 19
0000
0013
0100
2000
0000
3001
1000
0010
,  // measure 20
0200
0000
0310
0100
0001
0100
0010
0000
,  // measure 21
0020
0000
1030
0100
1000
0000
1001
0000
,  // measure 22
2000
0000
3100
1000
0010
0100
0001
0020
,  // measure 23
0000
0031
1000
0020
0000
0130
0010
0000
,  // measure 24
1010
0000
0010
1000
0001
1000
0200
0000
,  // measure 25
0310
0000
0010
0001
1000
0001
0200
0000
,  // measure 26
0301
0000
1000
0100
0010
0001
1000
0010
,  // measure 27
0000
1000
0001
0010
0000
0011
0000
1100
,  // measure 28
2000
0000
3100
1000
0010
1000
0002
0000
,  // measure 29
0103
0000
0100
0001
0010
0001
2000
0000
,  // measure 30
3010
0000
0100
0001
0100
0001
0010
0200
,  // measure 31
0000
1300
0010
0100
0000
0110
0000
1002
,  // measure 32
0000
0000
2003
0000
0000
0010
3010
0000
,  // measure 33
0100
0000
0002
0000
0000
0010
0013
0000
,  // measure 34
0200
0000
1300
0100
1000
0010
0100
0010
,  // measure 35
0000
0100
0001
0010
0000
0010
0100
0000
,  // measure 36
0110
0000
0012
0000
1003
0010
1000
0000
,  // measure 37
0010
0000
2010
0000
3001
0010
0001
0000
,  // measure 38
0001
0100
0001
0010
0100
1000
0010
0100
,  // measure 39
0000
0100
0001
1000
0000
0001
0000
2002
,  // measure 40
0000
0000
0000
0000
,  // measure 41
0000
0000
0000
3003
,  // measure 42
0011
0000
0000
0101
0000
0000
0011
0000
0000
0000
0000
0000
1010
0000
0000
1100
,  // measure 43
0000
1010
0000
0000
0000
0000
0000
0000
,  // measure 44
0100
0000
0000
0001
0000
0000
0010
0000
0000
0000
0000
0000
0100
0000
0000
0001
,  // measure 45
0000
0010
0000
0000
0000
0000
0000
0000
,  // measure 46
0010
0000
0000
0001
0000
0000
1000
0000
0000
0000
0000
0000
0010
0000
0000
0001
,  // measure 47
0000
1000
0000
0000
0000
0000
0000
0000
,  // measure 48
1000
0000
0000
0100
0000
0000
0010
0000
0000
0000
0000
0000
1000
0000
0000
0100
,  // measure 49
0000
0010
0000
0000
0000
0000
0000
0000
,  // measure 50
0010
0000
0000
0100
0000
0000
0001
0000
0000
0000
0000
0000
0010
0000
0000
0100
,  // measure 51
0000
0001
0000
0100
1000
0001
1000
0010
,  // measure 52
1010
0000
0000
0000
,  // measure 53
1100
0000
0000
0000
,  // measure 54
0101
0000
0000
0000
,  // measure 55
0011
0000
0000
0000
0000
0000
0001
1000
,  // measure 56
1001
0000
1010
0100
,  // measure 57
0101
0000
0011
0001
,  // measure 58
0011
0000
0000
1010
0000
0000
0011
0000
0000
0000
0000
0000
0011
0000
0000
1010
,  // measure 59
0000
0011
0000
0001
0100
0010
1000
0100
,  // measure 60
1100
0000
0000
0101
0000
0000
1100
0000
0000
0000
0000
0000
1100
0000
0000
0101
,  // measure 61
0000
0000
1100
0000
0000
0000
0000
0000
0000
0000
0000
0000
0000
0000
1000
0010
,  // measure 62
1000
0100
0010
0001
1000
0001
1000
0100
,  // measure 63
0010
0001
1000
0001
1000
0100
0010
0001
,  // measure 64
1000
0001
1000
0100
0010
0001
1000
0001
,  // measure 65
1000
0010
0100
0001
0010
0100
1000
0100
,  // measure 66
0002
0000
0000
0000
0100
0000
0000
0000
0000
0000
0100
0000
0103
0000
1000
0100
,  // measure 67
1000
0010
0100
0001
0010
0001
2000
0000
,  // measure 68
0010
0000
0010
0000
0000
0010
3010
0000
,  // measure 69
1010
0000
0010
0100
0101
0000
1001
0000
,  // measure 70
0001
0010
0100
1000
0001
1000
0001
0010
,  // measure 71
0100
1000
0001
1000
0001
0010
0100
1000
,  // measure 72
0001
1000
0010
0100
0001
0010
0100
1000
,  // measure 73
0100
0010
0001
0100
0010
1000
0200
0000
,  // measure 74
0000
0000
0000
0000
1000
0000
0000
0000
0000
0000
1000
0000
1300
0000
0001
0100
,  // measure 75
0001
1000
0010
0100
0001
0010
0002
0000
,  // measure 76
0000
0000
1000
0000
0000
1000
1003
0000
,  // measure 77
2020
3030
0022
0033
,  // measure 78
2200
0000
3300
0022
0000
0033
0202
0000
,  // measure 79
0303
2020
0000
0000
0000
0000
0000
0000
,  // measure 80
0000
0000
0000
3030
,  // measure 81
0202
0000
0303
2200
0000
3300
2020
0000
,  // measure 82
3030
0022
0000
0000
0000
0000
0000
0000
,  // measure 83
0000
0000
0000
0033
,  // measure 84
0202
0000
0303
0022
0000
0033
2200
0000
,  // measure 85
3300
2020
0000
0000
0000
0000
0000
0000
,  // measure 86
0000
0000
0000
3030
,  // measure 87
0022
0000
0033
0202
0000
0303
2200
0000
,  // measure 88
3300
2020
0000
0000
0000
0000
0000
3030
,  // measure 89
2002
0000
0000
3000
0000
0000
1000
0000
0000
0003
0010
0100
,  // measure 90
2000
0000
0000
0000
,  // measure 91
0000
0000
0000
0000
,  // measure 92
0000
0000
0000
0000
,  // measure 93
3000
0000
0000
0000
;

//---------------dance-single - Talkion-CSP----------------
#NOTES:
     dance-single:
     Talkion:
     Challenge:
     15:
     0.716516,0.865193,0.533920,0.558189,0.271005,620,554,66,69,0,0,0.716516,0.865193,0.533920,0.558189,0.271005,620,554,66,69,0,0:
0000
0000
0000
0000
,
0000
0000
0000
0000
,
0000
0000
0000
0000
,
0000
0000
0000
0000
,
0000
0000
0000
0000
,
0000
0000
0000
0000
,
0000
0000
0000
0000
0000
0000
0000
0000
0000
0000
0000
0000
0000
0000
1000
0100
,
0020
0000
0031
0201
0000
0310
2010
0000
,
3100
0120
0000
0000
0001
0000
0001
0000
,
0001
0000
0000
0000
0001
0000
0000
0000
0130
1000
0100
1000
0001
0000
1000
0010
,
0200
0000
0310
2010
0000
3100
0120
0000
,
0031
0201
0000
0000
0010
0000
0310
0000
,
2001
0000
0000
0010
0000
0000
3010
0000
0000
0100
0001
1000
,
0200
0000
0000
0010
0010
0000
0001
0001
,
0000
0000
1300
0000
0010
0100
0010
0100
,
0001
0000
0010
0000
0100
0010
1001
0000
,
1010
0000
0100
0001
0010
0100
0011
0000
,
1100
0000
0010
0001
0100
0010
0101
0000
,
1010
0000
0100
0001
0010
0100
1000
0110
,
0000
0110
0001
1000
0100
0010
1001
0000
,
0101
0000
0010
1000
0010
0100
0011
0000
,
1100
0000
0010
0001
0010
0100
1010
0000
,
0101
0000
0010
1000
0100
0010
0001
0110
,
0000
0110
1000
0001
0100
0010
1001
0000
,
1010
0000
0000
0000
0010
0000
0100
0000
0001
1000
0001
0000
0010
0000
0000
0000
,
0110
0000
0000
0000
0100
0000
1000
0000
0001
1000
0001
0000
0100
0000
0000
0000
,
0110
0000
0010
1000
0100
1000
0010
0200
,
0000
0000
0301
1000
0001
0000
0010
0000
0100
0000
1000
0000
0110
0000
0000
0000
,
0101
0000
0000
0000
0001
0000
1000
0000
0010
0100
0010
0000
1000
0000
0000
0000
,
1001
0000
0000
0000
0001
0000
0010
0000
0100
1000
0100
0000
0010
0000
0000
0000
,
1001
0000
0001
0100
0010
1000
0100
0020
,
0000
0000
0031
1000
0001
0000
0100
0000
0010
0000
1000
0000
0110
0000
0000
0000
,
0001
0000
0010
0000
0001
0000
0010
0000
0100
0000
0010
0000
0100
0000
1000
0100
,
1000
0000
0010
0000
1000
0000
0010
0000
0100
0000
0010
0000
0100
0000
0001
0100
,
0001
1000
0100
0010
0001
0010
0100
1000
,
0001
0100
1000
0100
0010
0100
1001
0000
,
1000
0000
0100
0000
1000
0000
0100
0000
0010
0000
0001
0000
0010
0000
0001
0010
,
0001
0000
0100
0000
0001
0000
0100
0000
0010
0000
1000
0000
0010
0000
1000
0010
,
1000
0001
0010
0100
1000
0010
0100
0010
,
0001
0010
1000
0001
0010
0001
1000
0100
,
0010
0001
0010
0000
0001
0000
1000
0010
1000
0000
0010
0000
0100
0001
0100
0000
,
0001
0000
1000
0100
1000
0000
0100
0000
0010
0001
0010
0000
0001
0000
0100
0000
,
0110
0000
0000
1010
0000
0000
1100
0000
0000
0000
0100
0000
0110
0000
0000
0011
,
0000
0101
0000
0100
0010
1000
1001
0000
,
2000
0000
0000
3200
0000
0000
0320
0000
0000
0000
1030
0000
0002
0000
0000
0203
,
0000
0320
0000
0031
2000
0000
3020
0000
,
0230
0000
0000
2300
0000
0000
3002
0000
0000
0000
0013
0000
2000
0000
0000
3002
,
0000
0023
0000
0130
2000
0000
3002
0000
,
2003
0000
0000
3020
0000
0000
0230
0000
0000
0000
1300
0000
0002
0000
0000
0023
,
0000
0230
0000
0301
2000
0000
3200
0000
,
0320
0000
0000
2030
0000
0000
3002
0000
0000
0000
0103
0000
2000
0000
0000
3002
,
0000
0203
0000
0310
1000
0100
0010
0001
,
0200
0000
1000
0010
0000
0010
0301
0000
,
0010
0100
0020
0000
0001
0000
0130
0000
,
2000
0000
0010
0001
0000
0001
3100
0000
,
1000
0001
2000
0000
0010
0000
3001
0000
,
0100
0000
0010
0100
1001
0100
0010
0000
,
0100
0010
1001
0010
0100
0000
0010
0000
,
1100
0000
0000
0011
0000
0000
1001
0000
0000
0000
0001
0100
0010
0000
0000
0110
,
0000
0000
1001
0000
0000
0000
1000
0000
0100
0010
0100
0010
0001
0000
0100
0000
,
0110
0000
0000
1010
0000
0000
0011
0000
0000
0000
0001
0010
0100
0000
0000
1100
,
0000
0000
0101
0000
0000
0000
0000
0000
0000
0000
0000
0000
0000
0000
1000
0001
,
1000
0000
0100
0010
0100
0000
0001
0000
0100
0000
1000
0000
0010
0000
0001
0010
,
0001
0000
0010
0000
1000
0000
0100
0000
0010
0000
0001
0100
0001
0000
0100
0000
,
1000
0000
0100
0000
0001
0000
0010
0001
0010
0000
0100
0000
1000
0000
0010
0000
,
0001
0010
0100
0001
1000
0100
0010
0001
,
0200
0000
0000
0000
1000
0000
0000
0000
0010
0000
0000
0000
0301
0000
0100
0001
,
1000
0100
0010
0001
0010
0100
2000
0000
,
0010
0000
0001
0000
3100
0010
0001
1000
,
0010
0001
1000
0100
0001
1000
1001
0000
,
0001
0000
0010
0100
0010
0000
1000
0000
0010
0000
0001
0000
0100
0000
1000
0100
,
1000
0000
0100
0000
0001
0000
0010
0000
0100
0000
1000
0010
1000
0000
0001
0000
,
0010
0000
0100
0000
0010
0000
0001
0000
0100
0010
0100
0010
0100
0000
0001
0000
,
1000
0000
0100
0000
0010
0000
0001
0000
1000
0010
1000
0010
2000
0000
0000
0000
,
0010
0000
0000
0000
0001
0000
0000
0000
3100
0000
0010
0000
0001
0000
1000
0001
,
0010
0100
1000
0010
0100
0001
0020
0000
,
1000
0000
0000
0000
0100
0000
0000
0000
0031
0000
1000
0000
0010
0000
0100
0001
,
0100
0000
0010
0000
1000
0000
0100
1000
0100
0000
0010
0001
0010
0001
0010
0001
,
2000
0000
3010
0210
0000
0301
0021
0000
,
0130
1200
0000
0000
0010
0000
0010
0000
,
0010
0000
0000
0000
0010
0000
0000
0000
0010
0000
0000
0000
1300
0000
0001
0100
,
0020
0000
1030
1002
0000
0013
0210
0000
,
1300
2100
0000
0000
0010
0000
0010
0000
,
0010
0000
0000
0000
0010
0000
0000
0000
3001
0010
0001
0010
0001
0000
1000
0010
,
0200
0000
0301
0021
0000
0130
2100
0000
,
3010
0210
0000
0000
0001
0000
0001
0000
,
0001
0000
0000
0000
0001
0000
0000
0000
0310
1000
0010
1000
0001
0000
1000
0100
,
0020
0000
0130
2100
0000
3010
0210
0000
,
0301
0021
0000
0000
0100
0000
0130
0000
,
1002
0000
0000
0100
0000
0000
0103
0000
0000
0010
1000
0200
,
0020
0000
0000
0000
,
0000
0000
0000
0000
,
0000
0000
0000
0000
,
0330
0000
0000
0000
;

//---------------dance-double - NewbStepper-BDP----------------
#NOTES:
     dance-double:
     NewbStepper:
     Easy:
     6:
     0.202242,0.327633,0.113256,0.226512,0,175,161,14,28,0,0,0.202242,0.327633,0.113256,0.226512,0,175,161,14,28,0,0:
00000000
00000000
00000000
00000000
,
00000002
00000000
00000000
00001000
00000000
00000000
00001000
00000000
,
00000000
00001000
00000000
00000000
00000000
00000000
00000003
00000000
,
00000000
00000000
00000000
00000000
,
00002000
00000000
00000000
00010000
00000000
00000000
00010000
00000000
,
00000000
00010000
00000000
00000000
00010000
00000000
00003000
00000000
,
00000000
00000000
00000000
00000000
,
00020000
00000000
00000000
10000000
00000000
00000000
10000000
00000000
,
00000000
10000000
00000000
00000000
00000000
00000000
00030000
00000000
,
00000000
00000000
00000000
00000000
,
00200000
00000000
00000000
01000000
00000000
00000000
01000000
00000000
,
00000000
01000000
00000000
00000000
00300000
00000000
00000000
00000000
,
01100000
00000000
00000000
00000000
,
10010000
00000000
00000000
00000000
,
00000000
00000000
00000000
00000000
,
00000000
00000000
00000000
00000000
,
10000000
00010000
00000000
00010000
,
01000000
00010000
00000000
00100000
,
00001000
00000000
00100000
00000000
00000000
00010000
00000000
00010000
,
00000000
00000000
00000000
00000100
00000000
00000100
00000000
00000000
,
00000010
00000000
00000000
00000020
00000000
00000000
00000030
00000000
,
00000001
00000000
00000000
00000002
00000000
00000000
00000003
00000000
,
00000100
00000000
00000000
00000200
00000000
00000000
00000300
00001000
,
00000000
00010000
00000000
01000000
00000000
10000000
00000000
00000000
,
10010000
00000000
00000000
20000000
00000000
00000000
30000000
00000000
,
00010000
00000000
00000000
00020000
00000000
00000000
00030000
00000000
,
00001000
00000000
00000000
00002000
00000000
00000000
00003000
00000100
,
00000000
00000010
00000000
00000001
00000000
00000100
00000000
00000001
,
00000000
00000000
00000000
00000002
00000000
00000000
00000003
00000000
,
00001000
00000000
00000000
00002000
00000000
00000000
00003000
00000000
,
00010000
00000000
01000000
00000000
00000000
00100000
00000000
00100000
,
00000000
10000000
00000000
01000000
00000000
00100000
00000000
00020000
,
00000000
00000000
00000000
00030000
,
20000000
00000000
00000000
30000000
,
02000000
00000000
00000000
03000000
,
00020000
00000000
00000000
00030000
,
00001000
00000200
00000000
00000300
,
00000002
00000000
00000000
00000003
,
00002000
00000000
00000000
00000000
00000000
00000000
00003000
00000001
,
00000000
00000100
00000000
00000010
00000000
00001000
00000000
00020000
,
00000000
00000000
00000000
00000000
,
00000000
00000000
00030000
00000000
,
00110000
00000000
00000000
11000000
,
00000000
00000000
00000000
00000000
,
00100000
00000000
00000000
00100000
,
00000000
00000000
00000000
00000000
,
00010000
00000000
00000000
00010000
,
00000000
00000000
00000000
00000000
,
00001000
00000000
00000000
00001000
,
00000000
00000000
00000000
00000000
,
00000100
00000000
00000000
00000100
,
00000000
00000000
00000000
00000000
,
00000101
00000000
00000000
00001100
,
00000000
00000000
00000000
00000000
,
00011000
00000000
00000000
00110000
,
00000000
00000000
00000000
00000000
,
10100000
00000000
10000000
00000000
,
01000000
00000000
01000000
00000000
,
00100000
00000000
00000000
00001000
,
00000000
00010000
00000100
00001000
,
00001100
00000000
00000000
00000011
,
00000000
00000000
00000000
00000000
,
00000001
00000100
00001000
00000100
,
00000001
00001000
00000100
00000001
,
00000100
00001000
00010000
00100000
,
01000000
10000000
00100000
01000000
,
00020000
00000000
00000000
00030000
,
10000000
01000000
00100000
00020000
,
00000000
00000000
00000000
00000000
,
00030000
00000000
00000000
00000000
,
10000000
01000000
00010000
01000000
,
10000000
00010000
01000000
10000000
,
01000000
00010000
00001000
00000010
,
00000100
00000001
00000010
00000200
,
00000000
00000000
00000000
00000300
,
00000010
00001000
00010000
00200000
,
00000000
00000000
00000000
00300000
,
10000000
00000000
01000000
00000000
,
00010000
00000000
00000000
00001000
00000000
00000000
00100000
00000000
,
00000000
02000000
00000000
00000000
00000000
00000000
00000000
00000000
,
00000000
00000000
00000000
03000000
,
20000000
00000000
00000000
00010000
00000000
00000000
00010000
00000000
,
00000000
00010000
00000000
00000000
00000000
00000000
30000000
00000000
,
00000000
00000000
00000000
00000000
,
00020000
00000000
00000000
00001000
00000000
00000000
00001000
00000000
,
00000000
00001000
00000000
00000000
00000000
00000000
00030000
00000000
,
00000000
00000000
00000000
00000000
,
00002000
00000000
00000000
00000001
00000000
00000000
00000001
00000000
,
00000000
00000001
00000000
00000000
00000000
00000000
00003000
00000000
,
00000110
00000000
00000000
00000000
,
00001001
00000000
00000000
00000000
;

//---------------dance-double - NewbStepper-DDP----------------
#NOTES:
     dance-double:
     NewbStepper:
     Medium:
     9:
     0.307409,0.526639,0.121345,0.436844,0.048538,266,251,15,54,0,0,0.307409,0.526639,0.121345,0.436844,0.048538,266,251,15,54,0,0:
00000000
00000000
00000000
00000000
,
00002000
00000000
00000000
00000100
00000000
00000000
00000001
00000000
,
00000000
00000020
00000000
00000000
00000000
00000000
00000000
00000000
,
00000000
00000000
00000000
00003030
,
00020000
00000000
00000000
01000000
00000000
00000000
10000000
00000000
,
00000000
00200000
00000000
00000000
00000000
00000000
00000000
00000000
,
00000000
00000000
00000000
00330000
,
20000000
00000000
00000000
30200000
00000000
00000000
02300000
00000000
,
00000000
03020000
00000000
00000000
00000000
00000000
00000000
00000000
,
00000000
00000000
00000000
00030000
,
00002000
00000000
00000000
00003200
00000000
00000000
00000320
00000000
,
00000000
00000032
00000000
00000000
00000000
00000000
00000000
00000000
,
00002000
00000000
00000000
00003003
,
00000220
00000000
00000000
00000000
,
00000330
00000000
00000000
00000000
,
00000000
00000000
00000000
00000000
,
00001000
00000000
01000000
00000000
00000000
00001000
01000000
00000000
,
00100000
00000000
10000000
00000000
00000000
00100000
10000000
00000000
,
01000000
00000000
00010000
00000000
00000000
00001000
00000000
00000010
,
00000000
00000001
00000100
00000001
00000000
00000010
00000000
00000000
,
00002000
00000000
00003000
00010000
00000000
01000000
10000000
00000000
,
00200000
00000000
00300000
10000000
00000000
00010000
01000000
00000000
,
00100000
00000000
00020000
00000000
00030000
00001000
00000010
00000001
,
00000000
00000100
00000000
00000010
00000000
00001000
00000100
00000000
,
00020000
00000000
00030000
00001000
00000000
00000100
00000001
00000000
,
00000020
00000000
00000030
00000001
00000000
00001000
00000100
00000000
,
00000010
00000000
00001000
00000000
00010000
00001000
01000000
00010000
,
00000000
10000000
00000000
01000000
00000000
00010000
00000000
00002000
,
00000000
00000000
00003000
00000100
00000000
00000001
00000010
00000000
,
00000200
00000000
00000300
00010000
00000000
00001000
00100000
00000000
,
00010000
00000000
10000000
00000000
01000000
00100000
01000000
00010000
,
00000000
00001000
00010000
00001000
00000000
00000100
00000000
00000020
,
00000000
00000000
00000000
00000030
,
00000200
00000000
00000000
00000300
,
00000002
00000000
00000000
00000000
00000003
00001000
00000000
00000100
,
00000000
00000010
00000000
00000001
00000000
00000100
00000000
00002000
,
00000000
00003000
00020000
00000000
00030000
01000000
00100000
00000000
,
10000000
00000000
02000000
00000000
03000000
00100000
00010000
00000000
,
01000000
00000000
00200000
00000000
00300000
10000000
01000000
00010000
,
00000000
00001000
00000000
00000010
00000000
00000001
00000000
00002002
,
00000000
00000000
00000000
00000000
,
00000000
00000000
00000000
00003003
,
00000010
00000000
00000000
00000010
00000000
00000000
00000010
00000000
00000000
00000000
00000000
00000000
00000100
00000000
00000000
00000100
,
00000000
00000100
00000000
00000000
00000000
00000000
00000000
00000000
,
00002000
00000000
00003000
00020000
,
00000000
00030000
00000000
00000000
,
01000000
00000000
00000000
01000000
00000000
00000000
01000000
00000000
00000000
00000000
00000000
00000000
00100000
00000000
00000000
00100000
,
00000000
00100000
00000000
00000000
00000000
00000000
00000000
00000000
,
00002000
00000000
00003000
00020000
,
00000000
00030000
00000000
00000000
,
00000110
00000000
00000000
00001001
,
00000000
00000000
00000000
00001000
00000100
00001000
00000001
00000000
,
00000100
00000000
00000000
00000010
00000000
00000000
00000100
00000000
00000000
00000000
00000000
00000000
00001000
00000000
00000000
00010000
,
00000000
00001000
00000000
00000000
00000000
00000000
00000000
00000000
,
01000000
00000000
00000000
00100000
00000000
00000000
01000000
00000000
00000000
00000000
00000000
00000000
00010000
00000000
00000000
10000000
,
00000000
00010000
00000000
00000000
00000000
00000000
00000000
00000000
,
10000000
00000000
01000000
00000000
,
00010000
00000000
00001000
00000000
,
00000010
00000000
00000000
00000100
00000000
00000000
00000010
00000000
00000000
00000000
00000000
00000000
00000001
00000000
00000000
00000100
,
00000000
00000001
00000000
00000100
00001000
00010000
01000000
00000000
,
10000000
00000000
00000000
01000000
00000000
00000000
10000000
00000000
00000000
00000000
00000000
00000000
00100000
00000000
00000000
01000000
,
00000000
00100000
00000000
00000000
00000000
00000000
00000000
00000000
,
10000000
00000000
01000000
00100000
01000000
00000000
00010000
00000000
,
01000000
00100000
01000000
00000000
00010000
00000000
00001000
00010000
,
00001000
00000000
00000100
00000000
00000010
00000100
00000010
00000000
,
00001000
00000100
00000010
00000001
00001000
00000100
00010000
00001000
,
02000000
00000000
00000000
00000000
00000000
00000000
03000000
00100000
,
10000000
00100000
01000000
00010000
00100000
00001000
00020000
00000000
,
00000000
00000000
00000000
00000000
,
00000000
00030000
00001000
00000100
00000001
00000000
00001000
00000000
,
00000001
00000000
00000100
00000010
00000100
00000000
00001000
00000000
,
00000100
00000010
00000100
00000000
00001000
00000000
00010000
00001000
,
00010000
00000000
01000000
00000000
00100000
01000000
00100000
00000000
,
00010000
01000000
00100000
10000000
00010000
01000000
00002000
00000000
,
00000000
00000000
00000000
00000000
00000000
00000000
00003000
00010000
,
00000100
00000000
00000010
00000000
00000001
00000100
00002000
00000000
,
00000000
00000000
00000000
00003000
,
00011000
00000000
01010000
00000000
,
11000000
00000000
00000000
00110000
00000000
00000000
00011000
00000000
,
00000000
00000220
00000000
00000000
00000000
00000000
00000000
00000000
,
00000000
00000000
00000000
00000330
,
00000002
00000000
00000000
00000023
00000000
00000000
00000230
00000000
,
00000000
00002300
00000000
00000000
00000000
00000000
00000000
00000000
,
00000000
00000000
00000000
00003000
,
00020000
00000000
00000000
02030000
00000000
00000000
03200000
00000000
,
00000000
20300000
00000000
00000000
00000000
00000000
00000000
00000000
,
00000000
00000000
00000000
30000000
,
10100000
00000000
00000000
01010000
00000000
00000000
00101000
00000000
,
00000000
00020200
00000000
00000000
00000000
00000000
00030000
00000000
,
00002000
00000000
00000000
00003300
,
00022000
00000000
00000000
00000000
,
00000000
00000000
00000000
00000000
,
00000000
00000000
00000000
00000000
,
00033000
00000000
00000000
00000000
;

//---------------dance-double - NewbStepper-EDP----------------
#NOTES:
     dance-double:
     NewbStepper:
     Hard:
     13:
     0.562812,0.752342,0.542010,0.647176,0.165839,487,420,67,80,0,0,0.562812,0.752342,0.542010,0.647176,0.165839,487,420,67,80,0,0:
00000000
00000000
00000000
00000000
,
20000000
00000000
00000000
30200000
00000000
00000000
02300000
00000000
,
00000000
03020000
00000000
00000000
00000000
00000000
00000000
00000000
,
00000000
00000000
00000000
00030000
,
00002000
00000000
00000000
00003020
00000000
00000000
00000230
00000000
,
00000000
00000302
00000000
00000000
00000000
00000000
00000000
00000000
,
00000000
00000000
00000000
00000003
,
00002200
00000000
00003300
00000202
00000000
00000303
00000022
00000000
,
00000033
00002020
00000000
00003000
00000000
00000000
00010030
00000000
,
00010000
00000000
00000000
00000000
00001000
00000000
00100000
00000000
00010000
10000000
00010000
10000000
00010000
10000000
00010000
00000000
,
02020000
00000000
03030000
22000000
00000000
33000000
20200000
00000000
,
30300000
00220000
00000000
00000000
00000000
00000000
00330000
00000000
,
00022000
00000000
00000000
00000000
00000000
00000000
00033000
00000000
00000000
00000000
00001000
00000010
,
00000002
00000000
00000000
00000100
00000000
00000000
00000100
00000000
00000000
00000000
00000000
00000000
00000000
00000000
00002003
00000000
,
00000000
00000000
00000100
00000000
00000000
00010000
00000000
00013000
,
00100000
00000000
00010000
00000000
10000000
01000000
00010000
00001000
,
00000100
00000000
00000110
00000000
00000001
00000010
00001000
00000000
,
00000010
00000000
00000110
00000000
00000001
00000100
00001000
00000000
,
01000000
00000000
01100000
00000000
10000000
00100000
00010000
00011000
,
00000000
00001000
00010000
00100000
00000000
00010000
00001000
00000010
,
00000021
00000000
00000031
00000100
00001000
01000000
00100000
00000000
,
10200000
00000000
10300000
01000000
00010000
00000100
00000010
00000000
,
00001001
00000000
00000001
00000100
00001000
01000000
00100000
10100000
,
00000000
01010000
00000000
00101000
00000000
00010000
01100000
00000000
,
10000000
01000000
00010000
02000000
00000000
03100000
00010000
00001000
,
00000100
00000010
00000001
00000200
00000000
00000310
00001000
00010000
,
02000000
00000000
03100000
10000000
01000000
00010000
00001000
00000010
,
00000000
00010000
00001000
00000100
00000000
00000110
00000000
00001001
,
00000001
00000100
00001000
00000200
00000000
00000310
00001000
00010000
,
01000000
00100000
10000000
02000000
00000000
03100000
00010000
00001000
,
00000200
00000000
00000310
00000001
00000100
00001000
00010000
00100000
,
00000000
00001000
00010000
01000000
00000000
01100000
00000000
20010000
,
00000000
00000000
30020000
00000000
00000000
00001000
00031000
00000000
,
00000001
00000000
00002000
00000000
00000000
00010000
00013000
00000000
,
10000000
01000000
00010000
00000000
00001000
00000100
00000001
00000100
,
00000000
00001000
00010000
00100000
00000000
00010000
00001000
00000010
,
00000001
00000000
00002000
00000000
00000000
00010000
00013000
00000000
,
10000000
00000000
00020000
00000000
00000000
00001000
00031000
00000000
,
00000001
00000100
00001000
00000000
00010000
01000000
10000000
10100000
,
00000000
00110000
00000000
00011000
00000000
00001010
00000000
00000011
,
00001001
00000000
00000010
00000001
00000000
00000001
00000100
00000000
,
00000100
00001000
00000000
00011000
00000000
00100000
01000000
00000000
,
10100000
00000000
00000000
11000000
00000000
00000000
10100000
00000000
00000000
00000000
00000000
00000000
00110000
00000000
00000000
01010000
,
00000000
00110000
00000000
00000000
00000000
00000000
00000000
00000000
,
10000000
00000000
00000000
01000000
00000000
00000000
00010000
00000000
00000000
00000000
00000000
00000000
00001000
00000000
00000000
00000100
,
00000000
00000001
00000000
00000000
00000000
00000000
00000000
00000000
,
00000001
00000000
00000000
00000010
00000000
00000000
00001000
00000000
00000000
00000000
00000000
00000000
00010000
00000000
00000000
00100000
,
00000000
10000000
00000000
00000000
00000000
00000000
00000000
00000000
,
10000000
00000000
00000000
01000000
00000000
00000000
00010000
00000000
00000000
00000000
00000000
00000000
00001000
00000000
00000000
00000100
,
00000000
00000001
00000000
00000000
00000000
00000000
00000000
00000000
,
00000010
00000000
00000000
00001000
00000000
00000000
00010000
00000000
00000000
00000000
00000000
00000000
00100000
00000000
00000000
00010000
,
00000000
00001000
00000000
00000010
00000100
00001000
00010000
00100000
,
01000000
00000000
00000000
10000000
00000000
00000000
00100000
00000000
00000000
00000000
00000000
00000000
01000000
00000000
00000000
00010000
,
00000000
00001000
00000000
00000000
00000001
00000000
00000001
00000000
,
00000100
00000000
00000000
00000001
00000000
00000000
00000010
00000000
00000000
00000000
00000000
00000000
00000100
00000000
00000000
00001000
,
00000000
00010000
00000000
00000000
10000000
00000000
10000000
00000000
,
00010000
00000000
00000000
00100000
00000000
00000000
00010000
00000000
00000000
00000000
00000000
00000000
00001000
00000000
00000000
00000010
,
00000000
00001000
00000000
00000000
00000001
00000000
00000100
00000000
,
00001100
00000000
00000000
00011000
00000000
00000000
00001100
00000000
00000000
00000000
00010000
00001000
00010000
00000000
00000000
00011000
,
00000000
01001000
00000000
00010000
00100000
01000000
10000000
01000000
,
01010000
00000000
00000000
00011000
00000000
00000000
01010000
00000000
00000000
00000000
00001000
00010000
00001000
00000000
00000000
00011000
,
00000000
00010100
00000000
00000000
00000000
00000000
00000000
00001000
,
00000001
00000100
00000010
00001000
00000001
00000100
00001000
00010000
,
01000000
10000000
00100000
10000000
00010000
01000000
00100000
10000000
,
01000000
00010000
00001000
00000010
00000001
00001000
00000100
00000010
,
00000001
00000100
00000001
00000010
00001000
00010000
00001000
00000100
,
00000002
00000000
00000000
00000000
00000100
00000000
00000000
00000000
00000000
00000000
00000000
00000000
00000103
00000000
00000001
00000100
,
00000001
00000100
00001000
00010000
00100000
10000000
00020000
00000000
,
00100000
00000000
10000000
00000000
01030000
00010000
00100000
00000000
,
01100000
00000000
10000000
00010000
01000000
00000000
10010000
00000000
,
10000000
01000000
00100000
00010000
10000000
01000000
00010000
00001000
,
00000100
00000001
00000010
00000001
00001000
00000100
00000010
00000001
,
00000100
00001000
00010000
00100000
10000000
00010000
01000000
00100000
,
10000000
01000000
10000000
00100000
00010000
00001000
00020000
00000000
,
00000000
00000000
00000000
00000000
01000000
00000000
00000000
00000000
00000000
00000000
00000000
00000000
00031000
00000000
00010000
00001000
,
00010000
00001000
00000100
00000001
00000010
00001000
00020000
00000000
,
00001000
00000000
00130000
00000000
10000000
01000000
00010000
00000000
,
00011000
00000000
00000000
00000000
00001000
00000000
00000100
00000000
00000001
00000100
00000001
00000100
00000001
00000100
00000001
00000000
,
00000022
00000000
00000033
00000202
00000000
00000303
00002200
00000000
,
00003300
00022000
00000000
00000000
00000000
00000000
00000000
00000000
,
00000000
00000000
00000000
00033000
,
02020000
00000000
03030000
22000000
00000000
33000000
20200000
00000000
,
30300000
00220000
00000000
00030000
00000000
00000000
00301000
00000000
,
00001000
00000000
00000000
00000000
00010000
00000000
00000010
00001000
00000010
00000000
00000100
00000001
00000100
00000000
00000010
00000000
,
00002200
00000000
00003300
00000202
00000000
00000303
00000022
00000000
,
00000033
00002020
00000000
00000000
00000000
00000000
00000000
00000000
,
00000000
00000000
00003030
00000000
00000000
00000000
00010000
00001000
00010000
00001000
00010000
00001000
00010000
00001000
00010000
00000000
,
00022000
00000000
00033000
02200000
00000000
03300000
22000000
00000000
,
33000000
02020000
00000000
00000000
00000000
00000000
03030000
00000000
,
00022000
00000000
00000000
00000000
00000000
00000000
00033000
00000000
00000000
00000000
00001000
00000010
,
00000002
00000000
00000000
00000000
,
00000000
00000000
00000000
00000000
,
00000000
00000000
00000000
00000000
,
00000003
00000000
00000000
00000000
;

//---------------dance-double - Talkion-CDP----------------
#NOTES:
     dance-double:
     Talkion:
     Challenge:
     15:
     0.707271,0.827576,0.428754,0.590548,0.271005,612,559,53,73,0,0,0.707271,0.827576,0.428754,0.590548,0.271005,612,559,53,73,0,0:
00000000
00000000
00000000
00000000
,
00000000
00000000
00000000
00000000
,
00000000
00000000
00000000
00000000
,
00000000
00000000
00000000
00000000
,
00000000
00000000
00000000
00000000
,
00000000
00000000
00000000
00000000
,
00000000
00000000
00000000
00000000
00000000
00000000
00000000
00000000
00000000
00000000
00000000
00000000
00000000
00000000
10000000
01000000
,
00200000
00000000
00301000
00021000
00000000
00030010
00001020
00000000
,
00000130
00000102
00000000
00000000
00000010
00000000
00000010
00000000
,
00000010
00000000
00000000
00000000
00000010
00000000
00000000
00000000
00001003
00000100
00001000
00000100
00000010
00000000
00000001
00000010
,
00000200
00000000
00010300
00012000
00000000
00103000
00120000
00000000
,
10030000
21000000
00000000
00000000
00100000
00000000
30100000
00000000
,
02010000
00000000
00000000
00001000
00000000
00000000
03001000
00000000
00000000
00010000
00000100
00020000
,
00001000
00000000
00000000
00000010
00000010
00000000
00000100
00000100
,
00000000
00000000
00031000
00000000
00000100
00000010
00000100
00000010
,
00001000
00000000
00000010
00000000
00000100
00000010
00001001
00000000
,
00000101
00000000
00000100
00001000
00010000
01000000
10000000
00000000
,
11000000
00000000
01000000
00010000
00001000
00000100
00000001
00000000
,
00000011
00000000
00000010
00001000
00010000
00000010
00001000
00020000
,
00000000
00100000
00130000
01000000
10000000
00010000
01000000
00000000
,
10100000
00000000
00100000
00010000
00001000
00000010
00000001
00000000
,
00000011
00000000
00000010
00001000
00010000
00100000
10000000
00000000
,
11000000
00000000
01000000
00010000
00001000
01000000
00010000
00002000
,
00000000
00003100
00000100
00000010
00000001
00000100
00001000
00000000
,
00011000
00000000
00000000
00000000
00010000
00000000
01000000
00000000
00100000
00010000
00100000
00000000
00001000
00000000
00000000
00000000
,
00011000
00000000
00000000
00000000
00001000
00000000
00000100
00000000
00000010
00001000
00000010
00000000
00010000
00000000
00000000
00000000
,
00101000
00000000
00001000
00100000
00010000
10000000
00100000
00020000
,
00000000
00030000
00001000
00010000
00001000
00000000
00000010
00000000
00000001
00000000
00001000
00000000
00000100
00000000
00010000
00000000
,
00011000
00000000
00000000
00000000
00001000
00000000
00000010
00000000
00000100
00001000
00000100
00000000
00010000
00000000
00000000
00000000
,
00011000
00000000
00000000
00000000
00010000
00000000
00100000
00000000
01000000
00010000
01000000
00000000
00001000
00000000
00000000
00000000
,
00010100
00000000
00010000
00000100
00001000
00000001
00000100
00002000
,
00000000
00003000
00010000
00001000
00010000
00000000
01000000
00000000
10000000
00000000
01000000
00000000
00010000
00000000
00001000
00000000
,
00010000
00000000
00001000
00000000
00000100
00000000
00000001
00000000
00000100
00000000
00000001
00000000
00001000
00000000
00000001
00001000
,
00000001
00000000
00001000
00000000
00000010
00000000
00010000
00000000
00000010
00000000
00010000
00000000
00001000
00000000
00010000
00001000
,
00010000
00001000
00010000
01000000
00010000
01000000
10000000
01000000
,
00100000
00010000
01000000
00100000
01000000
00001000
00011000
00000000
,
00001000
00000000
00010000
00000000
00100000
00000000
10000000
00000000
00100000
00000000
10000000
00000000
00010000
00000000
10000000
00010000
,
10000000
00000000
00010000
00000000
01000000
00000000
00001000
00000000
01000000
00000000
00001000
00000000
00010000
00000000
00001000
00010000
,
00001000
00010000
00001000
00000010
00001000
00000010
00000001
00000100
,
00000010
00001000
00010000
01000000
00100000
10000000
00010000
00100000
,
00001000
00000000
00010000
00001000
00010000
00000000
00000010
00000000
00001000
00000010
00001000
00000000
00000001
00000000
00000010
00000001
,
00000010
00000000
00000100
00000000
00010000
00001000
00010000
00000000
00001000
00000000
01000000
00000000
01010000
00000000
00000000
00000000
,
10100000
00000000
00000000
11000000
00000000
00000000
10010000
00000000
00000000
00000000
00010000
00000000
00101000
00000000
00000000
00011000
,
00000000
00010010
00000000
00000010
00001000
00000001
00001001
00000000
,
00000002
00000000
00000000
00000203
00000000
00000000
00002300
00000000
00000000
00000000
00013000
00000000
00000020
00000000
00000000
00002030
,
00000000
00023000
00000000
01030000
00200000
00000000
01000000
00000000
,
20300000
00000000
00000000
30200000
00000000
00000000
00320000
00000000
00000000
00000000
00031000
00000000
02000000
00000000
00000000
03020000
,
00000000
00032000
00000000
00003010
00000200
00000000
00000010
00000000
,
00000302
00000000
00000000
00002003
00000000
00000000
00003200
00000000
00000000
00000000
00000310
00000000
00002000
00000000
00000000
00023000
,
00000000
00230000
00000000
01300000
00020000
00000000
01000000
00000000
,
20030000
00000000
00000000
30020000
00000000
00000000
00230000
00000000
00000000
00000000
01300000
00000000
00020000
00000000
00000000
00032000
,
00000000
00003200
00000000
00000310
00001000
00000001
00000010
00000100
,
00020000
00000000
00031000
01000000
00020000
00000000
02030000
00000000
,
03100000
01000000
00020000
00000000
00100000
00000000
00130000
00000000
,
00002000
00000000
00013000
00000010
00002000
00000000
00003020
00000000
,
00000130
00000010
00002000
00000000
00000100
00000000
00003100
00000000
,
00010000
00000000
00001000
00010000
01010000
01000000
10000000
00000000
,
01000000
00010000
00011000
00001000
00000100
00000000
00000001
00000000
,
00000011
00000000
00000000
00001100
00000000
00000000
00010100
00000000
00000000
00000000
00010000
00001000
00100000
00000000
00000000
11000000
,
00000000
00000000
10100000
00000000
00000000
00000000
00100000
00000000
01000000
00010000
01000000
00010000
01000000
00000000
00001000
00010000
,
00000100
00000000
00000000
00001100
00000000
00000000
00000011
00000000
00000000
00000000
00000001
00000010
00000100
00000000
00000000
00010100
,
00000000
00000000
00011000
00000000
00000000
00000000
00000000
00000000
00000000
00000000
00000000
00000000
00000000
00000000
00001000
00010000
,
00001000
00000000
00100000
00010000
00100000
00000000
10000000
00000000
00010000
00000000
01000000
00000000
10000000
00000000
00010000
01000000
,
00010000
00000000
00100000
00000000
00010000
00000000
00001000
00000000
00000100
00000000
00000010
00000001
00000010
00000000
00001000
00000000
,
00000001
00000000
00000100
00000000
00001000
00000000
00000001
00000100
00000001
00000000
00001000
00000000
00000010
00000000
00000100
00000000
,
00001000
00010000
01000000
00010000
00001000
01000000
00010000
00100000
,
02000000
00000000
00000000
00000000
10000000
00000000
00000000
00000000
03100000
00000000
00010000
00000000
01000000
00000000
00001000
00010000
,
00001000
00010000
00000100
00001000
00010000
00001000
00000200
00000000
,
00000001
00000000
00000310
00000001
00000100
00001000
00010000
00100000
,
10000000
00010000
00100000
01000000
00020000
00001000
00031000
00000000
,
00010000
00000000
00000100
00001000
00000100
00000000
00000001
00000000
00001000
00000000
00000010
00000000
00000001
00000000
00001000
00000010
,
00001000
00000000
00000100
00000000
00001000
00000000
00010000
00000000
00100000
00000000
01000000
10000000
01000000
00000000
00010000
00000000
,
10000000
00000000
00100000
00000000
00010000
00000000
01000000
00000000
00001000
00010000
00001000
00010000
00001000
00000000
01000000
00000000
,
00010000
00000000
00100000
00000000
00001000
00000000
00010000
00000000
00000010
00001000
00000010
00001000
00000010
00000000
00000100
00000000
,
00000002
00000000
00000000
00000000
00000010
00000000
00000000
00000000
00000103
00000000
00000010
00000000
00010000
00000000
00001000
00010000
,
00001000
00100000
00010000
00001000
00010000
00100000
00002000
00000000
,
00010000
00000000
00000000
00000000
00103000
00000000
00010000
00000000
01000000
00000000
10000000
00000000
01000000
00000000
00010000
10000000
,
00010000
00000000
00100000
00000000
00001000
00000000
00010000
00000100
00010000
00000000
00000100
00001000
00000100
00001000
00000100
00000010
,
00000002
00000000
00000103
00002100
00000000
00013000
00021000
00000000
,
00130000
20100000
00000000
00000000
01000000
00000000
01000000
00000000
,
01000000
00000000
00000000
00000000
01000000
00000000
00000000
00000000
01000000
00000000
00000000
00000000
30010000
00000000
00100000
01000000
,
20000000
00000000
30100000
00120000
00000000
00031000
00012000
00000000
,
00003100
00000102
00000000
00000000
00000010
00000000
00000010
00000000
,
00000010
00000000
00000000
00000000
00000010
00000000
00000000
00000000
00001003
00000100
00001000
00000100
00000010
00000000
00000001
00000010
,
00000200
00000000
00010300
00021000
00000000
00130000
20100000
00000000
,
31000000
02100000
00000000
00000000
00010000
00000000
00010000
00000000
,
00010000
00000000
00000000
00000000
00010000
00000000
00000000
00000000
03100000
00010000
00100000
00010000
10000000
00000000
00010000
01000000
,
00200000
00000000
00310000
00012000
00000000
00003100
00000102
00000000
,
00000013
00000120
00000000
00000000
00001000
00000000
00001030
00000000
,
00012000
00000000
00000000
00100000
00000000
00000000
00103000
00000000
00000000
00010000
01000000
00002000
,
00020000
00000000
00000000
00000000
,
00000000
00000000
00000000
00000000
,
00000000
00000000
00000000
00000000
,
00033000
00000000
00000000
00000000
;
