#TITLE:Lost In Japan (Remix);
#ARTIST:Shawn Mendes & Zedd;
#BANNER:Lost In Japan (Remix).png;
#BACKGROUND:Lost In Japan (Remix)-bg.png;
#MUSIC:Lost In Japan (Remix).ogg;
#OFFSET:2.228;
#SAMPLESTART:80.763;
#SAMPLELENGTH:15;
#BPMS:0=107;
#BGCHANGES:4=Lost In Japan (Remix).avi=1=0=0=0=StretchNoLoop====,99999=-nosongbg-=1=0=0=0 // don't automatically add -songbackground-;

//---------------dance-single - NewbStepper-bSP----------------
#NOTES:
     dance-single:
     NewbStepper:
     Beginner:
     1:
     0.076360,0.108814,0.045816,0.091632,0,70,64,6,12,0,0,0.076360,0.108814,0.045816,0.091632,0,70,64,6,12,0,0:
0000
0000
0000
0000
,
0000
0000
0000
0000
,
0000
0000
0000
0000
,
0000
1000
0000
0000
,
0000
0001
0000
0000
,
1001
0000
0000
0000
,
0000
0000
0000
0000
,
1001
0000
0000
0000
,
0000
0000
0000
0000
,
1001
0000
0000
0000
,
0020
0000
0000
0030
,
0000
0000
0000
0000
,
0000
0000
0000
0000
,
0001
0000
0001
0000
,
1000
0000
1000
0000
,
0010
0000
0010
0000
,
0200
0000
0300
0000
,
1000
0000
1000
0000
,
0001
0000
0001
0000
,
0010
0000
0010
0000
,
0200
0000
0000
0000
,
0300
0000
0000
0000
,
1000
0000
0000
0000
,
0001
0000
0000
0000
,
0100
0000
0000
0000
,
0010
0000
0000
0000
,
1000
0000
0000
0000
,
0001
0000
0000
0000
,
0100
0000
0000
0000
,
1001
0000
0000
0000
,
0000
0000
0000
0000
,
1001
0000
0000
0000
,
0000
0000
0000
0000
,
1001
0000
0000
0000
,
0020
0000
0000
0030
,
0000
0000
0000
0000
,
0000
0000
0000
0000
,
1000
0000
1000
0000
,
0001
0000
0001
0000
,
0010
0000
0010
0000
,
0200
0000
0300
0000
,
0001
0000
0001
0000
,
1000
0000
1000
0000
,
0010
0000
0010
0000
,
0200
0000
0300
0000
,
0001
0000
0001
0000
,
1000
0000
1000
0000
,
0010
0000
0010
0000
,
0200
0000
0300
0000
,
1000
0000
1000
0000
,
0001
0000
0001
0000
,
0010
0000
0010
0000
,
0200
0000
0300
0000
,
0020
0000
0030
0000
,
0002
0000
0003
0000
,
2000
0000
3000
0000
,
0020
0000
0030
0000
,
0100
0000
0000
0000
;

//---------------dance-single - NewbStepper-BSP----------------
#NOTES:
     dance-single:
     NewbStepper:
     Easy:
     5:
     0.194173,0.261152,0.175629,0.442890,0,178,155,23,58,0,0,0.194173,0.261152,0.175629,0.442890,0,178,155,23,58,0,0:
0000
0000
0000
0000
,
0000
0000
0000
0000
,
0000
0000
0000
0000
,
0000
2000
0000
3000
,
0001
0002
0000
0003
,
1000
1000
0000
0000
,
0001
0100
0001
0010
,
0001
0001
0000
0000
,
1000
0100
1000
0010
,
1000
1000
0000
0000
,
0002
0000
0003
0000
,
0100
0000
0000
0000
,
0220
0000
0330
0000
,
0001
1000
0001
0100
,
0020
1000
0001
0100
,
1030
0001
1000
0100
,
2000
3020
0032
0203
,
1300
1100
0220
0330
,
0001
0101
0220
0330
,
1000
1010
0220
0330
,
0002
0023
2030
3200
,
0302
0003
0000
0000
,
1001
0000
0010
0000
,
2000
3000
0100
0000
,
1001
0000
0010
0000
,
0001
0100
1000
0000
,
1000
0010
0001
0000
,
0001
0100
1000
0010
,
0001
0100
0110
0000
,
0001
0001
0000
0000
,
1000
0100
1000
0010
,
1000
1000
0000
0000
,
0001
0100
0001
0010
,
0001
0001
0000
0000
,
2000
0000
3000
0000
,
0100
0000
0000
0000
,
0220
0000
0330
0000
,
1000
0001
1000
0100
,
0020
0001
1000
0100
,
0031
1000
0001
0100
,
0002
0023
2030
3200
,
0301
1000
0001
0100
,
0020
1000
0001
0100
,
1030
0001
1000
0100
,
2000
3020
0032
0203
,
1300
1100
0220
0330
,
0001
0101
0220
0330
,
1000
1010
0220
0330
,
0002
0023
2030
3200
,
0301
0101
0220
0330
,
1000
1100
0220
0330
,
0001
0011
0220
0330
,
2000
3020
0032
0203
,
2300
0000
3000
0001
,
0200
0000
0300
1000
,
0200
0000
0300
0010
,
1000
0100
0010
0001
,
0100
0000
0000
0000
;

//---------------dance-single - Marten-DSP----------------
#NOTES:
     dance-single:
     Marten:
     Medium:
     7:
     0.322895,0.326441,0.053452,0.351258,0.007636,296,289,7,46,0,0,0.322895,0.326441,0.053452,0.351258,0.007636,296,289,7,46,0,0:
0000
0000
0000
0000
,
0000
0000
0000
0000
,
0000
0000
0000
0000
,
0000
0000
1000
0100
0010
0010
0000
0000
,
0002
0000
0023
0000
0230
0000
1300
0001
,
1000
0000
1000
0000
1000
0000
0010
1000
,
0001
0001
0010
0000
0100
1000
0100
0000
,
0010
0010
0010
0010
,
0001
0100
0001
0000
1000
0010
0100
0000
,
0010
0000
0000
0000
0000
1000
0000
0000
0000
0001
0000
0000
0000
0000
0000
0010
0000
0000
0011
0000
0000
0000
0000
0000
,
0001
0100
0001
0000
1000
0010
0100
0100
,
0010
0000
1000
0100
0010
0001
0001
0000
,
1000
0100
0010
0001
0001
0000
1001
0000
,
0001
0100
0001
0000
0001
0010
0100
0000
,
1000
0100
1000
0000
1000
0010
0100
0000
,
0001
1000
0001
0000
0010
0010
0200
0310
,
0002
0000
0023
0000
0230
0000
1300
0001
,
1000
0010
1000
0000
1000
0100
0010
0000
,
0001
0010
0001
0000
0001
0100
0010
0000
,
1000
0001
1000
0000
0100
0100
0020
0130
,
2000
0000
3020
0000
0230
0000
0301
1000
,
0002
0000
0000
0000
0000
0000
0103
0001
,
1001
0000
1000
0100
0010
0000
1001
0000
,
0002
0000
0103
0001
1000
0100
1000
0000
,
0020
0000
0130
0001
1000
0000
0001
0000
,
1001
0000
1000
0100
0010
0100
1000
0000
,
0001
0000
0100
0010
0100
0001
0000
0000
,
0010
0000
0100
0010
0100
1000
0100
0000
,
0020
0000
0032
0000
2003
0000
3010
0100
,
0001
0000
0001
0000
0001
0000
0010
0001
,
1000
1000
0010
0000
0100
0001
0100
0000
,
0010
0010
0010
0010
,
1000
0100
1000
0000
0001
0010
0100
0000
,
0010
0000
0000
0000
0000
0001
0000
0000
0000
1000
0000
0000
0000
0000
0000
0010
0000
0000
1010
0000
0000
0000
0000
0000
,
1000
0100
1000
0000
0001
0010
0100
0100
,
0010
0000
0001
0100
0010
1000
1000
0000
,
0001
0100
0010
1000
1000
0000
1001
0000
,
0001
0000
1000
0000
0100
1000
0100
1000
,
0010
0000
0100
0000
0001
0100
0001
0100
,
0010
0000
1000
0000
0001
0001
2000
3001
,
0020
0032
2003
3020
,
1030
0000
0001
0000
0010
0001
0010
0001
,
0100
0000
0010
0000
1000
0010
1000
0010
,
0100
0000
0001
0000
1000
1000
0002
1003
,
0020
2030
3002
0023
,
0130
1000
0100
0000
0010
0001
1000
0000
,
0010
1000
0010
0000
0100
0001
1000
0000
,
0001
0010
0001
0000
0100
0100
0020
0130
,
0002
2003
3020
0130
,
0100
0001
0100
0000
0010
1000
0001
0000
,
0010
0001
0010
0000
0100
1000
0001
0000
,
1000
0010
1000
0000
0100
0100
0020
0130
,
2000
3002
0023
0230
,
2300
0000
0000
3020
,
0230
0000
0000
0320
,
2030
0000
0000
3002
,
2003
3020
0230
0302
,
1003
0000
0000
0000
;

//---------------dance-single - Marten-ESP----------------
#NOTES:
     dance-single:
     Marten:
     Hard:
     12:
     0.479979,0.544068,0.061088,0.389438,0.473434,440,432,8,51,0,0,0.479979,0.544068,0.061088,0.389438,0.473434,440,432,8,51,0,0:
0000
0000
0000
0000
,
0000
0000
0000
0000
,
0000
0000
0000
0000
,
0000
0000
0001
0100
0010
0010
0000
0000
,
2000
0000
3020
0000
0130
0001
1000
0100
,
0010
0000
0000
0001
0000
0000
0100
0000
0000
0001
0000
0000
0010
0000
0000
0001
0000
1000
0001
0000
0000
0100
0000
0000
,
0010
1000
0100
1000
0010
1000
0001
0000
,
0100
0000
0000
0010
0000
0000
0100
0000
0000
0001
0000
0000
0100
0000
0000
0010
0000
1000
0010
0000
0000
1000
0000
0000
,
0100
0010
0100
1000
0100
0010
0001
1000
,
0010
0000
0000
0000
0000
1000
0000
0000
0000
0001
0000
0000
0000
0000
0010
0001
0000
0000
0011
0000
0000
0000
0000
0000
,
0200
0000
0000
2300
0000
0000
3010
0000
0000
0100
0000
0000
0001
0000
1000
0100
0000
0000
0010
0000
0000
0100
0000
0000
,
1000
0000
0000
0000
0000
0001
0000
0000
0010
0000
0000
0100
1000
0000
0000
0010
0000
0000
0010
0000
0000
0000
0000
1000
,
0000
0000
0010
0000
0000
0100
0001
0000
0000
0010
0000
0000
0010
0000
0000
0000
0000
0000
0110
0000
0000
0000
0000
0000
,
1000
0000
0100
1000
0000
0000
0001
0000
0100
0001
0000
0010
0000
0000
0100
0000
0000
1000
0010
0000
0000
0010
0000
0000
,
1000
0000
0010
1000
0000
0000
0001
0000
0010
0001
0000
0100
0000
0000
0010
0000
0000
1000
0010
0000
0000
0010
0000
0000
,
0100
0000
0001
1000
0000
0000
0100
0000
1000
0001
0000
0100
0000
0000
0100
0000
0000
0100
0020
0000
0000
0130
0000
0000
,
0002
0000
0023
0000
0230
0000
1300
1000
,
0001
0000
0100
0001
0000
0000
1000
0000
0100
1000
0000
0010
0000
0000
0100
0000
0000
0001
0010
0000
0000
0010
0000
0000
,
0001
0000
0010
0001
0000
0000
1000
0000
0010
1000
0000
0100
0000
0000
0010
0000
0000
0001
0010
0000
0000
0010
0000
0000
,
0100
0000
1000
0001
0000
0000
0100
0000
0001
1000
0000
0100
0000
0000
0100
0000
0000
0100
0020
0000
0000
0130
0000
0000
,
2000
0000
3020
0000
0230
0000
0301
0001
,
2000
0000
3100
0010
0100
0100
1000
0010
,
0110
0000
0001
1000
0010
0000
1001
0000
,
1000
0100
0010
0100
1000
0001
1000
0000
,
0010
0100
0001
1000
0100
0010
0100
0000
,
0011
0001
0100
1000
0100
0001
0010
0000
,
0100
1000
0010
0100
0010
1000
0100
0000
,
1100
1000
0010
0100
1000
0100
0010
0000
,
2000
0000
3020
0000
0130
0001
0010
0100
,
1000
0000
0000
0001
0000
0000
1000
0000
0000
0100
0000
0000
1000
0000
0000
0001
0000
0010
0001
0000
0000
0100
0000
0000
,
0001
1000
0001
0100
0001
1000
0010
0000
,
0100
0000
0000
0001
0000
0000
0010
0000
0000
0001
0000
0000
0100
0000
0000
0001
0000
0010
0100
0000
0000
1000
0000
0000
,
0010
1000
0100
1000
0010
0100
0100
0001
,
0010
0000
0000
0000
0000
0001
0000
0000
0000
1000
0000
0000
0000
0000
0010
1000
0000
0000
1010
0000
0000
0000
0000
0000
,
0200
0000
0000
0302
0000
0000
0013
0000
0000
0100
0000
0000
1000
0000
0001
0100
0000
0000
0010
0000
0000
0100
0000
0000
,
0001
0000
0000
0000
0000
1000
0000
0000
0010
0000
0000
0100
0001
0000
0000
0010
0000
0000
0010
0000
0000
0000
0000
0001
,
0000
0000
0010
0000
0000
0100
1000
0000
0000
0010
0000
0000
0010
0000
0000
0000
0000
0000
0110
0000
0000
0000
0000
0000
,
0001
0000
1000
0100
0000
1000
0000
0000
0100
1000
0000
0001
0000
0000
0001
0000
0000
0001
0200
0000
0000
0310
0000
0000
,
1000
0000
0001
0100
0000
0001
0000
0000
0100
0001
0000
1000
0000
0000
1000
0000
0000
1000
0200
0000
0000
0310
0000
0000
,
0001
0000
0010
0100
0000
1000
0000
0000
0001
0010
0000
0100
0000
0000
0100
0000
0000
0100
2000
0000
0000
3100
0000
0000
,
0020
0000
0032
0000
2003
0000
3010
0010
,
1000
0000
0001
0010
0000
0001
0000
0000
0010
0001
0000
1000
0000
0000
1000
0000
0000
1000
0020
0000
0000
0130
0000
0000
,
0001
0000
1000
0010
0000
1000
0000
0000
0010
1000
0000
0001
0000
0000
0001
0000
0000
0001
0020
0000
0000
0130
0000
0000
,
1000
0000
0100
0010
0000
0001
0000
0000
1000
0100
0000
0010
0000
0000
0010
0000
0000
0010
0002
0000
0000
0103
0000
0000
,
0020
0000
2030
0000
3002
0000
0013
0100
,
1000
0000
0100
0010
0000
0100
1000
0000
0100
0010
0000
0100
0000
0000
1000
0000
0000
0010
0200
0000
0000
0301
0000
0000
,
0001
0000
0100
0010
0000
0100
0001
0000
0100
0010
0000
0100
0000
0000
0001
0000
0000
0010
0200
0000
0000
1300
0000
0000
,
1000
0000
0001
0100
0000
0001
0010
0000
0001
1000
0000
0100
0000
0000
0100
0000
0000
0100
0020
0000
0000
0130
0000
0000
,
2000
0000
3020
0000
0230
0000
0301
1000
,
0001
0000
0010
0100
0000
0010
0001
0000
0010
0100
0000
0010
0000
0000
0001
0000
0000
1000
0020
0000
0000
1030
0000
0000
,
1000
0000
0010
0100
0000
0010
1000
0000
0010
0100
0000
0010
0000
0000
1000
0000
0000
0001
0020
0000
0000
0031
0000
0000
,
0001
0000
1000
0010
0000
1000
0100
0000
1000
0001
0000
0100
0000
0000
0100
0000
0000
0100
0020
0000
0000
0130
0000
0000
,
0002
0000
0023
0000
0230
0000
1300
0001
,
2000
0000
0000
3002
,
0023
0000
0000
0032
,
0203
0000
0000
0320
,
2030
3020
0230
0302
,
1003
0000
0000
0000
;

//---------------dance-double - NewbStepper-BDP----------------
#NOTES:
     dance-double:
     NewbStepper:
     Easy:
     5:
     0.193083,0.261152,0.167993,0.442890,0,177,155,22,58,0,0,0.193083,0.261152,0.167993,0.442890,0,177,155,22,58,0,0:
00000000
00000000
00000000
00000000
,
00000000
00000000
00000000
00000000
,
00000000
00000000
00000000
00000000
,
00000000
20000000
00000000
30000000
,
00010000
00020000
00000000
00030000
,
00001000
00001000
00000000
00000000
,
00000001
00000100
00000001
00000010
,
00001000
00001000
00000000
00000000
,
00010000
01000000
00010000
00001000
,
00100000
00100000
00000000
00000000
,
02000000
00000000
03000000
00000000
,
01000000
00000000
00000000
00000000
,
02200000
00000000
03300000
00000000
,
00010000
00001000
00010000
00000010
,
00000200
00001000
00000001
00000010
,
00001300
00010000
00001000
00100000
,
00020000
02030000
03200000
20300000
,
31000000
01010000
00022000
00033000
,
00000100
00001100
00022000
00033000
,
00100000
00110000
00022000
00033000
,
00002000
00003020
00000032
00000203
,
00002300
00003000
00000000
00000000
,
00011000
00000000
00100000
00000000
,
00020000
00030000
01000000
00000000
,
10010000
00000000
00100000
00000000
,
10000000
01000000
00010000
00000000
,
00001000
00000010
00000001
00000000
,
00001000
00000100
00000010
00000001
,
00000100
00000010
00001000
00000000
,
00010000
00010000
00000000
00000000
,
10000000
01000000
10000000
00100000
,
00010000
00010000
00000000
00000000
,
00001000
00000100
00001000
00010000
,
00000010
00000010
00000000
00000000
,
00000200
00000000
00000300
00000000
,
00000100
00000000
00000000
00000000
,
00000220
00000000
00000330
00000000
,
00001000
00010000
00001000
00100000
,
02000000
00010000
10000000
00100000
,
03010000
00001000
00010000
00000010
,
00002000
00003200
00000320
00000230
,
00010300
00001000
00010000
00000010
,
00000200
00001000
00000001
00000010
,
00001300
00010000
00001000
00100000
,
00020000
02030000
03200000
20300000
,
31000000
01010000
00022000
00033000
,
00000100
00001100
00022000
00033000
,
00100000
00110000
00022000
00033000
,
00002000
00003020
00000032
00000203
,
00001300
00001100
00022000
00033000
,
01000000
01010000
00022000
00033000
,
00000010
00001010
00022000
00033000
,
00020000
00230000
20300000
32000000
,
03020000
00000000
00030000
00001000
,
00000200
00000000
00000300
00000001
,
00000200
00000000
00000300
00000010
,
00001000
00000100
00010000
00001000
,
01000000
00000000
00000000
00000000
;

//---------------dance-double - NewbStepper-DDP----------------
#NOTES:
     dance-double:
     NewbStepper:
     Medium:
     8:
     0.286897,0.282915,0.030544,0.366530,0,263,259,4,48,0,0,0.286897,0.282915,0.030544,0.366530,0,263,259,4,48,0,0:
00000000
00000000
00000000
00000000
,
00000000
00000000
00000000
00000000
,
00000000
00000000
00000000
00000000
,
00000000
00000000
00010000
00000100
00001000
00001000
00000000
00000000
,
00000002
00000000
00000023
00000000
00000230
00000000
00001300
00000001
,
00000100
00000000
00001000
00000000
00010000
00000000
00100000
10000000
,
00010000
00100000
01000000
00000000
00010000
00001000
00100000
00000000
,
01000000
00000000
00010000
00000000
00001000
00000000
00000010
00000001
,
00001000
00000010
00000100
00000000
00001000
00010000
00000010
00000000
,
00000100
00001000
00010000
01000000
,
20000000
30020000
00032000
00003002
,
00000103
00000000
00000001
00000100
00001000
00010000
01000000
00000000
,
00200000
00000000
00300000
10010000
,
00000000
01000000
00000000
00010000
00100000
01000000
00000000
00010000
,
00001000
00000100
00000000
00000001
00000010
00000100
00000000
00010000
,
00000010
00000100
00000000
00000001
00000010
00001000
00000000
00010000
,
00200000
20300000
32000000
03020000
,
00031000
00000100
00000001
00000000
00000010
00000010
00000010
00000000
,
00000001
00000100
00001000
00000000
00100000
00100000
00100000
00000000
,
00010000
10000000
00010000
00000000
01000000
00100000
01000000
00000000
,
00002000
00023000
02030000
23000000
,
30010000
00000000
00000000
00000000
,
10000000
00000000
01000000
00010000
00001000
00000000
00011000
00000000
,
00000010
00000000
00000001
00000100
00000010
00000000
00001000
00000000
,
00000001
00000000
00000100
00001000
00010000
00000000
00011000
00000000
,
00100000
00000000
10000000
01000000
00100000
01000000
00010000
00000000
,
00001000
00000000
00000010
00000001
00001000
00000000
00000100
00000000
,
00000010
00000000
00000001
00000100
00000010
00000100
00001000
00000000
,
00010000
00000000
00100000
10000000
00010000
00000000
00000000
00000000
,
20000000
00000000
00000000
00000000
30000000
00000000
00000000
00010000
,
10000000
01000000
00010000
00001000
00000100
00000001
00001000
00000000
,
00000002
00000000
00000000
00000000
00000003
00000000
00000000
00001000
,
00000001
00000100
00001000
00010000
01000000
10000000
00010000
00000000
,
20000000
00000000
00000000
00000000
30000000
00000000
00000000
00010000
,
20000000
30020000
00032000
00003002
,
00000103
00000000
00000001
00000100
00001000
00010000
01000000
00000000
,
00200000
00000000
00300000
10010000
,
00000000
01000000
00000000
00010000
00100000
01000000
00000000
00010000
,
00001000
00000100
00000000
00000001
00000010
00000100
00000000
00010000
,
00000010
00000100
00000000
00000001
00000010
00001000
00000000
00010000
,
00200000
20300000
32000000
03020000
,
00031000
00000100
00000001
00000000
00000010
00000010
00000010
00000000
,
00000001
00000100
00001000
00000000
00100000
00100000
00100000
00000000
,
00010000
10000000
00010000
00000000
01000000
00100000
01000000
00000000
,
00002000
00023000
02030000
23000000
,
30010000
00100000
00000000
00001000
01000000
00100000
00000000
00010000
,
00001000
00000010
00000000
00000001
00000100
00000010
00000000
00010000
,
00000100
00000010
00000000
00000001
00000100
00001000
00000000
00010000
,
02000000
00000000
23000000
00000000
30200000
00000000
00310000
00000100
,
00001000
00000010
00000000
00010000
00000100
00000010
00000000
00001000
,
00010000
00100000
00000000
10000000
01000000
00100000
00000000
00001000
,
01000000
00100000
00000000
10000000
01000000
00010000
00000000
00001000
,
00000200
00000000
00000302
00000000
00000023
00000000
00001030
00010000
,
02000000
00000000
00000000
23000000
,
30020000
00000000
00000000
00230000
,
00302000
00000000
00000000
00023000
,
00032000
00003200
00000302
00000023
,
00000130
00000000
00000000
00000000
;

//---------------dance-double - NewbStepper-EDP----------------
#NOTES:
     dance-double:
     NewbStepper:
     Hard:
     13:
     0.481070,0.544068,0.068724,0.114541,0.828510,441,432,9,15,0,0,0.481070,0.544068,0.068724,0.114541,0.828510,441,432,9,15,0,0:
// measure 0
00000000
00000000
00000000
00000000
,  // measure 1
00000000
00000000
00000000
00000000
,  // measure 2
00000000
00000000
00000000
00000000
,  // measure 3
00000000
00000000
10000000
01000000
00010000
01000000
00000000
00000000
,  // measure 4
00200000
00000000
00000000
00000000
00000000
00000000
00301000
00000000
00000000
00000000
00001000
00000000
00010000
00000000
00000000
00001000
00000000
00000010
00000000
00000000
00000001
00000000
00000000
00000100
,  // measure 5
00000000
00000000
00000000
00000100
00000000
00000010
00000000
00000000
00000000
00000000
00000000
00000000
00000000
00000000
00000000
00000000
00000000
00000000
00000000
00000000
00000000
00001000
00000000
00000100
,  // measure 6
00000010
00000000
00000001
00000000
00000000
00000100
00000000
00000000
00001000
00000000
00000000
00010000
00000000
00000000
00100000
00000000
00000000
10000000
00000000
00000000
01000000
00000000
00000000
00010000
,  // measure 7
00000000
00000000
00000000
01000000
00000000
10000000
00000000
00000000
00000000
00000000
00000000
00000000
00000000
00000000
00000000
00000000
00000000
00000000
00000000
00000000
00000000
00010000
00000000
01000000
,  // measure 8
00100000
00000000
10000000
00000000
00000000
01000000
00000000
00000000
00010000
00000000
00000000
00001000
00000000
00000000
00000010
00000000
00000000
00000001
00000000
00000000
00000100
00000000
00000000
00001000
,  // measure 9
00000000
00000000
00000000
00000100
00000000
00000010
00001000
00000000
00000000
00000100
00000000
00000010
00000001
00000000
00000000
00000100
00000000
00000010
00001000
00000000
00000000
00000001
00000000
00000000
,  // measure 10
00000010
00000000
00000000
00001000
00000000
00100000
00010000
00000000
00000000
00001000
00000000
00000100
00000010
00000000
00000000
00001000
00000000
00010000
00000010
00000000
00000000
00010000
00000000
00000000
,  // measure 11
00011000
00000000
00000000
00000000
00000000
00100000
00000000
00000000
00100000
00000000
00000000
00100000
10000000
00000000
00000000
01000000
00000000
00000000
00010000
00000000
00000000
00000000
00000000
00000000
,  // measure 12
00022000
00000000
00033000
00011000
,  // measure 13
00000000
00000000
00001000
00010000
00000000
00000010
00000000
00000000
00000100
00001000
00000000
00010000
00000000
00000000
00100000
00000000
00000000
10000000
00000000
00000000
01000000
00100000
00000000
00001000
,  // measure 14
00000000
00000000
00010000
00001000
00000000
00100000
00000000
00000000
01000000
00010000
00000000
00001000
00000000
00000000
00000010
00000000
00000000
00000001
00000000
00000000
00000100
00000010
00000000
00010000
,  // measure 15
00000000
00000000
00001000
00000100
00000000
00000010
00000000
00000000
00010000
01000000
00000000
00100000
00000000
00000000
00100000
00000000
00000000
00100000
00000000
00000000
01000000
10000000
00000000
00000000
,  // measure 16
00100000
00010000
00001000
00000010
00001000
00010000
01000000
00100000
,  // measure 17
00001000
00000000
00010000
00001000
00000000
01000000
00000000
00000000
00100000
00010000
00000000
00001000
00000000
00000000
00000100
00000000
00000000
00000001
00000000
00000000
00000010
00000100
00000000
00010000
,  // measure 18
00000000
00000000
00001000
00010000
00000000
00000100
00000000
00000000
00000010
00001000
00000000
00010000
00000000
00000000
01000000
00000000
00000000
10000000
00000000
00000000
00100000
01000000
00000000
00001000
,  // measure 19
00000000
00000000
00010000
00100000
00000000
01000000
00000000
00000000
00001000
00000010
00000000
00000100
00000000
00000000
00000100
00000000
00000000
00000100
00000000
00000000
00000010
00000001
00000000
00000000
,  // measure 20
00000100
00000000
00000000
00000000
00000100
00000000
00001000
00000000
00000000
00000000
00001000
00000000
00010000
00000000
00000000
00000000
00010000
00000000
00100000
00000000
00000000
01000000
00000000
00000000
,  // measure 21
02000000
00000000
00000000
03000000
,  // measure 22
00010000
00100000
01000000
00010000
00001000
00000000
00011000
00000000
,  // measure 23
00000010
00000100
00000001
00000010
00001000
00010000
00000100
00000000
,  // measure 24
00001000
00000010
00000100
00001000
00010000
00000000
00011000
00000000
,  // measure 25
00100000
10000000
01000000
00010000
00001000
00000001
00000100
00001000
,  // measure 26
00010000
10000000
00100000
00010000
00001000
00000000
00011000
00000000
,  // measure 27
00000010
00000001
00000100
00001000
00010000
10000000
01000000
00010000
,  // measure 28
00001000
00000000
00000000
00000000
00000000
00000000
00000000
00000000
00000000
00001000
00000000
00000000
00000100
00000000
00000000
00000000
00000000
00000000
00000000
00000000
00000000
00000010
00000000
00000000
00001000
00000000
00000000
00000000
00000000
00000000
00010000
00000000
00000000
00000000
00100000
00000000
00000000
00000000
00000000
00000000
10000000
00000000
00000000
00000000
00000000
00000000
01000000
00000000
,  // measure 29
00000000
00000000
00000000
01000000
00000000
00100000
00000000
00000000
00000000
00000000
00000000
00000000
00000000
00000000
00000000
00000000
00000000
00000000
00000000
00000000
00000000
00010000
00000000
01000000
,  // measure 30
00100000
00000000
10000000
00000000
00000000
01000000
00000000
00000000
00010000
00000000
00000000
00001000
00000000
00000000
00000010
00000000
00000000
00000001
00000000
00000000
00000100
00000000
00000000
00001000
,  // measure 31
00000000
00000000
00000000
00000100
00000000
00000001
00000000
00000000
00000000
00000000
00000000
00000000
00000000
00000000
00000000
00000000
00000000
00000000
00000000
00000000
00000000
00001000
00000000
00000100
,  // measure 32
00000010
00000000
00000001
00000000
00000000
00000100
00000000
00000000
00001000
00000000
00000000
00010000
00000000
00000000
00100000
00000000
00000000
10000000
00000000
00000000
01000000
00000000
00000000
00010000
,  // measure 33
00000000
00000000
00000000
01000000
00000000
00100000
00010000
00000000
00000000
01000000
00000000
00100000
10000000
00000000
00000000
01000000
00000000
00100000
00010000
00000000
00000000
10000000
00000000
00000000
,  // measure 34
00100000
00000000
00000000
00010000
00000000
00000010
00001000
00000000
00000000
00010000
00000000
01000000
00100000
00000000
00000000
00010000
00000000
00001000
00100000
00000000
00000000
00001000
00000000
00000000
,  // measure 35
00011000
00000000
00000000
00000000
00000000
00000010
00000000
00000000
00000010
00000000
00000000
00000010
00000001
00000000
00000000
00000100
00000000
00000000
00001000
00000000
00000000
00000000
00000000
00000000
,  // measure 36
00022000
00000000
00033000
00011000
,  // measure 37
00000000
00000000
00010000
00001000
00000000
00100000
00000000
00000000
01000000
00010000
00000000
00001000
00000000
00000000
00000010
00000000
00000000
00000001
00000000
00000000
00000100
00000010
00000000
00010000
,  // measure 38
00000000
00000000
00001000
00010000
00000000
00000010
00000000
00000000
00000100
00001000
00000000
00010000
00000000
00000000
00100000
00000000
00000000
10000000
00000000
00000000
01000000
00100000
00000000
00001000
,  // measure 39
00000000
00000000
00010000
01000000
00000000
00100000
00000000
00000000
00001000
00000100
00000000
00000010
00000000
00000000
00000010
00000000
00000000
00000010
00000000
00000000
00000100
00000001
00000000
00000000
,  // measure 40
00000010
00001000
00010000
00100000
00010000
00001000
00000100
00000010
,  // measure 41
00010000
00000000
00001000
00010000
00000000
00000100
00000000
00000000
00000010
00001000
00000000
00010000
00000000
00000000
01000000
00000000
00000000
10000000
00000000
00000000
00100000
01000000
00000000
00001000
,  // measure 42
00000000
00000000
00010000
00001000
00000000
01000000
00000000
00000000
00100000
00010000
00000000
00001000
00000000
00000000
00000100
00000000
00000000
00000001
00000000
00000000
00000010
00000100
00000000
00010000
,  // measure 43
00000000
00000000
00001000
00000010
00000000
00000100
00000000
00000000
00010000
00100000
00000000
01000000
00000000
00000000
01000000
00000000
00000000
01000000
00000000
00000000
00100000
10000000
00000000
00000000
,  // measure 44
01000000
00000000
00000000
00000000
01000000
00000000
00010000
00000000
00000000
00000000
00010000
00000000
00001000
00000000
00000000
00000000
00001000
00000000
00000010
00000000
00000000
00000100
00000000
00000000
,  // measure 45
00000100
00000000
00010000
00001000
00000000
01000000
00000000
00000000
00100000
00010000
00000000
00001000
00000000
00000000
00000100
00000000
00000000
00000001
00000000
00000000
00000010
00000100
00000000
00010000
,  // measure 46
00000000
00000000
00001000
00010000
00000000
00000100
00000000
00000000
00000010
00001000
00000000
00010000
00000000
00000000
01000000
00000000
00000000
10000000
00000000
00000000
00100000
01000000
00000000
00001000
,  // measure 47
00000000
00000000
00010000
00100000
00000000
01000000
00000000
00000000
00001000
00000010
00000000
00000100
00000000
00000000
00000100
00000000
00000000
00000100
00000000
00000000
00000010
00000001
00000000
00000000
,  // measure 48
00001000
00000000
00000000
00000000
00000001
00000000
00000100
00000000
00000000
00000000
00000010
00000000
00001000
00000000
00000000
00000000
00010000
00000000
01000000
00000000
00000000
00100000
00000000
00000000
,  // measure 49
01000000
00000000
00010000
10000000
00000000
00100000
00000000
00000000
00010000
00002000
00000000
00000010
00000000
00000000
00000010
00000000
00000000
00003010
00000000
00000000
00000100
00001000
00000000
00001000
,  // measure 50
00000010
00000000
00001000
00000001
00000000
00000010
00000000
00000000
00001000
00020000
00000000
00100000
00000000
00000000
00100000
00000000
00000000
00130000
00000000
00000000
01000000
00010000
00000000
00010000
,  // measure 51
00100000
00000000
00010000
01000000
00000000
00100000
00000000
00000000
00001000
00000100
00000000
00000010
00000000
00000000
00001000
00000000
00000000
00010000
00000000
00000000
00100000
01000000
00000000
00000000
,  // measure 52
00010000
00000000
00000000
00000000
10000000
00000000
01000000
00000000
00000000
00000000
00100000
00000000
00010000
00000000
00000000
00000000
00001000
00000000
00000100
00000000
00000000
00000010
00000000
00000000
,  // measure 53
00000002
00000000
00000000
00000100
,  // measure 54
00002003
00000000
00000000
00000010
,  // measure 55
00023000
00000000
00000000
10000000
,  // measure 56
02030000
03200000
00320000
00032000
,  // measure 57
00013000
00000000
00000000
00000000
;
