#VERSION:0.83;
#TITLE:Look To The Sky (cyber True Color);
#ARTIST:Sota Fujimori;
#BANNER:Look To The Sky (cyber True Color).png;
#BACKGROUND:Look To The Sky (cyber True Color)-bg.png;
#JACKET:Look To The Sky (cyber True Color)-jacket.png;
#MUSIC:Look To The Sky (cyber True Color).ogg;
#OFFSET:0.399;
#SAMPLESTART:34.36;
#SAMPLELENGTH:15;
#BPMS:0=145;
#BGCHANGES:0.75=Look To The Sky (cyber True Color).avi=1=0=0=0=StretchNoLoop====,99999=-nosongbg-=1=0=0=0 // don't automatically add -songbackground-;

//---------------dance-single - NewbStepper-bSP----------------
#NOTEDATA:;
#CHARTNAME:NewbStepper-bSP;
#CHARTHASH:2147483647:
#STEPSTYPE:dance-single;
#DESCRIPTION:NewbStepper-bSP;
#DIFFICULTY:Beginner;
#METER:1;
#RADARVALUES:0.098395,0.173303,0,0.007406,0,93,93,0,1,0,0,0,0,0,0.098395,0.173303,0,0.007406,0,93,93,0,1,0,0,0,0,0;
#CREDIT:NewbStepper;
#NOTES:
0000
0000
0000
0000
,
0000
0000
0000
0000
,
0000
0000
0000
0000
,
0000
0000
0000
0000
,
0000
0000
0000
0000
,
0001
0000
0000
0000
,
0000
0000
0000
0000
,
0001
0000
0000
0000
,
0000
0000
0000
0000
,
1000
0000
0000
0000
,
1000
0000
0000
0000
,
1000
0000
0000
0000
,
1000
0000
0000
0000
,
0001
0000
0000
0000
,
1000
0000
0000
0000
,
0001
0000
0000
0000
,
1000
0000
0000
0000
,
0100
0000
0000
0000
,
0000
0000
0000
0000
,
0100
0000
0000
0000
,
0000
0000
0000
0000
,
1000
0000
0000
0000
,
0100
0000
0000
0000
,
0010
0000
0000
0000
,
0001
0001
0000
0000
,
1000
0000
0000
0000
,
0010
0000
0000
0000
,
0100
0000
0000
0000
,
0001
0001
0000
0000
,
0001
0000
0000
0000
,
0010
0000
0000
0000
,
0100
0000
0000
0000
,
1000
1000
0000
0000
,
0001
0000
0000
0000
,
0100
0000
0000
0000
,
0010
0000
0000
0000
,
1000
1000
0000
0000
,
0001
0000
0000
0000
,
1000
0000
0000
0000
,
0001
0001
0000
0000
,
0000
0000
0000
0000
,
1000
0000
0000
0000
,
0001
0000
0000
0000
,
1000
1000
0000
0000
,
0000
0000
0000
0000
,
0001
0001
0000
0000
,
0100
0100
0000
0000
,
0010
0010
0000
0000
,
1000
1000
1000
0000
,
0001
0001
0000
0000
,
0100
0100
0000
0000
,
0010
0010
0000
0000
,
1000
1000
1000
0000
,
0001
0000
0000
0000
,
0100
0000
0000
0000
,
1000
0000
0000
0000
,
0100
0100
0000
0000
,
0001
0000
0000
0000
,
0010
0000
0000
0000
,
1000
0000
0000
0000
,
0010
0000
0010
0000
,
0001
0000
0000
0000
,
1000
0000
0000
0000
,
0001
0001
0000
0000
,
0100
0000
0000
0000
,
1000
0000
0000
0000
,
0001
0000
0000
0000
,
1000
1000
0000
0000
,
0100
0000
0000
0000
,
0010
0000
0010
0000
,
0010
0000
0010
0000
,
0100
0000
0000
0000
,
0100
0000
0000
0000
,
1000
0000
1000
0000
,
1000
0000
1000
0000
,
0001
0001
0000
1000
,
1000
0000
0000
0000
,
0200
0000
0000
0000
,
0300
0000
0000
0000
;

//---------------dance-single - NewbStepper-BSP----------------
#NOTEDATA:;
#CHARTNAME:NewbStepper-BSP;
#CHARTHASH:2147483647:
#STEPSTYPE:dance-single;
#DESCRIPTION:NewbStepper-BSP;
#DIFFICULTY:Easy;
#METER:4;
#RADARVALUES:0.204196,0.259954,0.088873,0.177746,0,193,181,12,24,0,0,0,0,0,0.204196,0.259954,0.088873,0.177746,0,193,181,12,24,0,0,0,0,0;
#CREDIT:NewbStepper;
#NOTES:
0000
0000
0000
0000
,
0000
0000
0000
0000
,
0000
0000
0000
0000
,
0000
0000
0000
0000
,
0000
0000
0000
0000
,
2000
0000
0000
0000
,
0000
0000
3000
0000
,
0002
0000
0000
0000
,
0000
0000
0000
0003
,
1000
0100
0100
0000
,
0001
0010
0010
0000
,
1000
0100
0100
0000
,
0020
0000
0000
0030
,
0001
0100
0001
0000
,
1000
0100
1000
0000
,
0010
0100
0010
0000
,
1000
0001
1000
0001
,
0010
0000
0000
0000
,
0010
0000
0000
0000
,
0100
0000
0000
0000
,
0100
0000
0000
0000
,
0002
0003
2000
3000
,
0020
0030
0200
0300
,
0002
0003
2000
3000
,
0100
0010
0110
0000
,
2000
3000
0002
0003
,
0020
0030
0200
0300
,
2000
3000
0002
0003
,
0100
0010
0110
0000
,
1000
0100
1000
0100
,
0010
0000
0001
0000
,
0001
0100
0001
0100
,
0010
0000
1000
0000
,
0100
0010
0100
0010
,
0001
0000
0100
0000
,
0010
1000
0010
1000
,
0100
0000
0010
0000
,
0001
0000
0010
0000
,
0100
0000
1000
0000
,
0100
0010
0001
0010
,
0100
0000
1001
0000
,
1000
0000
0010
0000
,
0100
0000
0001
0000
,
0100
0010
1000
0010
,
0100
0000
1001
0000
,
0010
0001
0010
0001
,
0010
0000
0001
0000
,
1000
0010
1000
0010
,
1000
0000
0010
0000
,
0100
0010
0100
0010
,
0100
0000
0001
0000
,
1000
0100
0010
0001
,
1000
0000
0001
0000
,
1001
0000
0110
0000
,
0001
0100
0001
0000
,
1001
0000
0110
0000
,
1000
0000
0001
0000
,
1001
0000
0110
0000
,
1000
0100
1000
0000
,
1001
0000
0110
0000
,
0001
0000
1000
0000
,
0002
0003
0020
0030
,
0200
0300
2000
3000
,
0100
0010
0100
0000
,
0100
0000
0001
0100
,
2000
3000
0020
0030
,
0200
0300
0002
0003
,
0100
0010
0100
0000
,
0100
0000
1000
0100
,
0001
0010
0001
0010
,
0100
1000
0100
0000
,
1000
0010
1000
0000
,
0001
0010
0001
0000
,
1000
0010
1000
0010
,
0100
0001
0100
0000
,
0001
0010
0001
0000
,
1000
0010
1000
0001
,
0020
0000
0000
0000
,
0030
0000
0000
0000
;

//---------------dance-single - NewbStepper-DSP----------------
#NOTEDATA:;
#CHARTNAME:NewbStepper-DSP;
#CHARTHASH:109382449:
#STEPSTYPE:dance-single;
#DESCRIPTION:NewbStepper-DSP;
#DIFFICULTY:Medium;
#METER:7;
#RADARVALUES:0.302592,0.404373,0.088873,0.348086,0,286,274,12,47,0,0,0,0,0,0.302592,0.404373,0.088873,0.348086,0,286,274,12,47,0,0,0,0,0;
#CREDIT:NewbStepper;
#NOTES:
0000
0000
0000
0000
,
0000
0000
0000
0000
,
0000
0000
0000
0000
,
0000
0000
0000
0000
,
0000
0000
0000
0000
,
0020
0000
0000
0000
,
0000
0000
2030
3002
,
0203
0000
0000
0020
0000
0000
0000
0000
,
0000
0000
0330
1000
,
0001
0100
1000
0100
,
0001
0100
1001
0000
,
1000
0100
0001
0100
,
1000
0100
1001
0000
,
0010
0001
0100
1000
,
0010
0001
0100
1000
,
0010
0001
0100
0100
,
1000
0010
0100
0100
,
0020
0000
0030
0000
,
0002
0000
0003
0000
,
2000
0000
3000
0000
,
0020
0000
0000
0030
,
1000
0000
0100
0000
1000
0010
1000
0000
,
0001
0000
0100
0000
0001
0010
0001
0000
,
1000
0000
0100
0000
0001
0100
0001
0000
,
0100
1000
0010
0100
,
0001
0000
0100
0000
0001
0010
0001
0000
,
1000
0000
0100
0000
1000
0010
1000
0000
,
0001
0000
0100
0000
1000
0100
1000
0000
,
0100
0001
0010
0100
,
1000
0010
0100
0000
0001
0000
0010
0000
,
0001
0010
0100
0000
1000
0000
0010
0000
,
1000
0100
0001
0000
0100
0000
0000
0000
,
1000
0010
1000
0010
0000
0100
0000
0000
,
0001
0010
0100
0000
1000
0000
0010
0000
,
1000
0010
0100
0000
0001
0000
0010
0000
,
0001
0100
1000
0000
0100
0000
0000
0000
,
0001
0010
0001
0010
0000
0100
0000
0000
,
2000
0000
3200
0000
,
0302
0000
0023
0000
,
1030
0100
0010
0002
,
0000
2000
0000
0000
3003
0000
0000
0000
,
0002
0000
0203
0000
,
2300
0000
3020
0000
,
0031
0100
0010
1000
,
0001
0000
0100
0000
0010
0100
0110
0000
,
2000
3100
0002
0103
,
2000
3010
0002
0013
,
2000
3200
0320
0032
,
1003
0000
0100
0000
0001
0100
1000
0000
,
0002
0103
2000
3100
,
0002
0013
2000
3010
,
0002
0203
0320
2030
,
3002
0000
0000
0020
0000
0000
0033
0000
,
0001
1001
1000
1100
,
0100
0110
0010
0011
,
0001
0101
0100
0110
,
0010
1010
1000
1001
,
0010
0000
0001
0000
0100
0010
1000
0010
,
0100
0000
0001
0000
1000
0010
0100
0001
,
1000
0000
0010
0000
0100
0001
0010
0000
,
0100
0100
0000
0000
0010
0010
0000
0000
,
0002
0000
0023
0000
,
0230
0000
2300
0000
,
3001
0100
1000
0100
,
0001
0000
0010
0000
0100
0100
0100
0000
,
2000
0000
3020
0000
,
0230
0000
0302
0000
,
1003
0100
0001
0100
,
1000
0000
0010
0000
0100
0100
0100
0000
,
0001
0100
0001
0000
0010
0000
0010
0000
,
1000
0100
1000
0000
0010
0000
0010
0000
,
0001
0100
0010
0000
1000
0100
0010
0000
,
0001
0000
0100
0000
0010
1000
0001
0000
,
1000
0010
1000
0000
0100
0000
0100
0000
,
0001
0010
0001
0000
0100
0000
0100
0000
,
1000
0010
0001
0100
,
1000
1000
0001
0000
0010
0010
0100
0000
,
2002
0000
0000
0000
,
3003
0000
0000
0000
;

//---------------dance-single - NewbStepper-ESP----------------
#NOTEDATA:;
#CHARTNAME:NewbStepper-ESP;
#CHARTHASH:1197021546:
#STEPSTYPE:dance-single;
#DESCRIPTION:NewbStepper-ESP;
#DIFFICULTY:Hard;
#METER:11;
#RADARVALUES:0.454946,0.491024,0.170340,0.214777,0.096279,430,407,23,29,0,0,0,0,0,0.454946,0.491024,0.170340,0.214777,0.096279,430,407,23,29,0,0,0,0,0;
#CREDIT:NewbStepper;
#NOTES:
0000
0000
0000
0000
,
0000
0000
0000
0000
,
0000
0000
0000
0000
,
0000
0000
0000
0000
,
0000
0000
0000
0000
,
0002
0000
0000
0000
,
2003
0000
3200
0320
,
0032
0000
0000
0200
0000
0000
0303
0000
,
2000
0000
0000
3020
0000
0000
0130
0000
,
0001
0100
0001
0000
1000
0100
1000
0000
,
0010
1000
0100
0000
0010
0001
0100
0000
,
0010
1000
0001
0000
0010
0001
1000
0010
,
0100
0000
0101
0000
0010
1000
0001
0000
,
2000
0100
0001
3100
,
0002
0100
1000
0103
,
2000
0010
0001
3010
,
0002
0010
1000
0013
,
1000
1000
0100
0100
,
0001
0001
0010
0010
,
1000
0100
0010
0001
,
0101
1100
0110
1001
,
0010
0001
0100
0000
0010
1000
0100
0000
,
0001
0100
1000
0100
0010
0001
0100
0000
,
0010
1000
0100
0000
0010
0001
0100
0000
,
1000
0100
0001
0100
0000
0100
0010
0000
,
1000
0100
0001
0000
0100
1000
0010
0000
,
1000
0100
0010
0100
0001
0100
1000
0000
,
0001
0100
1000
0000
0100
0001
0010
0000
,
0001
0100
0010
1000
0000
1000
0001
0000
,
0100
0000
0101
0000
0010
1000
0100
0000
,
0010
0000
1001
0000
0001
0010
0011
0000
,
0100
0000
1100
0000
0010
0001
0100
0000
,
1000
0100
0001
0010
0000
0001
1000
0000
,
0100
0000
1100
0000
0010
0001
0100
0000
,
0010
0000
1001
0000
1000
0010
1010
0000
,
0100
0000
0101
0000
0010
1000
0100
0000
,
0001
0100
1000
0010
0000
1000
0001
0000
,
2000
0100
3020
0100
,
2030
0100
3020
0100
,
1030
0000
0100
0000
0001
0100
1000
0000
,
0001
0000
0100
0000
1000
0100
0001
0000
,
0200
0010
0302
0010
,
0203
0010
0302
0010
,
1003
0000
0100
0000
0010
0001
0100
0000
,
0001
0010
1000
0010
0001
0100
0010
0000
,
1000
0000
0000
1000
0100
0000
0000
0100
0010
0000
0000
0010
0001
0000
0000
0001
,
0100
0000
0000
0100
1000
0000
0000
1000
0100
0000
0000
0100
0010
0000
0000
0010
,
1000
0001
0100
0000
0001
1000
0100
0000
,
1000
0010
0100
0001
0010
0100
1000
0000
,
0001
0000
0000
0001
0100
0000
0000
0100
0010
0000
0000
0010
1000
0000
0000
1000
,
0100
0000
0000
0100
0001
0000
0000
0001
0100
0000
0000
0100
0010
0000
0000
0010
,
0001
0101
1000
1100
,
0001
0100
1000
0001
0010
1000
0001
0000
,
1000
0010
0000
1000
0010
0000
0000
0000
0100
0000
0001
0010
0000
0000
0001
0000
,
1000
0100
0001
0000
0001
0100
1000
0000
,
0001
0100
0000
0001
0100
0000
0000
0000
0010
0000
1000
0000
0100
0000
0001
0000
,
0100
1000
1010
0000
0100
0001
0011
0000
,
0001
0010
0000
0001
0010
0000
0000
0000
0100
0000
1000
0010
0000
0000
1000
0000
,
0001
0100
1000
0000
1000
0100
0001
0000
,
1000
0100
0000
1000
0100
0000
0000
0000
0010
0000
0001
0000
0100
0000
1000
0000
,
0100
0001
0011
0000
0100
1000
1010
0000
,
0002
0100
0023
0100
,
0032
0100
0023
0100
,
0031
0100
1000
0010
,
0001
0100
0101
0000
1000
0100
1100
0000
,
2000
0010
3200
0010
,
2300
0010
3200
0010
,
1300
0100
0001
0000
0001
0100
1000
0000
,
0010
0101
0010
1100
,
0001
0100
0010
0100
1000
0100
0001
1000
,
0100
0001
0100
1000
0010
0100
0001
0010
,
1000
0010
0001
1000
0010
0001
0010
1000
,
0100
0001
1000
0010
0001
1000
0010
0000
,
1000
0100
0010
0100
0001
0100
1000
0001
,
0100
1000
0100
0001
0010
0100
1000
0010
,
0001
0010
1000
0001
0010
1000
0010
0001
,
0100
1000
0001
0010
1000
0100
0010
0001
,
0200
0000
0000
0000
,
0300
0000
0000
0000
;

//---------------dance-double - NewbStepper-BDP----------------
#NOTEDATA:;
#CHARTNAME:NewbStepper-BDP;
#CHARTHASH:1469562265:
#STEPSTYPE:dance-double;
#DESCRIPTION:NewbStepper-BDP;
#DIFFICULTY:Easy;
#METER:4;
#RADARVALUES:0.203138,0.259954,0.088873,0.177746,0,192,180,12,24,0,0,0,0,0,0.203138,0.259954,0.088873,0.177746,0,192,180,12,24,0,0,0,0,0;
#CREDIT:NewbStepper;
#NOTES:
00000000
00000000
00000000
00000000
,
00000000
00000000
00000000
00000000
,
00000000
00000000
00000000
00000000
,
00000000
00000000
00000000
00000000
,
00000000
00000000
00000000
00000000
,
00000002
00000000
00000000
00000000
,
00000000
00000000
00000003
00000000
,
00002000
00000000
00000000
00000000
,
00000000
00000000
00003000
00000000
,
00000010
00010000
00010000
00000000
,
00001000
01000000
01000000
00000000
,
00010000
10000000
10000000
00000000
,
00200000
00000000
00000000
00300000
,
10000000
01000000
10000000
00000000
,
01000000
00010000
01000000
00000000
,
00010000
00001000
00010000
00000000
,
00001000
00000010
00001000
00000000
,
00000010
00000001
00000010
00000001
,
00001000
00000000
00000000
00000000
,
00001000
00000000
00000000
00000000
,
00010000
00000000
00000000
00000000
,
00010000
00000000
00000000
00000000
,
20000000
30000000
00020000
00030000
,
20000000
30000000
00200000
00300000
,
02000000
03000000
00002000
00003000
,
00010000
00001000
00011000
00000000
,
00000002
00000003
00002000
00003000
,
00000002
00000003
00000020
00000030
,
00000200
00000300
00020000
00030000
,
00001000
00010000
00011000
00000000
,
01000000
00010000
01000000
00010000
,
10000000
00000000
00010000
00000000
,
01000000
00001000
01000000
00001000
,
00010000
00000000
00000100
00000000
,
00000010
00000001
00000010
00000001
,
00001000
00000000
00000100
00000000
,
00010000
00001000
00010000
00001000
,
00100000
00000000
01000000
00000000
,
10000000
00000000
00100000
00000000
,
00010000
00001000
00100000
00001000
,
00010000
00000000
00011000
00000000
,
00000010
00000000
00000100
00000000
,
00000001
00000000
00000010
00000000
,
00001000
00010000
00000010
00010000
,
00001000
00000000
00011000
00000000
,
00100000
10000000
00100000
10000000
,
00100000
00000000
01000000
00000000
,
00001000
00010000
00001000
00010000
,
00001000
00000000
00000010
00000000
,
00000001
00000100
00000001
00000100
,
00000001
00000000
00001000
00000000
,
00000100
00010000
00000100
00010000
,
00000100
00000000
00010000
00000000
,
00011000
00000000
00011000
00000000
,
01000000
00100000
01000000
00000000
,
10010000
00000000
01100000
00000000
,
00010000
00000000
00001000
00000000
,
00011000
00000000
00011000
00000000
,
00000100
00000010
00000100
00000000
,
00001001
00000000
00000110
00000000
,
00001000
00000000
00000001
00000000
,
00002000
00003000
00000020
00000030
,
00000200
00000300
00000002
00000003
,
00000010
00000100
00000010
00000000
,
00001000
00000000
00001000
00100000
,
00020000
00030000
00200000
00300000
,
02000000
03000000
20000000
30000000
,
00100000
01000000
00100000
00000000
,
00010000
00000000
00010000
00000000
,
00001000
00000100
00000001
00000010
,
00000001
00000010
00000100
00000000
,
00010000
00001000
00010000
00000000
,
01000000
00100000
01000000
00000000
,
00010000
01000000
10000000
00100000
,
10000000
00100000
01000000
00000000
,
00001000
00010000
00001000
00000000
,
00000100
00000010
00000100
00000000
,
00000020
00000000
00000000
00000000
,
00000030
00000000
00000000
00000000
;

//---------------dance-double - NewbStepper-DDP----------------
#NOTEDATA:;
#CHARTNAME:NewbStepper-DDP;
#CHARTHASH:2147483647:
#STEPSTYPE:dance-double;
#DESCRIPTION:NewbStepper-DDP;
#DIFFICULTY:Medium;
#METER:7;
#RADARVALUES:0.297302,0.404373,0.088873,0.348086,0,281,269,12,47,0,0,0,0,0,0.297302,0.404373,0.088873,0.348086,0,281,269,12,47,0,0,0,0,0;
#CREDIT:NewbStepper;
#NOTES:
00000000
00000000
00000000
00000000
,
00000000
00000000
00000000
00000000
,
00000000
00000000
00000000
00000000
,
00000000
00000000
00000000
00000000
,
00000000
00000000
00000000
00000000
,
00200000
00000000
00000000
00000000
,
00000000
00000000
20300000
30020000
,
02030000
00000000
00000000
00002000
00000000
00000000
00000000
00000000
,
00000000
00000000
03003000
00010000
,
00001000
00000100
00000001
00001000
,
00000100
00010000
00011000
00000000
,
00001000
00010000
01000000
10000000
,
00010000
01000000
10010000
00000000
,
00100000
10000000
01000000
00010000
,
00000010
00001000
00000001
00000100
,
00001000
00100000
00010000
10000000
,
01000000
00010000
00001000
00000010
,
00000002
00000000
00000003
00000000
,
00002000
00000000
00003000
00000000
,
00000200
00000000
00000300
00000000
,
00020000
00000000
00000000
00030000
,
00001000
00000000
00100000
00000000
00010000
01000000
00010000
00000000
,
10000000
00000000
01000000
00000000
00010000
00001000
00010000
00000000
,
00001000
00000000
00000100
00000000
00000001
00000100
00000001
00000000
,
00000100
00001000
00010000
00100000
,
00010000
00000000
00000010
00000000
00001000
00000100
00001000
00000000
,
00000001
00000000
00000100
00000000
00001000
00010000
00001000
00000000
,
00010000
00000000
01000000
00000000
10000000
01000000
10000000
00000000
,
01000000
00010000
00001000
00000010
,
00000001
00000100
00000010
00000000
00001000
00000000
00000010
00000000
,
00000100
00001000
00010000
00000000
00001000
00000000
00100000
00000000
,
00010000
01000000
00100000
00000000
10000000
00000000
00000000
00000000
,
00010000
00100000
00010000
00100000
00000000
01000000
00000000
00000000
,
10000000
01000000
00100000
00000000
00010000
00000000
00100000
00000000
,
01000000
00010000
00001000
00000000
00010000
00000000
00000010
00000000
,
00001000
00000100
00000010
00000000
00000001
00000000
00000000
00000000
,
00001000
00000010
00001000
00000010
00000000
00000100
00000000
00000000
,
00000002
00000000
00000203
00000000
,
00000320
00000000
00002030
00000000
,
00013000
01000000
00100000
20000000
,
00000000
00020000
00000000
00000000
30030000
00000000
00000000
00000000
,
20000000
00000000
32000000
00000000
,
03200000
00000000
00320000
00000000
,
00031000
00000100
00000010
00000001
,
00001000
00000000
00000100
00000000
00000010
00000100
00000110
00000000
,
00002000
00003100
00000002
00000103
,
00020000
00031000
00000020
00001030
,
00020000
00230000
02300000
03020000
,
10030000
00000000
01000000
00000000
00010000
01000000
10000000
00000000
,
00020000
01030000
20000000
31000000
,
00002000
00013000
00200000
00310000
,
00002000
00003020
00000230
00002300
,
00003002
00000000
00000000
00000200
00000000
00000000
00000303
00000000
,
00001000
00001100
00000010
00001000
,
00010000
00001000
00100000
00110000
,
00010000
01010000
00100000
00010000
,
00011000
00000000
01100000
00000000
,
00010000
01010000
00100000
00001000
,
00010000
00001000
00000010
00001010
,
00001000
00001100
00000010
00001000
,
00010000
00010000
00000000
00000000
00000100
00000100
00000000
00000000
,
00002000
00000000
00003020
00000000
,
00020030
00000000
00032000
00000000
,
01003000
00010000
00100000
01000000
,
10000000
00000000
00100000
00000000
01000000
01000000
01000000
00000000
,
00020000
00000000
00230000
00000000
,
00302000
00000000
00023000
00000000
,
00030100
00001000
00000010
00000100
,
00000001
00000000
00000010
00000000
00000100
00000100
00000100
00000000
,
00010000
00001000
00010000
00000000
00100000
00000000
00100000
00000000
,
10000000
01000000
10000000
00000000
00100000
00000000
00100000
00000000
,
00010000
00001000
00010000
00000000
00001000
00000100
00000010
00000000
,
00001000
00000000
00000001
00000000
00000010
00000100
00010000
00000000
,
00001000
00010000
00001000
00000000
00000010
00000000
00000010
00000000
,
00000001
00000100
00000001
00000000
00000010
00000000
00000010
00000000
,
00001000
00010000
00001000
00000000
00010000
01000000
00100000
00000000
,
00010000
00010000
10000000
00000000
00100000
00100000
01000000
00000000
,
20020000
00000000
00000000
00000000
,
30030000
00000000
00000000
00000000
;

//---------------dance-double - NewbStepper-EDP----------------
#NOTEDATA:;
#CHARTNAME:NewbStepper-EDP;
#CHARTHASH:2147483647:
#STEPSTYPE:dance-double;
#DESCRIPTION:NewbStepper-EDP;
#DIFFICULTY:Hard;
#METER:10;
#RADARVALUES:0.423205,0.491024,0.140716,0.266619,0,400,381,19,36,0,0,0,0,0,0.423205,0.491024,0.140716,0.266619,0,400,381,19,36,0,0,0,0,0;
#CREDIT:NewbStepper;
#NOTES:
// measure 0
00000000
00000000
00000000
00000000
,  // measure 1
00000000
00000000
00000000
00000000
,  // measure 2
00000000
00000000
00000000
00000000
,  // measure 3
00000000
00000000
00000000
00000000
,  // measure 4
00000000
00000000
00000000
00000000
,  // measure 5
00020000
00000000
00000000
00000000
,  // measure 6
20030000
00000000
32000000
03020000
,  // measure 7
00032000
00000000
00000000
00000200
00000000
00000000
00003300
00000000
,  // measure 8
00000002
00000000
00000000
00000023
00000000
00000000
00000130
00000000
,  // measure 9
00001000
00000100
00001000
00000000
00000001
00000100
00000001
00000000
,  // measure 10
00001000
00000010
00010000
00000000
00001000
00100000
00010000
00000000
,  // measure 11
10000000
00100000
01000000
00000000
00010000
00100000
01000000
00000000
,  // measure 12
10000000
00000000
00100000
00000000
00010000
00001000
00000010
00000000
,  // measure 13
00000002
00000100
00002003
00000010
,  // measure 14
00003200
00010000
00002300
00010000
,  // measure 15
00203000
01000000
20300000
00010000
,  // measure 16
32000000
00010000
03200000
10000000
,  // measure 17
00310000
00010000
00001000
00001000
,  // measure 18
00000100
00000100
00000010
00000010
,  // measure 19
00000001
00000100
00001000
00010000
,  // measure 20
01100000
00000000
00000000
00000000
,  // measure 21
10000000
01000000
00010000
00000000
00001000
00000010
00000001
00000000
,  // measure 22
00000100
00000000
00000010
00000000
00001000
00000001
00000010
00000000
,  // measure 23
00000001
00000100
00001000
00000000
00010000
00100000
10000000
00000000
,  // measure 24
01000000
00100000
00001000
00010000
00000000
00010000
01000000
00000000
,  // measure 25
10000000
00100000
00010000
00000000
00001000
00000100
00000001
00000000
,  // measure 26
00001000
00000010
00000100
00000001
00001000
00000000
00000110
00000000
,  // measure 27
00000001
00000010
00001000
00000000
00010000
01000000
10000000
00000000
,  // measure 28
00100000
10000000
01000000
00010000
00000000
00001000
00010000
00000000
,  // measure 29
00000100
00000000
00001100
00000000
00010000
00001000
00000010
00000000
,  // measure 30
00000001
00000000
00000100
00000000
00000010
00000100
00001000
00000000
,  // measure 31
01000000
00000000
01010000
00000000
00001000
00010000
00100000
00000000
,  // measure 32
10000000
01000000
00010000
00001000
00000100
00000001
00001000
00000000
,  // measure 33
00000010
00000000
00001010
00000000
00010000
00001000
00000100
00000000
,  // measure 34
00000001
00000000
00000010
00000000
00000100
00000010
00001000
00000000
,  // measure 35
00100000
00000000
00110000
00000000
00001000
00010000
01000000
00000000
,  // measure 36
10000000
00100000
00010000
00001000
00000010
00000001
00001000
00000000
,  // measure 37
00000020
00000100
00020030
00000100
,  // measure 38
00030020
00000100
00020030
00001000
,  // measure 39
00230000
10000000
01000000
00310000
,  // measure 40
00001000
00010000
00001000
00100000
01000000
00000000
10010000
00000000
,  // measure 41
00200000
01000000
00302000
01000000
,  // measure 42
00203000
01000000
00302000
00010000
,  // measure 43
00003020
00000001
00000100
00001030
,  // measure 44
00010000
00001000
00100000
00010000
01000000
00100000
10000000
00000000
,  // measure 45
01000000
10000000
01000000
10000000
00010000
00100000
00001000
00010000
,  // measure 46
00000010
00000100
00000001
00001000
00000100
00010000
00001000
00000000
,  // measure 47
01000000
00000000
00010000
00000000
10000000
01000000
00010000
00000000
,  // measure 48
00001000
00000100
00000001
00000000
00001000
00000000
00000010
00000000
,  // measure 49
00000100
00000001
00000100
00000001
00001000
00000010
00010000
00001000
,  // measure 50
00100000
01000000
10000000
00010000
01000000
00001000
00010000
00000000
,  // measure 51
00000100
00000000
00001000
00000000
00000001
00000100
00001000
00000000
,  // measure 52
00010000
01000000
10000000
00100000
01000000
00010000
00100000
00000000
,  // measure 53
00001000
00000000
00011000
00000000
00000100
00000001
00000010
00000000
,  // measure 54
00000100
00001000
00010000
00000000
00100000
01000000
10000000
00000000
,  // measure 55
00100000
00000000
10010000
00000000
10000000
01000000
00010000
00001000
,  // measure 56
00000100
00000001
00000101
00000000
00000010
00001000
00001010
00000000
,  // measure 57
00010000
00000000
00011000
00000000
01000000
10000000
00100000
00000000
,  // measure 58
01000000
00010000
00001000
00000000
00000010
00000100
00000001
00000000
,  // measure 59
00000010
00000000
00001001
00000000
00000001
00000100
00001000
00010000
,  // measure 60
01000000
10000000
11000000
00000000
00100000
00010000
00110000
00000000
,  // measure 61
00002000
00010000
00203000
00010000
,  // measure 62
00302000
00010000
00003020
00000100
,  // measure 63
00000031
00000100
00001000
00000010
,  // measure 64
00000001
00000100
00000101
00000000
00001000
00000100
00001100
00000000
,  // measure 65
00020000
00001000
00030020
00001000
,  // measure 66
00020030
00001000
00230000
01000000
,  // measure 67
10300000
00100000
00010000
00000000
00001000
00100000
00010000
00000000
,  // measure 68
10000000
01000000
00100000
00001000
00010000
00000100
00000010
00000000
,  // measure 69
00000001
00000100
00000010
00000100
00000001
00001000
00000100
00010000
,  // measure 70
00001000
00100000
00010000
10000000
00100000
10000000
00010000
00000000
,  // measure 71
10000000
01000000
00010000
00000000
00001000
00000100
00000001
00000000
,  // measure 72
00000100
00000010
00010000
00001000
01000000
00000000
10010000
00000000
,  // measure 73
10000000
01000000
00100000
01000000
10000000
00010000
01000000
00001000
,  // measure 74
00010000
00000010
00001000
00000001
00000010
00000001
00001000
00000000
,  // measure 75
00000001
00000100
00001000
00000000
00010000
01000000
10000000
00000000
,  // measure 76
01000000
00100000
00001000
00010000
00000100
00000000
00000010
00000000
,  // measure 77
00002002
00000000
00000000
00000000
,  // measure 78
00003003
00000000
00000000
00000000
;
