#VERSION:0.83;
#TITLE:Lighting Shower;
#ARTIST:TAG;
#BANNER:Lighting Shower.png;
#BACKGROUND:Lighting Shower-bg.png;
#JACKET:Lighting Shower-jacket.png;
#MUSIC:Lighting Shower.ogg;
#OFFSET:1.232;
#SAMPLESTART:13.581;
#SAMPLELENGTH:15;
#BPMS:0=162;
#BGCHANGES:;

//---------------dance-single - NewbStepper-ESP----------------
#NOTEDATA:;
#CHARTNAME:NewbStepper-ESP;
#STEPSTYPE:dance-single;
#DESCRIPTION:NewbStepper-ESP;
#DIFFICULTY:Hard;
#METER:12;
#RADARVALUES:0.531608,0.590505,0.293784,0.225234,0.274198,380,350,30,23,0,0,0,0,0,0.531608,0.590505,0.293784,0.225234,0.274198,380,350,30,23,0,0,0,0,0;
#CREDIT:NewbStepper;
#NOTES:
0000
0000
0000
0000
,
0000
0000
0000
0000
,
0000
0000
0000
0000
,
0000
0000
0000
0000
,
0000
0000
0000
0000
,
2200
0000
0000
3300
,
0022
0000
0000
0033
,
2002
3003
2020
3030
,
0001
0100
0010
1000
,
0200
0000
0010
0000
0010
0010
0310
0000
,
0001
0000
0100
0000
1000
0000
0000
0000
0100
0000
0000
0010
0000
0000
1000
0000
,
0100
0000
0001
0000
0100
0000
1000
0000
0010
0000
0000
0100
0000
0000
0001
0000
,
0010
0000
0000
0010
0000
0000
0001
1000
0010
0000
0000
0010
0000
0000
0100
0000
,
1000
0100
0001
0010
1000
0010
0001
0000
,
1000
0000
0100
0000
0001
0000
0000
0000
0100
0000
0000
0010
0000
0000
0001
0000
,
0100
0000
1000
0000
0100
0000
0001
0000
0010
0000
0000
0100
0000
0000
1000
0000
,
0010
0000
0000
0010
0000
0000
1000
0001
0010
0000
0000
0010
0000
0000
0100
0000
,
0001
0100
1000
0010
0001
0010
1000
0100
,
0010
0000
0000
0000
0101
0000
0000
0000
0010
0000
0000
1000
0000
0000
1200
0000
,
0000
0010
0310
0000
0100
1000
0001
0000
,
0010
0000
0000
0000
1100
0000
0000
0000
0010
0000
0000
0001
0000
0000
0201
0000
,
0000
0010
0310
0000
0100
0001
1000
0000
,
0010
0000
0000
0000
0110
0000
0000
0000
0001
0000
0000
0100
0000
0000
1020
0000
,
0000
0100
0130
0000
0001
0100
0010
1000
,
0001
0010
0100
1000
0010
0100
0001
0010
,
0100
0000
0000
0010
0000
0000
0100
0000
0110
0000
0000
0000
1001
0000
0000
0000
,
0001
0000
0000
0001
1000
0000
0000
1000
0100
0000
0000
0100
0010
0000
0000
0010
,
0001
0000
0000
0001
0100
0000
0000
0100
0010
0000
0000
0010
0001
0000
0000
0001
,
0010
0000
0000
0010
1000
0000
0000
1000
0001
0000
0000
0001
0100
0000
0000
0100
,
0010
0000
0000
0010
1000
0000
0000
1000
0100
0000
0010
0000
0110
0000
0000
0000
,
1000
0000
0000
1000
0001
0000
0000
0001
0100
0000
0000
0100
0010
0000
0000
0010
,
1000
0000
0000
1000
0100
0000
0000
0100
0010
0000
0000
0010
1000
0000
0000
1000
,
0010
0001
0100
0010
1000
0100
0010
0001
,
0100
1000
0001
0010
1000
0010
0100
0000
,
0002
1000
0000
1003
,
0200
0010
0000
0310
,
2000
0001
0000
3001
,
0020
0100
0000
0130
,
0001
0100
0001
0000
0100
1000
0100
0000
,
1000
0010
1000
0000
0010
0001
0010
0000
,
0001
0100
1000
0000
0001
0010
1000
0000
,
0100
0010
0200
0300
,
1000
0000
0000
0010
0000
0000
1000
0000
0000
0100
0010
0000
0001
0000
0100
0000
,
0001
0000
0000
0010
0000
0000
0001
0000
0000
0100
0010
0000
1000
0000
1000
0000
,
0001
0000
0000
0001
0000
0000
0001
0000
1000
0000
0000
1000
0000
0000
1000
0000
,
0100
0000
0000
0100
0000
0000
0100
0000
0010
0000
0000
0010
0000
0000
0010
0000
,
0011
0000
0110
0000
,
1100
0000
0110
0000
,
1000
1000
0001
0001
,
0100
0010
0100
0010
1000
0001
1000
0001
,
0020
0000
0030
0000
,
0001
0000
0100
0000
0010
0000
1000
0000
0100
0000
0000
0010
0000
0000
0001
0000
,
0100
0000
1000
0000
0001
0000
0010
0000
1000
0000
0000
0100
0000
0000
0010
0000
,
0001
0000
0000
0100
0000
0000
0010
1000
0001
0000
0000
0000
0100
0000
0001
0000
,
1000
0100
0001
1000
0010
0001
1001
0000
,
1000
0000
0100
0000
0010
0000
0001
0000
0100
0000
0000
0010
0000
0000
1000
0000
,
0002
0000
0000
0000
2003
0000
0000
0000
3001
0000
0000
0100
0000
0000
0010
0000
,
1000
0000
0000
0100
0000
0000
0010
0001
1000
0000
0000
0000
0100
0000
1000
0000
,
0001
0100
1000
0001
0010
1000
1001
0000
,
0010
0000
0000
0000
1100
0000
0000
0000
0010
0000
0000
0001
0000
0000
0201
0000
,
0000
0010
0310
0000
0100
0001
1000
0000
,
0010
0000
0000
0000
0101
0000
0000
0000
0010
0000
0000
1000
0000
0000
1200
0000
,
0000
0010
0310
0000
0100
1000
0001
0000
,
1001
0000
0000
0000
1001
0000
0000
0000
0011
0000
0000
0110
0000
0000
0021
0000
,
0000
0130
1000
1000
0001
0100
1000
0100
,
0001
0010
0100
1000
0010
0100
0001
1000
,
0010
0000
0000
0100
0000
0000
0010
0000
0110
0000
0000
0000
1001
0000
0000
0000
,
0100
0000
0000
0000
;

//---------------dance-single - NewbStepper-CSP----------------
#NOTEDATA:;
#CHARTNAME:NewbStepper-CSP;
#STEPSTYPE:dance-single;
#DESCRIPTION:NewbStepper-CSP;
#DIFFICULTY:Challenge;
#METER:14;
#RADARVALUES:0.611350,0.787340,0.421090,0.117513,0.543500,437,394,43,12,196,0,0,0,0,0.611350,0.787340,0.421090,0.117513,0.543500,437,394,43,12,196,0,0,0,0;
#CREDIT:NewbStepper;
#NOTES:
0000
0000
0000
0000
,
0000
0000
0000
0000
,
0000
0000
0000
0000
,
0000
0000
0000
0000
,
0000
0000
0000
0000
,
0202
0000
0300
0000
,
0020
0000
0033
0000
,
0101
0000
1100
0000
,
0010
0000
0000
0000
0010
0000
0000
0000
0001
0000
0001
0000
1000
0100
1000
0100
,
0010
0000
0000
0000
0010
0000
0000
0000
0010
0000
0001
1000
0001
0000
0000
0000
,
MMMM
0000
0000
0000
0010
1000
0010
1000
0001
0000
0000
0010
0000
0000
0100
0000
,
MMMM
0000
0001
0100
0001
0100
0010
0000
1000
0000
0000
0100
0000
0000
0010
0000
,
0011
0000
0000
0011
0000
0000
0100
1000
0001
0000
0000
0100
0010
0000
MMMM
0000
,
0001
0100
0000
0100
0010
0000
0010
1000
0000
1000
0100
0000
0010
0000
0110
0000
,
MMMM
0000
0000
0000
0010
0001
0010
0001
1000
0000
0000
0010
0000
0000
0100
0000
,
MMMM
0000
1000
0100
1000
0100
0010
0000
0001
0000
0000
0100
0000
0000
0010
0000
,
1010
0000
0000
1010
0000
0000
0100
0001
1000
0000
0000
0100
0010
0000
MMMM
0000
,
1000
0100
0000
0100
0010
0000
0010
0001
0000
0001
0100
0010
1000
0001
1000
0000
,
1001
0000
0010
0000
MMMM
0000
0000
0000
1100
0000
0000
0010
0001
0000
0101
0000
,
0000
MMMM
0010
0000
1000
0100
0010
0001
,
1001
0000
0010
0000
MMMM
0000
0000
0000
0101
0000
0000
0010
1000
0000
1100
0000
,
0000
0000
MMMM
0000
0001
0000
0100
0000
0010
0000
MMMM
0000
0001
0100
0001
0000
,
1001
0000
0100
0000
MMMM
0000
0000
0000
1010
0000
0000
0100
0001
0000
0011
0000
,
0000
MMMM
0100
0100
0001
0010
0100
1000
,
0010
0000
1000
0100
0010
0000
0001
0100
0010
0000
1000
0100
0010
0000
0001
0100
,
0010
0000
0000
0110
0000
0000
1001
0000
1001
0000
0000
0000
MMMM
0000
0000
0000
,
0010
MMMM
0100
MMMM
,
0001
MMMM
1000
0100
,
0010
MMMM
0100
MMMM
,
1000
0000
MMMM
0000
0001
1000
1001
0000
,
MMMM
0001
0100
0000
MMMM
1000
0100
0000
,
MMMM
0001
0010
0000
MMMM
1000
0010
0000
,
0100
0001
0010
1000
0010
0001
0100
0010
,
1000
0001
1000
0001
1000
0001
1000
0001
0100
0010
0100
0010
1000
0000
0000
0000
,
0200
0000
0300
MMMM
,
0002
0000
0003
MMMM
,
1000
MMMM
1000
MMMM
,
0001
MMMM
0001
MMMM
,
0010
0000
1000
0000
0001
0000
0010
0000
0100
0000
1000
0001
0000
1000
0001
0000
,
0010
0000
0001
0000
1000
0000
0010
0000
0100
0000
0000
0010
0000
0000
1000
0000
,
0001
0000
0000
0001
0000
0000
1000
0100
0010
0000
0000
0001
0100
0000
0000
0000
,
0020
0000
0000
2030
0000
0000
3200
0000
0320
0000
0000
0032
0000
0103
0000
0000
,
0101
0000
0001
0100
0000
0001
0100
0000
0010
1000
0010
0000
MMMM
0000
0001
0100
,
0001
0000
1000
0100
0000
1000
0100
0000
0010
0001
0010
0000
MMMM
0000
1000
0100
,
1000
0000
0010
0100
0000
0010
1000
0000
0001
0000
0010
0100
0000
0010
0001
0000
,
1000
0000
0100
0010
0000
0100
1000
0000
0001
0000
0100
0010
0000
0100
0001
0000
,
0011
MMMM
1100
MMMM
,
0110
MMMM
1001
MMMM
,
0010
0010
0100
0100
,
0001
0000
0100
0000
0010
0000
1000
0000
0001
0010
0001
0010
0100
1000
0100
1000
,
0010
0000
0000
0000
0010
0000
0000
0000
0010
0000
1000
0001
1000
0000
0000
0000
,
MMMM
0000
0000
0000
0010
0001
0010
0001
1000
0000
0000
0010
0000
0000
0100
0000
,
MMMM
0000
1000
0100
1000
0100
0010
0000
0001
0000
0000
0100
0000
0000
0010
0000
,
1010
0000
0000
1010
0000
0000
0100
0001
1000
0000
0000
0100
0010
0000
MMMM
0000
,
1000
0100
0000
0100
0010
0000
0010
0001
0000
0001
0100
0000
0010
0000
0110
0000
,
MMMM
0000
0000
0000
0010
1000
0010
1000
0001
0000
0000
0010
0000
0000
0100
0000
,
2000
0000
0000
0000
3002
0000
0000
0000
0103
0000
0001
1000
0000
0001
0010
0000
,
0011
0000
0000
0011
0000
0000
0100
1000
0001
0000
0000
0100
0010
0000
MMMM
0000
,
0001
0100
0001
0000
1000
0100
1000
0000
0001
1000
0001
0100
0010
1000
0001
0000
,
1001
0000
0010
0000
MMMM
0000
0000
0000
0101
0000
0000
0010
1000
0000
1100
0000
,
0000
MMMM
0010
0000
0001
0100
0010
1000
,
1001
0000
0010
0000
MMMM
0000
0000
0000
1100
0000
0000
0010
0001
0000
0101
0000
,
0000
0000
MMMM
0000
1000
0000
0100
0000
0010
0000
MMMM
0000
1000
0100
1000
0000
,
1001
0000
0100
0000
MMMM
0000
0000
0000
0011
0000
0000
0100
1000
0000
1010
0000
,
0000
MMMM
0100
0100
1000
0010
0100
0001
,
0010
0000
0001
0100
0010
0000
1000
0100
0010
0000
0001
0100
0010
0000
1000
0100
,
0010
0000
0000
0110
0000
0000
1001
0000
1001
0000
0000
0000
MMMM
0000
0000
0000
,
0010
0000
0000
0000
;

//---------------dance-single - NewbStepper-DSP----------------
#NOTEDATA:;
#CHARTNAME:NewbStepper-DSP;
#STEPSTYPE:dance-single;
#DESCRIPTION:NewbStepper-DSP;
#DIFFICULTY:Medium;
#METER:9;
#RADARVALUES:0.393110,0.459282,0.176270,0.225234,0.058757,281,263,18,23,0,0,0,0,0,0.393110,0.459282,0.176270,0.225234,0.058757,281,263,18,23,0,0,0,0,0;
#CREDIT:NewbStepper;
#NOTES:
0000
0000
0000
0000
,
0000
0000
0000
0000
,
0000
0000
0000
0000
,
0000
0000
0000
0000
,
0000
0000
0000
0000
,
0002
0000
0000
0000
,
2003
0000
0000
0000
,
3020
0000
0000
0230
0000
0000
0301
0000
,
1000
0100
0001
0100
,
2000
0000
0000
3000
,
0001
0000
0100
0010
1000
0000
0100
0000
,
0010
0000
0001
0100
1000
0100
0001
0000
,
0010
1100
0010
0101
,
1000
0000
0001
0000
0100
0010
0100
0010
,
1000
0000
0100
0010
0001
0000
0100
0000
,
0010
0000
1000
0100
0001
0100
1000
0000
,
0010
0101
0010
1100
,
0001
0000
1000
0000
0100
0010
0100
0000
,
1000
0000
0000
0000
0001
0000
0000
0000
0010
0000
0000
0100
0000
0000
0020
0000
,
0000
0031
0100
0000
0010
0010
1000
0000
,
0001
0000
0000
0000
1000
0000
0000
0000
0010
0000
0000
0100
0000
0000
0020
0000
,
0000
1030
0100
0000
0010
0010
0001
0000
,
0100
0000
0000
0000
0001
0000
0000
0000
0010
0000
0000
0001
0000
0000
1001
0000
,
0000
0100
0010
0000
1000
0000
0001
0000
,
1010
0100
0011
0100
,
1000
0000
0000
1000
0000
0000
1000
0000
0002
0000
0000
0000
0000
0000
0000
0000
,
0013
0000
0001
0000
,
0100
0000
0010
1000
,
0001
0000
0100
0000
,
0010
0000
0000
0000
1000
0001
1000
0000
,
0002
0010
0203
0010
,
0302
0100
0013
0100
,
2000
0010
3200
0010
,
2300
0010
3001
1000
,
1002
0000
0000
0000
,
0203
0000
0000
0000
,
0320
0000
0000
0000
,
2030
0000
0000
0000
,
3001
0001
0100
0100
,
1000
1000
0010
0010
,
0001
0101
1000
1100
,
0010
0000
0001
0100
0001
0000
1000
0100
,
1000
0000
0100
0000
0010
0001
0010
0001
,
1000
0000
0100
0000
0010
0001
0010
0000
,
0001
0000
0100
0000
0010
1000
0010
1000
,
0001
0000
0100
0000
0010
1000
0001
0000
,
1000
0000
0000
1000
0000
0000
1000
0000
0001
0000
0000
0001
0000
0000
0001
0000
,
0100
0000
0000
0100
0000
0000
0100
0000
0010
0000
0000
0010
0000
0000
0010
0000
,
1000
1000
0001
0001
,
1000
0100
0001
0000
0100
0010
0100
0000
,
0220
0000
0000
0330
,
1000
0000
0100
0010
0001
0000
0100
0000
,
0010
0000
1000
0100
0001
0100
1000
0000
,
0010
0101
0010
1100
,
0001
0000
1000
0000
0100
0010
0100
0010
,
0001
0000
0100
0010
1000
0000
0100
0000
,
0010
0000
0001
0100
1000
0100
0001
0000
,
0010
1100
0010
0101
,
1000
0100
1000
0001
0100
0001
1000
0000
,
0001
0000
0000
0000
1000
0000
0000
0000
0010
0000
0000
0100
0000
0000
0020
0000
,
0000
1030
0100
0000
0010
0010
0001
0000
,
1000
0000
0000
0000
0001
0000
0000
0000
0010
0000
0000
0100
0000
0000
0020
0000
,
0000
0031
0100
0000
0010
0010
1000
0000
,
0100
0000
0000
0000
1000
0000
0000
0000
0010
0000
0000
1000
0000
0000
1001
0000
,
0000
0100
0010
0000
0001
0000
1000
0000
,
0011
0100
1010
0100
,
0001
0000
0000
0001
0000
0000
0001
0000
2000
0000
0000
0000
0000
0000
0000
0000
,
3010
0000
0000
0000
;

//---------------dance-single - NewbStepper-BSP----------------
#NOTEDATA:;
#CHARTNAME:NewbStepper-BSP;
#STEPSTYPE:dance-single;
#DESCRIPTION:NewbStepper-BSP;
#DIFFICULTY:Easy;
#METER:5;
#RADARVALUES:0.235027,0.328058,0.078342,0.117513,0,168,160,8,12,0,0,0,0,0,0.235027,0.328058,0.078342,0.117513,0,168,160,8,12,0,0,0,0,0;
#CREDIT:NewbStepper;
#NOTES:
0000
0000
0000
0000
,
0000
0000
0000
0000
,
0000
0000
0000
0000
,
0000
0000
0000
0000
,
0000
0000
0000
0000
,
1001
0000
0000
0000
,
1001
0000
0000
0000
,
0010
0000
1000
0000
,
0001
0100
0010
1000
,
0002
0000
0003
0000
,
1000
0100
0010
0000
,
0001
0100
0010
0000
,
1000
0000
0001
0000
,
1000
0001
0100
0000
,
0001
0100
0010
0000
,
1000
0100
0010
0000
,
0001
0000
1000
0000
,
0001
1000
0100
0010
,
0001
0000
1000
0000
0001
0000
0000
0100
,
0000
0001
0010
0100
,
1000
0000
0001
0000
1000
0000
0000
0100
,
0000
1000
0010
0100
,
0001
0000
1000
0000
0001
0000
0000
0010
,
0000
0001
0100
0010
,
1000
0100
0001
0100
,
2000
3000
0002
0003
,
1000
0000
0100
0000
,
0001
0000
0010
0000
,
1000
0000
0100
0000
,
0010
0000
0001
0000
,
0100
0100
0010
0010
,
1000
0001
0100
0001
,
0010
0010
0100
0100
,
1000
0001
0100
0010
,
2000
0000
3000
0000
,
0002
0000
0003
0000
,
0200
0000
0300
0000
,
0020
0000
0030
0000
,
2000
0000
3000
0000
,
0200
0000
0300
0000
,
0002
0000
0003
0000
,
0200
0000
0300
0000
,
0110
0000
0000
0000
,
1001
0000
0000
0000
,
0110
0000
0000
0000
,
1001
0000
0000
0000
,
1000
0000
0001
0000
,
0100
0000
0010
0000
,
1000
1000
0001
0001
,
0010
0010
0100
0100
,
2000
0000
3000
0000
,
0001
0100
0010
0000
,
1000
0100
0010
0000
,
0001
0000
1000
0000
,
0001
1000
0100
0000
,
1000
0100
0010
0000
,
0001
0100
0010
0000
,
1000
0000
0001
0000
,
1000
0001
0100
0010
,
1000
0000
0001
0000
1000
0000
0000
0100
,
0000
1000
0010
0100
,
0001
0000
1000
0000
0001
0000
0000
0100
,
0000
0001
0010
0100
,
1000
0000
0001
0000
1000
0000
0000
0010
,
0000
1000
0100
0010
,
0001
0100
1000
0100
,
0001
0010
0110
0000
,
1001
0000
0000
0000
;

//---------------dance-single - NewbStepper-bSP----------------
#NOTEDATA:;
#CHARTNAME:NewbStepper-bSP;
#STEPSTYPE:dance-single;
#DESCRIPTION:NewbStepper-bSP;
#DIFFICULTY:Beginner;
#METER:2;
#RADARVALUES:0.117513,0.196835,0.019586,0.048964,0,84,82,2,5,0,0,0,0,0,0.117513,0.196835,0.019586,0.048964,0,84,82,2,5,0,0,0,0,0;
#CREDIT:NewbStepper;
#NOTES:
0000
0000
0000
0000
,
0000
0000
0000
0000
,
0000
0000
0000
0000
,
0000
0000
0000
0000
,
0000
0000
0000
0000
,
1000
0000
0000
0000
,
1000
0000
0000
0000
,
0001
0000
0000
0000
,
0001
0000
0000
0000
,
0100
0000
0000
0000
,
0010
0000
0000
0000
,
0010
0000
0000
0000
,
0010
0000
0000
0000
,
1000
1000
1000
0000
,
0010
0000
0000
0000
,
0010
0000
0000
0000
,
0010
0000
0000
0000
,
0001
0001
0001
0000
,
1000
0000
0100
0000
,
1000
0000
0000
0000
,
0001
0000
0100
0000
,
0001
0000
0000
0000
,
1000
0000
0010
0000
,
1000
0000
0000
0000
,
0001
0000
0001
0000
,
1000
0000
1000
0000
,
2002
0000
0000
0000
,
3003
0000
0000
0000
,
0200
0000
0000
0000
,
0300
0000
0000
0000
,
0020
0000
0000
0000
,
0030
0000
0000
0000
,
2000
0000
0000
0000
,
3000
0000
0000
0000
,
0001
0000
0000
0000
,
1000
0000
0000
0000
,
0010
0000
0010
0000
,
0010
0000
0000
0000
,
1000
0000
0000
0000
,
0001
0000
0000
0000
,
0010
0000
0010
0000
,
0010
0000
0000
0000
,
0001
0000
0001
0000
,
1000
0000
1000
0000
,
0100
0000
0100
0000
,
0010
0000
0010
0000
,
0001
0000
0000
0000
,
1000
0000
0000
0000
,
0010
0000
0000
0000
,
0100
0000
0000
0000
,
0000
0000
0000
0000
,
0010
0000
0000
0000
,
0010
0000
0000
0000
,
0010
0000
0000
0000
,
0001
0001
0001
0000
,
0010
0000
0000
0000
,
0010
0000
0000
0000
,
0010
0000
0000
0000
,
1000
1000
1000
0000
,
0001
0000
0100
0000
,
0001
0000
0000
0000
,
1000
0000
0100
0000
,
1000
0000
0000
0000
,
0001
0000
0010
0000
,
0001
0000
0000
0000
,
1000
0000
1000
0000
,
0001
0000
0001
0000
,
1001
0000
0000
0000
;

//---------------dance-double - NewbStepper-EDP----------------
#NOTEDATA:;
#CHARTNAME:NewbStepper-EDP;
#STEPSTYPE:dance-double;
#DESCRIPTION:NewbStepper-EDP;
#DIFFICULTY:Hard;
#METER:12;
#RADARVALUES:0.524613,0.557699,0.244820,0.225234,0.264405,375,350,25,23,0,0,0,0,0,0.524613,0.557699,0.244820,0.225234,0.264405,375,350,25,23,0,0,0,0,0;
#CREDIT:NewbStepper;
#NOTES:
// measure 0
00000000
00000000
00000000
00000000
,  // measure 1
00000000
00000000
00000000
00000000
,  // measure 2
00000000
00000000
00000000
00000000
,  // measure 3
00000000
00000000
00000000
00000000
,  // measure 4
00000000
00000000
00000000
00000000
,  // measure 5
22000000
00000000
00000000
33000000
,  // measure 6
02020000
00000000
00000000
03030000
,  // measure 7
00022000
00033000
00020020
00030030
,  // measure 8
00001000
00000100
00000010
00000001
,  // measure 9
00000200
00000000
00000010
00000000
00000010
00000010
00000310
00000000
,  // measure 10
00001000
00000000
00000100
00000000
00000001
00000000
00000000
00000000
00000100
00000000
00000000
00000010
00000000
00000000
00000001
00000000
,  // measure 11
00000100
00000000
00001000
00000000
00010000
00000000
01000000
00000000
10000000
00000000
00000000
00100000
00000000
00000000
01000000
00000000
,  // measure 12
00010000
00000000
00000000
00010000
00000000
00000000
00100000
00001000
00100000
00000000
01000000
00000000
00010000
00000000
00001000
00000000
,  // measure 13
00000100
00000010
00010000
00001000
00010000
01000000
00100000
00000000
,  // measure 14
00010000
00000000
01000000
00000000
10000000
00000000
00000000
00000000
01000000
00000000
00000000
00100000
00000000
00000000
10000000
00000000
,  // measure 15
01000000
00000000
00010000
00000000
00001000
00000000
00000100
00000000
00000001
00000000
00000000
00000010
00000000
00000000
00000100
00000000
,  // measure 16
00001000
00000000
00000000
00001000
00000000
00000000
00000010
00010000
00000010
00000000
00000100
00000000
00001000
00000000
00010000
00000000
,  // measure 17
01000000
00100000
00001000
00010000
00001000
00000010
00000100
00000000
,  // measure 18
00010000
00000000
00000000
00000000
00011000
00000000
00000000
00000000
00100000
00000000
00000000
10000000
00000000
00000000
12000000
00000000
,  // measure 19
00000000
00010000
03010000
00000000
00001000
00100000
01000000
00010000
,  // measure 20
00001000
00000000
00000000
00000000
00011000
00000000
00000000
00000000
00000010
00000000
00000000
00000001
00000000
00000000
00000201
00000000
,  // measure 21
00000000
00001000
00001300
00000000
00010000
00000010
00000100
00001000
,  // measure 22
00010000
00000000
00000000
00000000
00011000
00000000
00000000
00000000
01000000
00000000
00000000
10000000
00000000
00000000
10200000
00000000
,  // measure 23
00000000
00010000
00310000
00000000
00001000
00100000
00010000
01000000
,  // measure 24
00001000
00010000
00100000
00010000
00001000
00000010
00000001
00000100
,  // measure 25
00000010
00000000
00000000
00000100
00000000
00000000
00000010
00000000
00000110
00000000
00000000
00000000
00001001
00000000
00000000
00000000
,  // measure 26
00000001
00000000
00000000
00000001
00000100
00000000
00000000
00000100
00001000
00000000
00000000
00001000
00010000
00000000
00000000
00010000
,  // measure 27
00001000
00000000
00000000
00001000
00000010
00000000
00000000
00000010
00001000
00000000
00000000
00001000
00010000
00000000
00000000
00010000
,  // measure 28
00100000
00000000
00000000
00100000
10000000
00000000
00000000
10000000
01000000
00000000
00000000
01000000
00100000
00000000
00000000
00100000
,  // measure 29
00010000
00000000
00000000
00010000
01000000
00000000
00000000
01000000
00001000
00000000
00010000
00000000
00100000
00000000
00000000
00000000
,  // measure 30
10000000
00000000
00000000
10000000
01000000
00000000
00000000
01000000
00010000
00000000
00000000
00010000
00001000
00000000
00000000
00001000
,  // measure 31
00010000
00000000
00000000
00010000
00100000
00000000
00000000
00100000
00010000
00000000
00000000
00010000
00001000
00000000
00000000
00001000
,  // measure 32
00000010
00000001
00000100
00000010
00001000
00000100
00010000
00001000
,  // measure 33
00100000
00010000
01000000
00100000
10000000
01000000
00010000
00000000
,  // measure 34
00002000
00100000
00000000
00103000
,  // measure 35
02000000
00010000
00000000
03010000
,  // measure 36
00002000
00000010
00000000
00003010
,  // measure 37
00000200
00010000
00000000
00010300
,  // measure 38
00011000
00000000
00001000
00000100
00000001
00000000
00000010
00000000
,  // measure 39
00001000
00000000
00010000
01000000
10000000
00000000
00100000
00000000
,  // measure 40
00010000
00001000
00010000
00000000
00000010
00000100
00000010
00000000
,  // measure 41
00010000
00001000
00020000
00030000
,  // measure 42
01000000
00000000
00000000
10000000
00000000
00000000
01000000
00000000
00000000
00010000
00000000
00000000
00001000
00000000
00000010
00000000
,  // measure 43
00000001
00000000
00000000
00000100
00000000
00000000
00000010
00000000
00000000
00001000
00000000
00000000
00000100
00000000
00000010
00000000
,  // measure 44
00000001
00000000
00000000
00000001
00000000
00000000
00000001
00000000
00001000
00000000
00000000
00001000
00000000
00000000
00001000
00000000
,  // measure 45
00000100
00000000
00000000
00000100
00000000
00000000
00000100
00000000
00010000
00000000
00000000
00010000
00000000
00000000
00010000
00000000
,  // measure 46
00011000
00000000
01100000
00000000
,  // measure 47
00011000
00000000
00000110
00000000
,  // measure 48
00010000
00010000
00001000
00001000
,  // measure 49
01000000
00100000
01000000
00100000
10000000
00010000
10000000
00010000
,  // measure 50
00200000
00000000
00000000
00300000
,  // measure 51
00010000
00000000
01000000
00000000
10000000
00000000
00000000
00000000
01000000
00000000
00000000
00100000
00000000
00000000
10000000
00000000
,  // measure 52
01000000
00000000
00010000
00000000
00001000
00000000
00000100
00000000
00000001
00000000
00000000
00000010
00000000
00000000
00000100
00000000
,  // measure 53
00001000
00000000
00000000
00001000
00000000
00000000
00000010
00010000
00000010
00000000
00000100
00000000
00001000
00000000
00010000
00000000
,  // measure 54
01000000
00100000
00001000
00010000
00001000
00000100
00000010
00000000
,  // measure 55
00001000
00000000
00000100
00000000
00000001
00000000
00000000
00000000
00000100
00000000
00000000
00000010
00000000
00000000
00001000
00000000
,  // measure 56
00020000
00000000
00000000
00000000
00032000
00000000
00000000
00000000
00103000
00000000
00000000
00010000
00000000
00000000
10000000
00000000
,  // measure 57
01000000
00000000
00000000
01000000
00000000
00000000
00010000
00001000
00010000
00000000
00000000
00000000
00001000
00000000
00100000
00000000
,  // measure 58
00010000
01000000
00100000
00010000
00001000
00000010
00001000
00010000
,  // measure 59
00001000
00000000
00000000
00000000
00011000
00000000
00000000
00000000
00000010
00000000
00000000
00000001
00000000
00000000
00000201
00000000
,  // measure 60
00000000
00001000
00001300
00000000
00010000
00000010
00000100
00001000
,  // measure 61
00010000
00000000
00000000
00000000
00011000
00000000
00000000
00000000
00100000
00000000
00000000
10000000
00000000
00000000
12000000
00000000
,  // measure 62
00000000
00010000
03010000
00000000
00001000
00100000
01000000
00010000
,  // measure 63
00001000
00000000
00000000
00000000
00011000
00000000
00000000
00000000
00000100
00000000
00000000
00000001
00000000
00000000
00000021
00000000
,  // measure 64
00000000
00001000
00001030
00000000
00010000
00000010
00001000
00000100
,  // measure 65
00010000
00001000
00000010
00001000
00010000
00100000
10000000
01000000
,  // measure 66
00100000
00000000
00000000
01000000
00000000
00000000
00100000
00000000
01100000
00000000
00000000
00000000
10010000
00000000
00000000
00000000
,  // measure 67
01000000
00000000
00000000
00000000
;

//---------------dance-double - NewbStepper-CDP----------------
#NOTEDATA:;
#CHARTNAME:NewbStepper-CDP;
#STEPSTYPE:dance-double;
#DESCRIPTION:NewbStepper-CDP;
#DIFFICULTY:Challenge;
#METER:14;
#RADARVALUES:0.605754,0.754534,0.391711,0.107721,0.538603,433,393,40,11,392,0,0,0,0,0.605754,0.754534,0.391711,0.107721,0.538603,433,393,40,11,392,0,0,0,0;
#CREDIT:NewbStepper;
#NOTES:
00000000
00000000
00000000
00000000
,
00000000
00000000
00000000
00000000
,
00000000
00000000
00000000
00000000
,
00000000
00000000
00000000
00000000
,
00000000
00000000
00000000
00000000
,
01002000
00000000
00000000
00000000
,
00020000
00000000
00033000
00000000
,
00010100
00000000
00000101
00000000
,
00000010
00000000
00000000
00000000
00000001
00000000
00000000
00000000
00000100
00000000
00001000
00010000
00000000
00001000
00100000
00001000
,
00010000
00000000
00000000
00000000
00010000
00000000
00000000
00000000
00010000
00000000
00100000
01000000
00100000
00000000
00000000
00000000
,
MMMMMMMM
00000000
00000000
00000000
00010000
10000000
00010000
10000000
00100000
00000000
00000000
01000000
00000000
00000000
00010000
00000000
,
MMMMMMMM
00000000
00001000
00010000
00001000
00010000
00000010
00000000
00000100
00000000
00000000
00000001
00000000
00000000
00001000
00000000
,
00001010
00000000
00000000
00001010
00000000
00000000
00000010
00010000
00001000
00000000
00000000
00100000
01000000
00000000
MMMMMMMM
00000000
,
00010000
01000000
00000000
00100000
10000000
00000000
01000000
00000000
00100000
00010000
00100000
00000000
00001000
00010000
00000100
00000000
,
MMMMMMMM
00000000
00000000
00000000
00001000
00000001
00001000
00000001
00000010
00000000
00000000
00000100
00000000
00000000
00001000
00000000
,
MMMMMMMM
00000000
00010000
00001000
00010000
00001000
00100000
00000000
01000000
00000000
00000000
10000000
00000000
00000000
00010000
00000000
,
00110000
00000000
00000000
00110000
00000000
00000000
00100000
00001000
00010000
00000000
00000000
00000010
00000100
00000000
MMMMMMMM
00000000
,
00001000
00000100
00000000
00000010
00000001
00000000
00000100
00000000
00000010
00001000
00000010
00010000
00001000
00010000
00001000
00000000
,
00011000
00000000
00100000
00000000
MMMMMMMM
00000000
00000000
00000000
11000000
00000000
00000000
01000000
00010000
00000000
00011000
00000000
,
00000000
MMMMMMMM
00000010
00000000
00000001
00000100
00001000
00010000
,
00011000
00000000
00000010
00000000
MMMMMMMM
00000000
00000000
00000000
00000101
00000000
00000000
00000100
00001000
00000000
00011000
00000000
,
00000000
00000000
MMMMMMMM
00000000
00100000
00000000
00010000
00000000
10000000
01000000
00000000
01000000
00010000
00001000
00010000
00000000
,
00011000
00000000
00000100
00000000
MMMMMMMM
00000000
00000000
00000000
00000011
00000000
00000000
00000010
00001000
00000000
00011000
00000000
,
00000000
MMMMMMMM
00100000
00100000
00010000
01000000
00100000
10000000
,
00010000
00000000
01000000
00010000
01000000
00000000
00001000
00010000
00001000
00000000
00010000
00000100
00010000
00000000
00000010
00001000
,
00000010
00000000
00000000
00000110
00000000
00000000
00001001
00000000
00001001
00000000
00000000
00000000
MMMMMMMM
00000000
00000000
00000000
,
00000010
MMMMMMMM
00100000
MMMMMMMM
,
00000100
MMMMMMMM
00001000
00010000
,
00100000
MMMMMMMM
00000010
MMMMMMMM
,
01000000
MMMMMMMM
00010000
00001000
,
MMMMMMMM
00000001
00000010
00000000
MMMMMMMM
00001000
00000100
00000000
,
MMMMMMMM
00001000
00010000
00000000
MMMMMMMM
00100000
00010000
00000000
,
01000000
10000000
01000000
00010000
00100000
00001000
00010000
00000010
,
00001000
00000100
00001000
00000000
00000001
00000100
00000001
00000000
00001000
00000100
00001000
00000100
00010000
00000000
00000000
00000000
,
00020000
00000000
00030000
MMMMMMMM
,
02000000
00000000
03000000
MMMMMMMM
,
10000000
MMMMMMMM
10000000
MMMMMMMM
,
00010000
MMMMMMMM
00010000
MMMMMMMM
,
00001000
00000100
00000010
00000001
00000100
00000010
MMMMMMMM
00001000
,
00010000
01000000
00100000
00010000
01000000
00100000
MMMMMMMM
00001000
,
00010000
00000000
00000000
00010000
00000000
00000000
00100000
01000000
00100000
00000000
00000000
00010000
00001000
00000000
00000000
00000000
,
00000020
00000000
00000000
00000032
00000000
00000000
00000203
00000000
00002300
00000000
00000000
00023000
00000000
01030000
00000000
00000000
,
11000000
00000000
10000000
01000000
00000000
10000000
01000000
00000000
00100000
00010000
00100000
00000000
MMMMMMMM
00000000
00010000
00001000
,
00010000
00000000
00000010
00000100
00000000
00000010
00000100
00000000
00000001
00000010
00000001
00000000
MMMMMMMM
00000000
00000100
00001000
,
00000100
00000000
00010000
00001000
00000000
00010000
00001000
00000000
01000000
00000000
00010000
10000000
00000000
00010000
10000000
00000000
,
00100000
00000000
00010000
00001000
00000000
00010000
00001000
00000000
00000010
00000000
00000001
00000100
00000000
00000001
00000100
00000000
,
00000101
MMMMMMMM
00001010
MMMMMMMM
,
00011000
MMMMMMMM
01010000
MMMMMMMM
,
00100000
00100000
00010000
00010000
,
10000000
00000000
01000000
00100000
00000000
01000000
10000000
00000000
00100000
01000000
00000000
00100000
00010000
00000000
00001000
00010000
,
00001000
00000000
00000000
00000000
00001000
00000000
00000000
00000000
00001000
00000000
00000010
00000100
00000010
00000000
00000000
00000000
,
MMMMMMMM
00000000
00000000
00000000
00001000
00000001
00001000
00000001
00000010
00000000
00000000
00000100
00000000
00000000
00001000
00000000
,
MMMMMMMM
00000000
00010000
00001000
00010000
00001000
00100000
00000000
01000000
00000000
00000000
10000000
00000000
00000000
00010000
00000000
,
00110000
00000000
00000000
00110000
00000000
00000000
00100000
00001000
00010000
00000000
00000000
00000010
00000100
00000000
MMMMMMMM
00000000
,
00001000
00000100
00000000
00000010
00000001
00000000
00000100
00000000
00000010
00001000
00000010
00000000
00010000
00001000
01000000
00000000
,
MMMMMMMM
00000000
00000000
00000000
00010000
10000000
00010000
10000000
00100000
00000000
00000000
01000000
00000000
00000000
00010000
00000000
,
00002000
00000000
00000000
00000000
00003002
00000000
00000000
00000000
00000013
00000000
00000001
00001000
00000000
00000100
00001000
00000000
,
00001010
00000000
00000000
00001010
00000000
00000000
00000010
00010000
00001000
00000000
00000000
00100000
01000000
00000000
MMMMMMMM
00000000
,
00010000
01000000
00010000
00000000
10000000
01000000
10000000
00000000
00100000
01000000
00010000
00000000
00100000
00001000
00010000
00000000
,
00011000
00000000
00000010
00000000
MMMMMMMM
00000000
00000000
00000000
00000101
00000000
00000000
00000100
00001000
00000000
00011000
00000000
,
00000000
MMMMMMMM
00100000
00000000
10000000
01000000
00010000
00001000
,
00011000
00000000
00100000
00000000
MMMMMMMM
00000000
00000000
00000000
11000000
00000000
00000000
01000000
00010000
00000000
00011000
00000000
,
00000000
00000000
MMMMMMMM
00000000
00000010
00000000
00001000
00000000
00000001
00000100
00000000
00000100
00001000
00010000
00001000
00000000
,
00011000
00000000
01000000
00000000
MMMMMMMM
00000000
00000000
00000000
10100000
00000000
00000000
00100000
00010000
00000000
00011000
00000000
,
00000000
MMMMMMMM
00000010
00000010
00001000
00000100
00000010
00000001
,
00001000
00000000
00000100
00001000
00000100
00000000
00010000
00001000
00010000
00000000
00001000
01000000
00001000
00000000
00100000
00010000
,
00100000
00000000
00000000
01100000
00000000
00000000
10010000
00000000
10010000
00000000
00000000
00000000
MMMMMMMM
00000000
00000000
00000000
,
00100000
00000000
00000000
00000000
;

//---------------dance-double - NewbStepper-DDP----------------
#NOTEDATA:;
#CHARTNAME:NewbStepper-DDP;
#STEPSTYPE:dance-double;
#DESCRIPTION:NewbStepper-DDP;
#DIFFICULTY:Medium;
#METER:9;
#RADARVALUES:0.398706,0.492087,0.146892,0.264405,0.078342,285,270,15,27,0,0,0,0,0,0.398706,0.492087,0.146892,0.264405,0.078342,285,270,15,27,0,0,0,0,0;
#CREDIT:NewbStepper;
#NOTES:
00000000
00000000
00000000
00000000
,
00000000
00000000
00000000
00000000
,
00000000
00000000
00000000
00000000
,
00000000
00000000
00000000
00000000
,
00000000
00000000
00000000
00000000
,
00200000
00000000
00000000
00000000
,
00302000
00000000
00000000
00000000
,
00023000
00000000
00000000
00030200
00000000
00000000
00000310
00000000
,
00000001
00000100
00001000
00010000
,
02000000
00000000
00000000
03000000
,
10000000
00000000
01000000
00100000
00010000
00000000
01000000
00000000
,
00100000
00000000
00000000
00000000
10000000
00000000
01000000
00000000
00010000
00000000
00000000
00001000
00000000
00000000
00000010
00000000
,
00000001
00000101
00001000
00001100
,
00000010
00000000
00000001
00000000
00001000
00000100
00000010
00000000
,
00000001
00000000
00000100
00000010
00001000
00000000
00000100
00000000
,
00000010
00000000
00000000
00000000
00000001
00000000
00000100
00000000
00001000
00000000
00000000
00010000
00000000
00000000
00100000
00000000
,
10000000
11000000
00010000
01010000
,
10000000
00000000
01000000
00010000
00001000
00010000
00001000
00000000
,
00000010
00000000
00000000
00000000
00000001
00000000
00000000
00000000
00000100
00000000
00000000
00000010
00000000
00000000
00000200
00000000
,
00000000
00000301
00001000
00000000
00000010
00000100
00001000
00010000
,
00100000
00000000
00000000
00000000
10000000
00000000
00000000
00000000
01000000
00000000
00000000
00100000
00000000
00000000
02000000
00000000
,
00000000
13000000
00010000
00000000
01000000
00100000
00010000
00001000
,
00000100
00000000
00000000
00000000
00000001
00000000
00000000
00000000
00000010
00000000
00000000
00000100
00000000
00000000
00000020
00000000
,
00000000
00000031
00001000
00000000
00000100
00000010
00001000
00010000
,
01000000
10100000
00010000
01001000
,
00010000
00000000
00000000
00001000
00000000
00000000
00000010
00000000
00000002
00000000
00000000
00000000
00000000
00000000
00000000
00000000
,
00001003
00000000
00000100
00000000
,
00000010
00000000
00001000
00010000
,
00100000
00000000
01000000
00000000
,
00010000
00000000
00000000
00000000
00100000
01000000
00100000
00000000
,
00002000
00010000
00203000
00010000
,
00302000
00000100
00023000
00000100
,
00032000
00000010
00023000
00100000
,
00032000
00100000
00023000
00000100
,
00032000
00000000
00000000
00000000
,
00023000
00000000
00000000
00000000
,
20030000
00000000
00000000
00000000
,
30020000
00000000
00000000
00000000
,
00031000
00001000
00000100
00000100
,
00000010
00000010
00001000
00001000
,
00100000
01010000
00100000
11000000
,
00100000
00000000
00001000
00010000
00001000
00000000
00000010
00000000
,
00000001
00000000
00000100
00000000
00001000
00010000
00001000
00010000
,
00100000
00000000
10000000
00000000
01000000
00000000
00100000
00010000
,
00100000
00000000
01000000
00000000
00010000
00001000
00010000
00001000
,
00000010
00000000
00000001
00000000
00000100
00000010
00001000
00000000
,
00000001
00000000
00000000
00000001
00000000
00000000
00000100
00000000
00001000
00000000
00000000
00001000
00000000
00000000
00010000
00000000
,
00100000
00000000
00000000
00100000
00000000
00000000
10000000
00000000
01000000
00000000
00000000
01000000
00000000
00000000
00010000
00000000
,
00001000
00001000
00010000
00010000
,
00001000
00000000
00000000
00000100
00000000
00000000
00000001
00000000
00000100
00000000
00001000
00000000
00000100
00000000
00000010
00000000
,
00000220
00000000
00000000
00000330
,
00000001
00000000
00000100
00000010
00001000
00000000
00000100
00000000
,
00000010
00000000
00000000
00000000
00000001
00000000
00000100
00000000
00001000
00000000
00000000
00010000
00000000
00000000
00100000
00000000
,
10000000
11000000
00010000
01010000
,
00100000
00000000
10000000
00000000
00010000
01000000
00100000
00000000
,
10000000
00000000
01000000
00100000
00010000
00000000
01000000
00000000
,
00100000
00000000
10000000
00000000
01000000
00010000
00001000
00000100
,
00000001
00000101
00001000
00001100
,
00000010
00000100
00001000
00000100
00010000
00001000
01000000
00000000
,
00100000
00000000
00000000
00000000
10000000
00000000
00000000
00000000
01000000
00000000
00000000
00100000
00000000
00000000
02000000
00000000
,
00000000
13000000
00010000
00000000
00100000
01000000
00010000
00001000
,
00000010
00000000
00000000
00000000
00000001
00000000
00000000
00000000
00000100
00000000
00000000
00000010
00000000
00000000
00000200
00000000
,
00000000
00000301
00001000
00000000
00000100
00000010
00001000
00010000
,
01000000
00000000
00000000
00000000
10000000
00000000
00000000
00000000
00100000
00000000
00000000
01000000
00000000
00000000
00200000
00000000
,
00000000
10300000
00010000
00000000
01000000
00100000
00010000
00001000
,
00000100
00000011
00001000
00010100
,
00001000
00000000
00000000
00010000
00000000
00000000
00100000
00000000
20000000
00000000
00000000
00000000
00000000
00000000
00000000
00000000
,
30010000
00000000
00000000
00000000
;

//---------------dance-double - NewbStepper-BDP----------------
#NOTEDATA:;
#CHARTNAME:NewbStepper-BDP;
#STEPSTYPE:dance-double;
#DESCRIPTION:NewbStepper-BDP;
#DIFFICULTY:Easy;
#METER:5;
#RADARVALUES:0.235027,0.328058,0.078342,0.117513,0,168,160,8,12,0,0,0,0,0,0.235027,0.328058,0.078342,0.117513,0,168,160,8,12,0,0,0,0,0;
#CREDIT:NewbStepper;
#NOTES:
00000000
00000000
00000000
00000000
,
00000000
00000000
00000000
00000000
,
00000000
00000000
00000000
00000000
,
00000000
00000000
00000000
00000000
,
00000000
00000000
00000000
00000000
,
10010000
00000000
00000000
00000000
,
10010000
00000000
00000000
00000000
,
00100000
00000000
10000000
00000000
,
00010000
01000000
00001000
00010000
,
00000200
00000000
00000300
00000000
,
00001000
00000100
00000010
00000000
,
00001000
00010000
00100000
00000000
,
10000000
00000000
00010000
00000000
,
10000000
00010000
00100000
00000000
,
00010000
01000000
00100000
00000000
,
00010000
00001000
00000010
00000000
,
00000001
00000000
00001000
00000000
,
00000001
00000100
00000010
00001000
,
00000100
00000000
00010000
00000000
00000100
00000000
00000000
00001000
,
00000000
00010000
00100000
00010000
,
01000000
00000000
00001000
00000000
01000000
00000000
00000000
00010000
,
00000000
00001000
00000010
00001000
,
00000100
00000000
00010000
00000000
00000100
00000000
00000000
00000010
,
00000000
00001000
00010000
00100000
,
10000000
01000000
00100000
00010000
,
00002000
00003000
00000002
00000003
,
00001000
00000000
00000100
00000000
,
00010000
00000000
00001000
00000000
,
00100000
00000000
00010000
00000000
,
01000000
00000000
00100000
00000000
,
10000000
10000000
00010000
00010000
,
10000000
01000000
00100000
00001000
,
00010000
00001000
00100000
00001000
,
00010000
00000010
00001000
00000001
,
00000200
00000000
00000300
00000000
,
00002000
00000000
00003000
00000000
,
00020000
00000000
00030000
00000000
,
02000000
00000000
03000000
00000000
,
20000000
00000000
30000000
00000000
,
00020000
00000000
00030000
00000000
,
00200000
00000000
00300000
00000000
,
00002000
00000000
00003000
00000000
,
00011000
00000000
00000000
00000000
,
00000110
00000000
00000000
00000000
,
00011000
00000000
00000000
00000000
,
01100000
00000000
00000000
00000000
,
00010000
00000000
00001000
00000000
,
00000010
00000000
00000100
00000000
,
00010000
00010000
00001000
00001000
,
00100000
00100000
01000000
01000000
,
20000000
00000000
30000000
00000000
,
00010000
01000000
00100000
00000000
,
00010000
00001000
00000010
00000000
,
00000001
00000000
00001000
00000000
,
00000001
00001000
00000010
00000000
,
00001000
00000100
00000010
00000000
,
00001000
00010000
00100000
00000000
,
10000000
00000000
00010000
00000000
,
10000000
01000000
00100000
00010000
,
01000000
00000000
00001000
00000000
01000000
00000000
00000000
00010000
,
00000000
00001000
00000010
00001000
,
00000100
00000000
00010000
00000000
00000100
00000000
00000000
00001000
,
00000000
00010000
00100000
00010000
,
01000000
00000000
00001000
00000000
01000000
00000000
00000000
00100000
,
00000000
00010000
00001000
00000010
,
00000001
00000100
00000010
00001000
,
00000100
00000010
00000110
00000000
,
00001001
00000000
00000000
00000000
;
