#TITLE:Light Up The Sky;
#ARTIST:Darwin;
#BANNER:Light Up The Sky.png;
#BACKGROUND:Light Up The Sky-bg.png;
#MUSIC:Light Up The Sky.ogg;
#SAMPLESTART:45.253;
#SAMPLELENGTH:15;
#BPMS:0=175;

//---------------dance-single - DDRDAIKENKAI-bSP----------------
#NOTES:
     dance-single:
     DDRDAIKENKAI:
     Beginner:
     5:
     :
0000
0000
0000
0000
,
0000
0000
0000
0000
,
0000
0000
0000
0000
,
0000
0000
0000
0000
,
0000
0000
0000
0000
,
0000
0000
0000
0000
,
0000
0000
0000
0000
,
0000
0000
0000
0000
,
0000
0000
0000
0000
,
2000
0000
0000
0000
,
3000
0000
0000
0000
,
0002
0000
0003
0000
,
0200
0000
0300
0000
,
0020
0000
0000
0000
,
0030
0000
0000
0000
,
0200
0000
0300
0000
,
0002
0000
0003
0000
,
1000
1000
1000
0000
,
0001
0001
0001
0000
,
0100
0100
0100
0000
,
0001
0001
0001
0000
,
1000
1000
1000
0000
,
0001
0001
0001
0000
,
0010
0010
0010
0000
,
0001
0001
0001
0000
,
1000
0001
1000
0000
,
0001
1000
0001
0000
,
0100
0010
0100
0000
,
0010
0100
0010
0000
,
1000
0000
0100
0000
,
0010
0000
0001
0000
,
0100
0000
0010
0000
,
0220
0000
0000
0330
,
0010
0010
0010
0000
,
1000
1000
1000
0000
,
0100
0100
0100
0000
,
0001
0001
0001
0000
,
0100
0100
0100
0000
,
0010
0010
0010
0000
,
0001
0001
0001
0000
,
1000
1000
1000
0000
,
0001
1000
0000
0001
,
0000
0100
0000
0010
,
0000
0100
0000
0010
,
0000
1000
0000
0001
,
0001
0001
0000
1000
,
0000
0100
0000
1000
,
0000
0010
0000
1000
,
1000
1000
0000
1001
,
0000
0001
0000
1000
,
0000
0100
0010
0100
,
0000
1000
0000
0001
,
0000
0100
0010
0100
,
0000
0001
0000
0010
,
0000
0100
1000
0100
,
0000
0010
0000
0001
,
0000
0100
0001
0100
,
0100
0000
0010
0010
,
0010
0000
1000
1000
,
1000
0000
0001
0001
,
0001
0000
0010
0000
,
0001
0000
0100
0100
,
0100
0000
0010
0010
,
0010
0000
1000
0001
,
2000
0000
0000
3000
,
0100
0100
0100
0000
,
0100
0100
0100
0000
,
0010
0010
0010
0000
,
0010
0010
0010
0000
,
0001
0000
0100
0000
,
0010
0000
1000
0000
,
0100
0000
0010
0000
,
0220
0000
0000
0330
,
0100
0100
0100
0000
,
1000
1000
1000
0000
,
0001
0001
0001
0000
,
0100
0100
0100
0000
,
0010
0100
0010
0000
,
0010
0100
0010
0000
,
1000
0001
1000
0000
,
1000
0001
1000
0000
,
0100
1000
0100
0000
,
1000
0100
1000
0000
,
0100
0001
0100
0000
,
0001
0100
0001
0000
,
0010
0001
0010
0000
,
0001
0010
0001
0000
,
0010
1000
0010
0000
,
2000
0000
3000
1001
,
1001
0000
0000
0000
;

//---------------dance-single - DDRDAIKENKAI-BSP----------------
#NOTES:
     dance-single:
     DDRDAIKENKAI-BSP:
     Easy:
     8:
     :
0000
0000
0000
0000
,
0000
0000
0000
0000
,
0000
0000
0000
0000
,
0000
0000
0000
0000
,
0000
0000
0000
0000
,
0000
0000
0000
0000
,
0000
0000
0000
0000
,
0000
0000
0000
0000
,
0000
0000
0000
0000
,
0002
0000
1000
1000
,
2000
0000
0000
0000
3003
0000
0000
0100
,
0200
0000
0000
0010
0000
0010
0000
0020
,
0000
0330
0000
0000
,
2000
0000
0001
0001
,
0002
0000
0000
0000
3003
0000
0000
0010
,
0020
0000
0000
0100
0000
0100
0000
0200
,
0000
0000
0330
0000
,
1000
0100
1000
0000
,
0001
0010
0001
0000
,
0100
0010
0100
0000
,
0001
1000
0001
0000
,
1000
1000
1000
0000
,
0001
0001
0001
0000
,
0010
0010
0010
0000
,
0100
0100
0100
0000
,
0010
0001
0010
0000
,
0001
0100
0001
0000
,
1000
0100
1000
0000
,
0010
1000
0010
0000
,
1000
1000
0100
0100
,
0010
0010
0001
0001
,
0100
0100
0010
0010
,
0220
0000
0000
0330
,
1000
0100
0001
0000
,
0001
0100
1000
0000
,
0001
0010
0100
1000
,
0010
0100
0001
0000
,
1000
0010
0001
0000
,
0001
0010
1000
0000
,
1000
0001
0010
0100
,
1000
0001
1000
0000
,
0001
0100
0001
0000
,
1000
0010
1000
0000
,
0010
0100
0010
0100
,
0001
1000
0001
0000
,
1000
0100
1000
0000
,
0001
0010
0001
0000
,
0100
0010
0100
0001
,
1000
0001
1000
1001
,
0001
0001
1000
0100
,
1000
1000
0001
0100
,
0010
0010
0100
0010
,
1000
1000
0010
0100
,
0001
0001
0010
0100
,
0010
0010
0100
1000
,
0001
0001
1000
0001
,
0100
0100
0010
0100
,
0010
1000
0010
0000
0100
0000
0000
0000
,
0001
0010
0001
0000
1000
0000
0000
0000
,
0001
0100
0001
0000
1000
0000
0000
0000
,
0100
0010
0100
0000
0010
0000
0000
0000
,
0001
0001
0100
0000
0010
0000
0000
0000
,
1000
1000
0100
0000
0010
0000
0000
0000
,
0001
0001
0100
0000
0010
0000
0000
0000
,
0220
0000
0000
0330
,
1000
1000
1000
1000
,
0100
0100
0100
0100
,
0010
0010
0010
0010
,
0001
0001
0001
0001
,
1000
1000
0100
0100
,
0010
0010
0001
0001
,
1000
0100
0010
0001
,
2000
0000
0000
3001
,
0100
0010
0100
0001
,
1000
0100
0010
0110
,
0100
1000
0010
0001
,
0010
1000
0001
1001
,
1000
0010
0100
0001
,
0010
0100
0010
0110
,
0010
0001
0100
0010
,
1000
0100
1000
2001
,
3001
0100
1000
0100
,
0001
0010
1000
0010
,
0001
0100
0010
1000
,
0100
1000
0010
0100
,
0010
1000
0100
0001
,
0100
1000
0010
0001
,
0010
0010
1000
1000
,
0001
0100
0010
0110
,
2002
0000
0000
0000
,
3003
0000
0000
0000
;

//---------------dance-single - DDRDAIKENKAI-DSP----------------
#NOTES:
     dance-single:
     DDRDAIKENKAI-DSP:
     Medium:
     12:
     :
0000
0000
0000
0000
,
0000
0000
0000
0000
,
0000
0000
0000
0000
,
0000
0000
0000
0000
,
0000
0000
0000
0000
,
0000
0000
0000
0000
,
0000
0000
0000
0000
,
0000
0000
0000
0000
,
0000
0000
0000
0000
,
2000
0000
0000
0001
0000
0100
0000
0001
,
0000
0100
0000
3100
0000
0000
0100
0000
,
0002
0000
0000
1000
0000
0010
0000
0013
,
0200
0010
0000
0310
0000
0000
0001
0000
,
0002
0000
0000
0010
0000
1000
0000
0010
,
0000
1000
0000
1003
0000
0000
0100
0000
,
0200
0000
0000
0001
0000
0001
0000
0310
,
2000
0010
0000
0010
0000
0000
3100
0000
,
0001
0100
0001
0000
1000
0000
0000
0001
,
1000
0100
1000
0000
0001
0000
1000
0010
,
0100
0010
0100
0000
0001
0000
0000
1000
,
0100
0010
0100
0000
1000
0000
0000
0001
,
0010
0001
0010
0000
0100
0000
0000
0010
,
0001
0010
0001
0000
0100
0000
0010
1000
,
0001
1000
0001
0000
0100
0000
0000
0001
,
1000
0001
1000
0000
0100
0000
0000
1000
,
0010
1000
0010
0000
0100
0000
0000
0001
,
0010
0100
0010
0000
0100
0000
1000
0001
,
0100
0010
0100
0000
0001
0000
0000
1000
,
0100
0010
0100
0000
1000
0000
0000
1000
,
1000
0001
0001
1000
1000
0001
0001
0100
,
0100
0010
0010
1000
1000
0001
0001
0100
,
0010
0100
0010
0100
0001
1000
0001
1000
,
0200
0000
0000
0310
,
0001
0100
0001
0000
1000
0000
1000
0001
,
0100
0001
0100
0000
0001
0000
0001
0010
,
0100
0010
0100
0000
1000
0000
1000
0010
,
0100
0010
0100
0000
0001
0000
1000
0000
,
0100
0010
0100
0000
1000
0000
1000
0010
,
0100
0001
0100
0000
0001
0000
0001
0010
,
0100
1000
0100
0000
1000
0000
1000
0001
,
0100
0010
0100
0000
0001
0000
1000
1000
,
1000
0001
0100
0000
0010
1000
0010
0100
,
0001
0011
1000
1010
,
0010
0100
0010
0000
1010
0000
0101
0000
,
0001
0010
0001
0000
0011
0000
1100
1000
,
0100
1000
0100
0000
0010
0001
1000
0010
,
1000
1100
0001
0101
,
0100
0010
0100
0000
0001
1000
0002
0000
,
0100
0100
0100
0000
1003
0000
1001
0000
,
1000
0100
0010
0000
0001
0000
0100
0010
,
1000
0100
0010
0000
0001
0000
0100
0001
,
0010
0100
1000
0000
0010
0000
1000
0001
,
0010
0100
1000
0000
0001
0000
0010
0001
,
1000
0010
0001
0000
0010
0000
1000
1000
,
0001
0100
1000
0000
0100
0000
0010
1000
,
0001
0010
1000
0000
0010
0000
0001
0001
,
1000
0100
0001
0000
0100
0000
1000
0001
,
1000
0010
0100
0000
0100
0001
0010
0100
,
1000
0010
0100
0000
0010
1000
0100
0010
,
0001
0100
0010
0000
0100
0001
0010
0100
,
1000
0010
0100
0000
0110
0000
1000
0010
,
1000
0001
1000
0000
1000
0100
0001
1000
,
0010
0001
1000
0000
0001
0100
1000
0001
,
0010
1000
0001
0000
1000
0100
0010
0001
,
2002
0000
0000
3003
,
0001
0000
0010
0000
0001
0000
0010
0000
0100
0000
0000
0100
0000
0000
1000
0000
,
0010
0000
1000
0000
0010
0000
1000
0000
0001
0000
0000
0001
0000
0000
1000
0000
,
0010
0000
0100
0000
0010
0000
0100
0000
0001
0000
0000
0001
0000
0000
0010
0000
,
0100
0000
0010
0000
0100
0000
0010
0000
0001
0000
0000
0001
0000
0000
0100
0000
,
0100
0010
0010
0100
0100
0010
0010
1000
,
1000
0010
0010
0100
0100
0001
0001
1000
,
0100
0010
0100
0010
0001
1000
0001
1000
,
0200
0000
0000
0310
,
1001
0000
0000
0000
0001
0000
0000
1000
0000
0000
0001
0000
0000
0100
0000
0000
,
0010
0000
0000
0000
0110
0000
0000
0010
0000
0000
1000
0000
0001
0000
0000
0000
,
0010
0000
0000
0000
0100
0000
0000
1000
0000
0000
0100
0000
0000
0010
0000
0000
,
0001
0000
0000
0000
1001
0000
0000
0001
0000
0000
1000
0000
0010
0000
0000
0000
,
0100
0000
0000
0000
0010
0000
0000
1000
0000
0000
0001
0000
0000
0100
0000
0000
,
0010
0000
0000
0000
0110
0000
0000
0010
0000
0000
1000
0000
0100
0000
0000
0000
,
0010
0000
0000
0000
0001
0000
0000
0010
0000
0000
0100
0000
0000
1000
0000
0000
,
0001
0000
0000
0000
1001
0000
0000
0001
0000
0000
0100
0000
0020
0000
0000
0000
,
1030
0000
0000
0000
1100
0000
0000
0001
0000
0000
0100
0000
0000
1000
0000
0000
,
0100
0000
0000
0000
0110
0000
0000
0010
0000
0000
1000
0000
0001
0000
0000
0000
,
0010
0000
0000
0000
0011
0000
0000
1000
0000
0000
0010
0000
0000
0001
0000
0000
,
0010
0000
0000
0000
0110
0000
0000
0100
0000
0000
0001
0000
1000
0000
0000
0000
,
1010
0000
0000
0000
0101
0000
0000
0001
0000
0000
1000
0000
0000
0100
0000
0000
,
0110
0000
0000
0000
1001
0000
0000
0001
0000
0000
0001
0000
0100
0000
0001
0000
,
0011
0000
0000
0000
1100
0000
0000
0010
0000
0000
0100
0000
0000
0001
0000
0000
,
1001
0000
0000
0000
0110
0000
0000
0010
0000
0100
0010
0000
1000
0000
0000
0000
,
2002
0000
0000
0000
,
3003
0000
0000
0000
;

//---------------dance-single - DDRDAIKENKAI-ESP----------------
#NOTES:
     dance-single:
     DDRDAIKENKAI-ESP:
     Hard:
     15:
     :
0000
0000
0000
0000
,
0000
0000
0000
0000
,
0000
0000
0000
0000
,
0000
0000
0000
0000
,
0000
0000
0000
0000
,
0000
0000
0000
0000
,
0000
0000
0000
0000
,
0000
0000
0000
0000
,
0000
0000
0000
0000
,
2000
0000
0000
0000
3001
0010
0100
1000
,
0020
0000
0000
0000
0030
0000
0000
1000
,
2000
0000
3010
0020
0000
0230
0000
0302
,
2000
3003
0000
0000
,
0200
0000
0000
0000
1300
0100
0010
0001
,
2000
0000
0000
0000
0000
0000
3000
0010
,
0200
0000
0301
0020
0000
0230
0000
1300
,
0002
0000
0000
0003
,
1000
1000
0100
0000
1000
0000
0000
1000
,
0001
0001
0100
0000
0001
0000
0100
0010
,
1000
1000
0100
0000
1000
0000
0000
0010
,
1000
1000
0100
0000
0010
0000
0000
0001
,
1000
1000
0010
0000
1000
0000
0000
1000
,
0001
0001
0010
0000
0001
0000
0100
0010
,
1000
1000
0100
0000
1000
0000
0000
0010
,
1000
1000
0100
0000
1000
0000
0000
1000
,
0001
0100
1000
0000
1100
0000
0000
0100
,
0001
1000
0100
0000
0110
0000
0010
0001
,
1000
0010
0001
0000
0011
0000
0000
0010
,
1000
0100
0010
0000
0110
0000
0001
1000
,
1000
0001
0100
0001
1000
0010
0100
0010
,
1000
0100
0001
0100
1000
0010
0100
0001
,
0010
0001
0010
0000
0100
0010
0100
0000
1000
0100
1000
0000
0001
1000
0001
0000
,
2002
0000
0000
3003
,
1000
0000
0001
0010
0100
0000
0000
0000
0110
0000
1000
0000
0010
0000
0100
0000
,
0001
0000
1000
0100
0010
0000
0000
0000
0101
0000
0000
0000
1010
0000
0001
0000
,
1000
0000
0010
1000
0100
0000
0010
0000
0001
0000
0100
0000
0010
0000
1000
0000
,
0100
0000
1000
0010
0100
0000
0000
0000
0011
0000
0000
0000
1010
0000
0001
0000
,
1000
0000
0001
0010
0100
0000
0000
0000
0110
0000
1000
0000
0010
0000
1000
0000
,
0001
0000
0100
0010
1000
0000
0000
0000
0101
0000
0000
0000
1100
0000
0001
0000
,
0010
0000
0001
0100
0010
0000
1000
0000
0100
0000
0010
0000
0001
0000
0100
0000
,
0010
0000
0100
0001
1000
0000
0000
0000
0011
0000
0000
0000
1000
0000
0001
0000
,
1001
0000
1000
0001
0100
0000
0010
0000
1000
0000
0100
0000
1000
0000
0010
0000
,
0100
0000
0001
0010
0100
0000
1000
0000
0001
0000
0100
0000
0110
0000
0010
0000
,
1000
0000
0100
0010
0001
0000
0100
0000
0010
0000
1000
0000
0010
0000
0100
0000
,
0001
0000
0010
0100
1000
0000
0001
0000
0100
0000
0010
0000
0110
0000
0000
0000
,
0001
0000
1000
0001
0010
0000
0001
0000
0100
0000
0001
0000
0010
0000
0100
0000
,
1000
0000
0100
0010
0001
0000
0100
0000
0010
0000
1000
0000
0110
0000
1000
0000
,
0001
0000
0010
0100
1000
0000
0010
0000
0100
0000
0001
0000
0100
0000
0010
0000
,
1000
0000
0100
0000
0010
0000
0001
0010
0000
0001
1000
0000
2001
0000
0000
0000
,
3001
0100
0001
0100
1000
0100
0010
1000
,
0001
0010
0100
1000
0100
0010
0011
0001
,
1000
0100
1000
0100
0010
0100
1000
0010
,
0100
0001
0100
1000
0100
0001
0101
0001
,
1000
0010
0100
0010
1000
0001
0100
0001
,
1000
0100
0010
0001
0010
0100
0110
0010
,
0001
0010
1000
0010
0001
0100
1000
0100
,
0010
1000
0100
0010
0001
0100
0110
1000
,
0001
0000
0010
0000
0110
0000
0000
0000
0010
0000
0001
0100
0010
0000
1000
0000
,
0100
0000
0010
0000
0110
0000
0000
0000
0100
0000
1000
0010
0100
0000
0001
0000
,
0010
0000
0100
0000
0110
0000
0000
0000
1000
0000
0100
0010
0001
0000
0010
0000
,
0100
1000
0010
0100
0010
1000
1001
0000
,
1000
0000
0100
0000
0110
0000
0000
0000
0001
0000
0100
0010
1000
0000
0001
0000
,
0010
0000
0100
0000
1100
0000
0000
0000
1000
0000
0010
0100
0001
0000
1000
0000
,
0100
0000
0010
0000
0011
0000
0000
0000
0001
0000
0100
0010
1000
0000
0001
0000
,
1002
1000
0000
1000
0000
0100
0000
1003
,
1000
0000
0100
0000
1000
0000
0100
0000
0001
0000
0100
1000
0000
0000
0001
0000
,
1000
0000
0010
0000
1000
0000
0010
0000
0001
0000
0010
1000
0000
0000
0100
0000
,
0010
0000
0001
0000
0100
0000
0001
0000
0010
0000
0100
1000
0000
0000
0010
0000
,
1000
0000
0100
0000
1000
0000
0010
0000
0100
0000
0001
0010
0000
0000
0001
0100
,
0001
0000
1000
0010
1000
0000
0100
1000
0100
0000
1000
0001
1000
0000
0010
0100
,
0010
0000
0100
0001
0100
0000
0010
1000
0010
0000
0100
0010
0100
0000
0001
1000
,
0100
1000
0100
0000
0010
0001
0010
0000
0001
0100
0001
0000
1000
0010
1000
0000
,
0002
0000
0000
1003
,
1001
0000
1000
0000
1100
0000
0000
1000
0010
0000
1000
0000
0001
1000
0000
0000
,
0100
0000
0010
0000
0110
0000
0000
0100
1000
0000
0001
0100
0001
0000
0000
0000
,
0010
0000
0001
0000
1001
0000
0000
0001
0010
0000
0100
0000
1000
0010
0000
0000
,
1000
0000
0100
0000
0110
0000
0000
0010
0001
0000
1000
0010
1000
0000
0000
0000
,
1000
0000
0001
0000
1000
0100
0000
0100
1000
0000
0010
0000
0100
0001
0000
0000
,
0010
0000
0100
0000
0110
0000
0000
0100
1000
0000
0001
1000
0001
0000
0000
0000
,
1000
0000
0010
0000
1000
0001
0000
0001
1000
0000
0100
0000
1000
0001
0000
0000
,
1000
0000
0100
0000
0110
0000
0000
0100
1000
0000
0010
0100
0010
0000
0000
0000
,
1100
0000
0001
0000
1000
0010
0000
0100
0010
0000
1000
0000
0001
0100
0001
0000
,
0100
0000
1000
0000
0100
0010
0000
0100
0001
0000
0010
0000
0110
0000
0000
0000
,
0001
0000
0100
0000
0010
0100
0000
0010
1000
0000
0001
0000
1000
0100
1000
0000
,
0100
0000
0001
0000
0100
1000
0000
0010
1000
0000
0001
0000
1001
0000
0000
0000
,
0011
0000
0100
0000
1000
0001
0000
0010
0001
0000
0100
0000
0010
1000
0010
0000
,
0100
0000
1000
0000
0100
0001
0000
0010
0001
0000
0100
0000
0110
0000
0010
0000
,
1000
0000
0001
0000
1000
0010
0000
1000
0001
0000
0100
0000
0010
1000
0010
0000
,
0100
0000
0001
0000
1000
0100
0000
0010
0001
0010
0100
0000
1001
0000
0000
0000
,
0220
0000
0000
0000
,
0330
0000
0000
0000
;

//---------------dance-double - forcednature-BDP----------------
#NOTES:
     dance-double:
     forcednature:
     Easy:
     8:
     :
00000000
00000000
00000000
00000000
,
00000000
00000000
00000000
00000000
,
00000000
00000000
00000000
00000000
,
00000000
00000000
00000000
00000000
,
00000000
00000000
00000000
00000000
,
00000000
00000000
00000000
00000000
,
00000000
00000000
00000000
00000000
,
00000000
00000000
00000000
00000000
,
00000000
00000000
00000000
00000000
,
00020000
00000000
00001000
00001000
,
00002000
00000000
00000000
00000000
00033000
00000000
00000000
01000000
,
00020000
00000000
00000000
10000000
00000000
10000000
00000000
20000000
,
00000000
30030000
00000000
00000000
,
20000000
00000000
01000000
01000000
,
02000000
00000000
00000000
00000000
33000000
00000000
00000000
00100000
,
00002000
00000000
00000000
00010000
00000000
00010000
00000000
00020000
,
00000000
00000000
00033000
00000000
,
00001000
00010000
00000100
00000000
,
00010000
00001000
01000000
00000000
,
00001000
00010000
00000010
00000000
,
00010000
00001000
00100000
00000000
,
01000000
00010000
01000000
00000000
,
00010000
00001000
00010000
00000000
,
00001000
00000100
00001000
00000000
,
00000100
00000001
00000100
00000000
,
00000001
00000010
00000001
00000000
,
00000010
00001000
00000010
00000000
,
00001000
00010000
00001000
00000000
,
00010000
00100000
00010000
00000000
,
00100000
00100000
10000000
10000000
,
01000000
01000000
00010000
00010000
,
00001000
00010000
00000100
00001000
,
00000020
00000000
00000000
00000030
,
00000110
00000000
00000100
00000001
,
00000010
00000100
00001000
00000000
,
00000010
00010000
00001000
00100000
,
00010000
01000000
00100000
00000000
,
01100000
00000000
01000000
00010000
,
10000000
01000000
00100000
00000000
,
01000000
00010000
00001000
00010000
,
00000100
00001000
00000010
00000000
,
00000110
00000000
00000100
00000001
,
00001000
00000001
00000010
00000000
,
00000100
00010000
00001000
00100000
,
00001000
00010000
00100000
00000000
,
01100000
00000000
01000000
00010000
,
10000000
00010000
00100000
00000000
,
00001000
00010000
00000010
00001000
,
00000200
00000000
00000000
00000300
,
00000110
00000000
00000010
00000001
,
00000010
00000000
00000100
00001000
,
00000100
00000000
00010000
00001000
,
00010000
00000000
00100000
01000000
,
00100000
00000000
10000000
00010000
,
10000000
00000000
01000000
00100000
,
01000000
00000000
00010000
00001000
,
00010000
00000000
00000100
00000000
,
00000010
00000001
00000010
00000000
00000100
00000000
00000000
00000000
,
00010000
00001000
00010000
00000000
00100000
00000000
00000000
00000000
,
01000000
00010000
01000000
00000000
00100000
00000000
00000000
00000000
,
10000000
00010000
10000000
00000000
01000000
00000000
00000000
00000000
,
00100000
00010000
00100000
00000000
00001000
00000000
00000000
00000000
,
00010000
00000010
00010000
00000000
00001000
00000000
00000000
00000000
,
00000010
00000100
00000010
00000000
00000001
00000000
00000000
00000000
,
00002002
00000000
00000000
00003003
,
00000002
00000000
00000000
00000003
,
00000200
00000000
00000000
00000300
,
00002000
00000000
00000000
00003000
,
00020000
00000000
00000000
00030000
,
00100000
00100000
10000000
10000000
,
01000000
01000000
00100000
00100000
,
00001000
00010000
00001000
00010000
,
00000020
00000000
00000000
00000030
,
00001000
00000001
00000000
00000001
,
00000010
00000100
00000000
00000100
,
00010000
00001000
00000000
00001000
,
01000000
00010000
00000000
00010000
,
10000000
01000000
00100000
01000000
,
00100000
00001000
00010000
00001000
,
00010000
00000010
00000100
00000010
,
00000100
00000001
00000010
00000200
,
00001300
00000010
00010000
00001000
,
00100000
00010000
01000000
00001000
,
00010000
00000100
00001000
00000010
,
00010000
00001000
00100000
00000000
,
01100000
00000000
01000000
00010000
,
00011000
00000000
00001000
00000100
,
00000110
00000000
00001001
00000000
,
00000001
00000100
00002000
00003000
,
00022000
00000000
00000000
00000000
,
00033000
00000000
00000000
00000000
;

//---------------dance-double - forcednature-DDP----------------
#NOTES:
     dance-double:
     forcednature:
     Medium:
     12:
     :
00000000
00000000
00000000
00000000
,
00000000
00000000
00000000
00000000
,
00000000
00000000
00000000
00000000
,
00000000
00000000
00000000
00000000
,
00000000
00000000
00000000
00000000
,
00000000
00000000
00000000
00000000
,
00000000
00000000
00000000
00000000
,
00000000
00000000
00000000
00000000
,
00000000
00000000
00000000
00000000
,
00012000
00000000
00000000
01000000
00000000
00010000
00000000
00100000
,
00000000
00010000
00000000
01000000
00000000
00000000
00013000
00000000
,
00021000
00000000
00000000
00000100
00000000
00001000
00000000
00030010
,
00002000
00000001
00000000
00000100
00000000
00000000
00003010
00000000
,
00000201
00000000
00000000
00000010
00000000
00001000
00000000
00000010
,
00000000
00000001
00000000
00000310
00000000
00000000
00000100
00000000
,
00002000
00000000
00000000
01000000
00000000
00010000
00000000
00100000
,
00023000
00100000
00000000
00001000
00000000
00000000
00030100
00000000
,
00010000
00001000
00010000
00000000
00100000
00000000
00000000
10000000
,
00010000
10000000
01000000
00000000
00100000
00000000
00010000
00100000
,
00001000
00010000
00001000
00000000
00000010
00000000
00000000
00000100
,
00001000
00000100
00000010
00000000
00000001
00000000
00000000
00000100
,
00000001
00001000
00000001
00000000
00000010
00000000
00000000
00001000
,
00010000
00001000
01000000
00000000
00010000
00000000
10000000
01000000
,
00100000
01000000
00100000
00000000
00010000
00000000
00000000
01000000
,
00001000
00010000
00001000
00000000
00000010
00000000
00000000
00000100
,
00001000
00000001
00001000
00000000
00000010
00000000
00000000
00000100
,
00001000
00010000
00001000
00000000
00100000
00000000
00010000
10000000
,
00100000
01000000
00100000
00000000
00010000
00000000
00000000
00001000
,
00010000
00000100
00010000
00000000
00001000
00000000
00000000
00000010
,
00000100
00001000
00000100
00000010
00000000
00000001
00000010
00000100
,
00010000
00001000
01000000
00010000
00000000
10000000
00100000
01000000
,
00001000
00001000
00010000
00010000
00000100
00000100
00001000
00001000
,
00000020
00000000
00000000
00000130
,
00000010
00001000
00000001
00000000
00000010
00000000
00001000
00010000
,
00001000
01000000
00010000
00000000
00100000
00000000
01000000
10000000
,
00100000
10000000
01000000
00000000
00010000
00000000
00001000
00010000
,
00000100
00001000
00000100
00000000
00000010
00000000
00000001
00000000
,
00000100
00000010
00000100
00000000
00001000
00000000
00010000
00001000
,
01000000
00010000
01000000
00000000
00100000
00000000
10000000
00010000
,
10000000
01000000
00100000
00000000
00010000
00000000
01000000
00001000
,
00010000
00000100
00010000
00000000
00001000
00000000
00000010
00000010
,
00000100
00001000
00000001
00000000
00000100
00000010
00001000
00000010
,
00010000
00011000
00001000
00101000
,
00100000
00010000
01000000
00000000
01100000
00000000
00100000
10000000
,
00010000
10000000
01000000
00000000
01100000
00000000
00100000
00010000
,
00100000
00001000
00010000
00000000
00010010
00000000
00000010
00001000
,
00000001
00001000
00000100
00000000
00000110
00000000
00000010
00000001
,
00001000
00000001
00000100
00000000
00001000
00010000
00001000
00000000
,
00022000
00000000
00000000
00033000
,
01000000
00010000
01000000
00000000
00100000
00000000
10000000
00010000
,
10000000
01000000
00010000
00000000
00001000
00000000
00010000
00000100
,
00001000
00000100
00000010
00000000
00000001
00000000
00001000
00000001
,
00000100
00000010
00000100
00000000
00001000
00000000
00010000
00001000
,
01000000
00010000
01000000
00000000
00100000
00000000
10000000
00010000
,
10000000
01000000
00100000
00000000
00001000
00000000
00010000
00000010
,
00010000
00001000
00000010
00000000
00000100
00000000
00001000
00000001
,
00000100
00000010
00001000
00000000
00000200
00000000
00000300
00010000
,
00001000
00100000
01000000
00000000
00100000
00001000
00010000
00100000
,
01000000
00010000
10000000
00000000
01000000
00010000
00001000
00010000
,
00000100
00001000
00000010
00000000
00000100
00000001
00001000
00000010
,
00010000
00001000
00000010
00000000
00000110
00000000
00000100
00001000
,
00000001
00001000
00000010
00000000
00000100
00001000
00010000
00001000
,
01000000
00010000
00100000
00000000
01000000
10000000
01000000
00010000
,
00001000
00100000
00001000
00000000
00010000
00000010
00001000
00000001
,
00000020
00000000
00000000
00000030
,
00000110
00000000
00000000
00000000
00000100
00000000
00010000
00000000
00001000
00000000
00000000
00001000
00000000
00000000
01000000
00000000
,
00010000
00000000
00000000
00000000
00100000
00000000
01000000
00000000
10000000
00000000
00000000
10000000
00000000
00000000
00100000
00000000
,
01000000
00000000
00000000
00000000
00001000
00000000
00010000
00000000
00000100
00000000
00000000
00000100
00000000
00000000
00001000
00000000
,
00000001
00000000
00000000
00000000
00000100
00000000
00000010
00000000
00001000
00000000
00000000
00001000
00000000
00000000
00010000
00000000
,
01000000
00010000
00100000
00010000
00001000
00000100
00001000
00000010
,
00000100
00001000
00010000
00001000
01000000
00010000
00100000
00010000
,
00001000
00000100
00000010
00000001
00000100
00001000
00010000
00100000
,
02000000
00000000
00000000
03000000
,
10010000
00000000
00000000
00000000
10000000
00000000
00000000
01000000
00000000
00000000
00010000
00000000
00000000
00001000
00000000
00000000
,
00100000
00000000
00000000
00000000
00010000
00000000
00000000
01000000
00000000
00000000
00001000
00000000
00010000
00000000
00000000
00000000
,
00000100
00000000
00000000
00000000
00001000
00000000
00000000
00000010
00000000
00000000
00000001
00000000
00000000
00000010
00000000
00000000
,
00000100
00000000
00000000
00000000
00000001
00000000
00000000
00000010
00000000
00000000
00001000
00000000
00010000
00000000
00000000
00000000
,
00100000
00000000
00000000
00000000
01000000
00000000
00000000
00010000
00000000
00000000
10000000
00000000
00000000
00010000
00000000
00000000
,
00100000
00000000
00000000
00000000
01000000
00000000
00000000
00010000
00000000
00000000
00001000
00000000
00000010
00000000
00000000
00000000
,
00000100
00000000
00000000
00000000
00010000
00000000
00000000
00001000
00000000
00000000
00000100
00000000
00000000
00000001
00000000
00000000
,
00000010
00000000
00000000
00000000
00000100
00000000
00000000
00010000
00000000
00000000
00001000
00000000
02000000
00000000
00000000
00000000
,
03100000
00000000
00000000
00000000
01000000
00000000
00000000
10000000
00000000
00000000
01000000
00000000
00000000
00010000
00000000
00000000
,
00100000
00000000
00000000
00000000
00001000
00000000
00000000
00010000
00000000
00000000
00000010
00000000
00000000
00001000
00000000
00000000
,
00000100
00000000
00000000
00000000
00000010
00000000
00000000
00001000
00000000
00000000
00000010
00000000
00000000
00000001
00000000
00000000
,
00000100
00000000
00000000
00000000
00001000
00000000
00000000
00010000
00000000
00000000
00100000
00000000
01000000
00000000
00000000
00000000
,
01100000
00000000
00000000
00000000
10000000
00000000
00000000
01000000
00000000
00000000
00010000
00000000
00000000
00001000
00000000
00000000
,
00000010
00000000
00000000
00000000
00000001
00000000
00000000
00000100
00000000
00000000
00001000
00000000
00000000
00010000
00000000
00000000
,
00100000
00000000
00000000
00000000
10000000
00000000
00000000
00010000
00000000
00000000
01000000
00000000
00000000
00001000
00000000
00000000
,
00011000
00000000
00000000
00000000
00000100
00000000
00000000
00001000
00000000
00001000
00000010
00000000
00000100
00000000
00000000
00000000
,
00002002
00000000
00000000
00000000
,
00003003
00000000
00000000
00000000
;

//---------------dance-double - DDRDAIKENKAI-EDP----------------
#NOTES:
     dance-double:
     DDRDAIKENKAI:
     Hard:
     15:
     :
00000000
00000000
00000000
00000000
,
00000000
00000000
00000000
00000000
,
00000000
00000000
00000000
00000000
,
00000000
00000000
00000000
00000000
,
00000000
00000000
00000000
00000000
,
00000000
00000000
00000000
00000000
,
00000000
00000000
00000000
00000000
,
00000000
00000000
00000000
00000000
,
00000000
00000000
00000000
00000000
,
20000000
00000000
00000000
00000000
30100000
01000000
00010000
00100000
,
00002000
00000000
00000000
00000000
00003000
00000000
00000000
00000100
,
00000002
00000000
00001003
00002000
00000000
00003200
00000000
00000310
,
00000020
00000030
00000000
00000000
,
00000002
00000000
00000000
00000000
00000103
00001000
00010000
01000000
,
20000000
00000000
00000000
00000000
30000000
00000000
00000000
00100000
,
00200000
00000000
00310000
00020000
00000000
00230000
00000000
10000000
,
20300000
00000000
30000000
00000000
,
00010000
00010000
01000000
00000000
00010000
00000000
00000000
00010000
,
00001000
00010000
01000000
00000000
00010000
00000000
01000000
00100000
,
00010000
00001000
00010000
00000000
00001000
00000000
00000000
00000010
,
00000100
00000100
00001000
00000000
00000001
00000000
00000000
00000100
,
00010000
00010000
00100000
00000000
10000000
00000000
00000000
10000000
,
00100000
00100000
01000000
00000000
10000000
00000000
00100000
00010000
,
00100000
00100000
01000000
00000000
00010000
00000000
00000000
00010000
,
00000100
00000100
00000010
00000000
00001000
00000000
00000000
00001000
,
01000000
10000000
00010000
00000000
01010000
00000000
00000000
01000000
,
00010000
00001000
00000100
00000000
00001100
00000000
00000100
00000001
,
00001000
00000010
00000001
00000000
00000011
00000000
00000000
00000010
,
00001000
00010000
01000000
00000000
01100000
00000000
10000000
00010000
,
00010000
01000000
00010000
00100000
00010000
01000000
00010000
00001000
,
00001000
00000100
00001000
00010000
00001000
00000100
00001000
00000001
,
00000001
00000010
00000100
00001000
00010000
00100000
01000000
10000000
,
20020000
00000000
00000000
30030000
,
10000000
00000000
00010000
10000000
01000000
00000000
00000000
00000000
00010000
00000000
01000000
00000000
10000000
00000000
00100000
00000000
,
00010000
00000000
00001000
00010000
00000100
00000000
00000000
00000000
00001100
00000000
00000000
00000000
00000110
00000000
00001000
00000000
,
00000001
00000000
00001000
00000010
00000100
00000000
00001000
00000000
00000100
00000000
00000001
00000000
00001000
00000000
00000100
00000000
,
00010000
00000000
00001000
00100000
00010000
00000000
00000000
00000000
00110000
00000000
00000000
00000000
00001100
00000000
00000010
00000000
,
00000001
00000000
00001000
00000001
00000100
00000000
00000000
00000000
00001000
00000000
00000100
00000000
00000001
00000000
00000010
00000000
,
00001000
00000000
00010000
00001000
00100000
00000000
00000000
00000000
00110000
00000000
00000000
00000000
01100000
00000000
00010000
00000000
,
10000000
00000000
00010000
00100000
01000000
00000000
00010000
00000000
01000000
00000000
10000000
00000000
00010000
00000000
01000000
00000000
,
00001000
00000000
00010000
00000100
00001000
00000000
00000000
00000000
00001100
00000000
00000000
00000000
00110000
00000000
01000000
00000000
,
10000000
00000000
00010000
00100000
00010000
00000000
01000000
00000000
00100000
00000000
00010000
00000000
10000000
00000000
00010000
00000000
,
00100000
00000000
01000000
10000000
01000000
00000000
00010000
00000000
01000000
00000000
00001000
00000000
00101000
00000000
00010000
00000000
,
00100000
00000000
00001000
00100000
00010000
00000000
01000000
00000000
00010000
00000000
00100000
00001000
00010000
00000000
00000100
00000000
,
00010000
00000000
00000100
00001000
00000010
00000000
00001000
00000000
00000100
00000000
00010000
00000000
00011000
00000000
00000100
00000000
,
00000010
00000000
00000001
00000100
00000001
00000000
00001000
00000000
00000010
00000000
00000001
00000000
00001000
00000000
00000001
00000000
,
00000010
00000000
00001000
00000001
00000100
00000000
00000001
00000000
00000010
00000000
00000100
00000000
00000110
00000000
00001000
00000000
,
00000100
00000000
00010000
00001000
01000000
00000000
00100000
00000000
01000000
00000000
00010000
00100000
00001000
00000000
00010000
00000000
,
00000100
00000000
00000010
00000100
00001000
00000000
00000100
00010000
00000000
00001000
00010000
00000000
00021000
00000000
00000000
00000000
,
00031000
00000100
00000001
00000100
00001000
00000100
00000010
00010000
,
00010000
00100000
10000000
00100000
00010000
00100000
01000000
00010000
,
00010000
00001000
00000100
00001000
00010000
00001000
00000100
00001000
,
00001000
00010000
00100000
00010000
00001000
00010000
00100000
00100000
,
00010000
01000000
00010000
00100000
01000000
10000000
10010000
00001000
,
00000001
00000010
00000100
00001000
00000001
00000010
00000110
00001000
,
00010000
01000000
00100000
00001000
00010000
01000000
01100000
00010000
,
00001000
00000010
00000100
00010000
00001000
00000010
00000110
00000001
,
00001000
00000000
00000010
00000100
00000010
00000000
00001000
00000000
00000001
00000000
00000010
00000000
00001000
00000000
00010000
00000000
,
01000000
10000000
11000000
00000000
10000000
00100000
00010000
00001000
,
00000100
00000001
00000101
00000000
00000001
00000010
00000100
00001000
,
00010000
00000000
10000000
00100000
01000000
00000000
00010000
00100000
01000000
00000000
10000000
00000000
10010000
00000000
10000000
00000000
,
00010000
00000000
01000000
00100000
01000000
00000000
00010000
00000000
10000000
00000000
01000000
00000000
00010000
00000000
00001000
00000000
,
00000010
00000001
00000011
00000000
00000001
00000100
00001000
00010000
,
00100000
10000000
10100000
00000000
10000000
01000000
00010000
00000100
,
00001200
00000010
00000000
00000010
00000000
00000001
00000000
00000301
,
00000100
00000000
00001000
00000000
00000100
00000000
00001000
00000000
00010000
00000000
00100000
00010000
00000000
00000000
00100000
00000000
,
10000000
00000000
01000000
00000000
10000000
00000000
01000000
00000000
00010000
00000000
01000000
00010000
00000000
00000000
00001000
00000000
,
00000100
00000000
00000001
00000000
00000010
00000000
00000001
00000000
00000100
00000000
00001000
00010000
00000000
00000000
00100000
00000000
,
10000000
00000000
01000000
00000000
10000000
00000000
00100000
00000000
00010000
00000000
00100000
00001000
00000000
00000000
00100000
01000000
,
00100000
00000000
00010000
10000000
00010000
00000000
00100000
00010000
00100000
00000000
00001000
00010000
00001000
00000000
00000100
00000010
,
00000100
00000000
00000001
00000010
00000001
00000000
00001000
00000010
00001000
00000000
00000100
00001000
00000100
00000000
00001000
00000100
,
00010000
00001000
00100000
00000000
00001000
00010000
00000100
00000000
00001000
00000100
00010000
00000000
00001000
00100000
00010000
00000000
,
20000000
00000000
30000000
01100000
,
10010000
00000000
10000000
00000000
10010000
00000000
00000000
00010000
00100000
00000000
00010000
00000000
00001000
00010000
00000000
00000000
,
00110000
00000000
00100000
00000000
01100000
00000000
00000000
00100000
00010000
00000000
00100000
00001000
00010000
00000000
00000000
00000000
,
00000100
00000000
00000010
00000000
00000110
00000000
00000000
00000100
00001000
00000000
00000100
00000000
00010000
00000100
00000000
00000000
,
00010000
00000000
00001000
00000000
00011000
00000000
00000000
00010000
00100000
00000000
00010000
00001000
00100000
00000000
00000000
00000000
,
00001000
00000000
00010000
00000000
00000100
00001000
00000000
00001000
00000100
00000000
00000010
00000000
00000001
00000010
00000000
00000000
,
00000100
00000000
00010000
00000000
00011000
00000000
00000000
00001000
00010000
00000000
00001000
00100000
00010000
00000000
00000000
00000000
,
00100000
00000000
01000000
00000000
10000000
00100000
00000000
00100000
00010000
00000000
00100000
00000000
01000000
00100000
00000000
00000000
,
01000000
00000000
00010000
00000000
00110000
00000000
00000000
00001000
00010000
00000000
00001000
00010000
00000100
00000000
00000000
00000000
,
00010100
00000000
00010000
00000000
01000000
10000000
00000000
01000000
10000000
00000000
00010000
00000000
00100000
00010000
00100000
00000000
,
00001000
00000000
00010000
00000000
00001000
00100000
00000000
00001000
00010000
00000000
00000100
00000000
00001100
00000000
00000000
00000000
,
00000010
00000000
00000001
00000000
00000100
00001000
00000000
00010000
00100000
00000000
00010000
00000000
00001000
00100000
00010000
00000000
,
00100000
00000000
01000000
00000000
10000000
01000000
00000000
10000000
00010000
00000000
01000000
00000000
01100000
00000000
00000000
00000000
,
10100000
00000000
01000000
00000000
00001000
00010000
00000000
00000100
00001000
00000000
00000010
00000000
00000100
00000001
00000100
00000000
,
00000010
00000000
00001000
00000000
00000100
00010000
00000000
00001000
00100000
00000000
01000000
00000000
01100000
00000000
00010000
00000000
,
00001000
00000000
00000100
00000000
00000001
00000010
00000000
00000100
00001000
00000000
00000001
00000000
00001000
00000100
00010000
00000000
,
01000000
00000000
10000000
00000000
00010000
01000000
00000000
00001000
00010000
00000100
00001000
00000000
00001001
00000000
00000000
00000000
,
00000220
00000000
00000000
00000000
,
00000330
00000000
00000000
00000000
;
