#TITLE:LOVE.;
#ARTIST:Kendrick Lamar ft. Zacari;
#BANNER:LOVE.png;
#BACKGROUND:LOVE-bg.png;
#MUSIC:LOVE.ogg;
#OFFSET:-0.45;
#SAMPLESTART:76.64;
#SAMPLELENGTH:15;
#BPMS:0=126;

//---------------dance-single - RIME-bSP----------------
#NOTES:
     dance-single:
     RIME:
     Beginner:
     1:
     :
0000
0000
0000
0000
,
0000
0000
0000
0000
,
0000
0000
0000
0000
,
0000
0000
0000
0000
,
2000
3000
0000
0000
,
0000
0000
0000
0000
,
0002
0003
0000
0000
,
0000
0000
0002
0003
,
2001
0000
0000
0000
,
3000
0000
0000
0000
,
1002
0000
0000
0000
,
0003
0000
0000
0000
,
0120
0000
0000
0000
,
0030
0000
0000
0000
,
0210
0000
0000
0000
,
0300
0000
0000
0000
,
0010
0000
0000
0000
,
0010
0000
0000
0000
,
0001
0000
0000
0000
,
0001
0000
0000
0000
,
1000
0000
0000
0000
,
1000
0000
0000
0000
,
0010
0000
0000
0000
,
0010
0000
0000
0000
,
0200
0000
0000
0000
,
0000
0000
0300
0000
,
0001
0000
0000
0000
,
0001
0000
0000
0000
,
2000
0000
0000
0000
,
0000
0000
3000
0000
,
0100
0000
0000
0000
,
0100
0000
0000
0000
,
0010
0000
0000
0000
,
0100
0000
0000
0000
,
0010
0000
0000
0000
,
0100
0000
0000
0000
,
1000
0000
0000
0000
,
0001
0000
0000
0000
,
1000
0000
0000
0000
,
0001
0000
0000
0000
,
2001
0000
0000
0000
,
3000
0000
0000
0000
,
1002
0000
0000
0000
,
0003
0000
0000
0000
,
0120
0000
0000
0000
,
0030
0000
0000
0000
,
0210
0000
0000
0000
,
0300
0000
0000
0000
,
2000
3000
0000
0000
,
0000
0000
1000
0000
,
0002
0003
0000
0000
,
0000
0000
0000
0001
,
2000
3000
0000
0000
,
0000
0000
1000
0000
,
0002
0003
0000
0000
,
0000
0000
0002
0003
,
2001
0000
0000
0000
,
3000
0000
0000
0000
,
1002
0000
0000
0000
,
0003
0000
0000
0000
,
0120
0000
0000
0000
,
0030
0000
0000
0000
,
0210
0000
0000
0000
,
0300
0000
0000
0000
,
0110
0000
0000
0000
;

//---------------dance-single - RIME-BSP----------------
#NOTES:
     dance-single:
     RIME:
     Easy:
     5:
     :
0000
0000
0000
0000
,
0000
0000
0000
0000
,
0000
0000
0000
0000
,
0000
0000
0000
0010
,
1000
0001
0000
0000
,
0000
0000
1000
0100
,
0010
0001
0000
0000
,
0000
1000
0010
0100
,
0110
0100
0001
0000
,
1000
1000
0001
0000
,
0011
0010
0100
1000
,
0001
0001
0100
0001
,
1000
0000
0010
1000
,
0001
0001
0010
0001
,
1000
0000
0100
1000
,
0001
0100
0010
0000
,
1000
0010
0001
0010
,
1000
1000
1001
0000
,
0001
0010
1000
0010
,
0001
0001
1001
0000
,
0001
0100
1000
0100
,
0001
0001
1001
0000
,
1000
0100
0001
0100
,
1000
0001
0101
0100
,
0010
1000
1000
0001
,
0001
0000
0010
0100
,
1000
0010
0010
0100
,
0100
0010
1010
1010
,
0000
1000
0001
0010
,
0000
0001
1000
0100
,
0000
0010
0100
1000
,
0000
0010
0110
0110
,
0100
0001
1000
0001
,
0000
0010
0001
0100
,
0000
0010
1000
0100
,
0000
0010
0100
1000
,
0000
0010
0100
0001
,
0000
1000
0100
0001
,
1000
0010
0001
1000
,
0010
0100
0010
0000
,
1010
0010
0001
0010
,
1000
1000
1001
0000
,
0001
0010
1000
0010
,
0001
0001
1001
1001
,
1000
0100
0001
0100
,
1000
1000
1001
0000
,
0001
0100
1000
0100
,
0001
2000
3001
2000
,
3010
1000
0000
0000
,
0000
0100
0010
0100
,
1000
1000
0000
0000
,
0000
0000
0000
0010
,
1000
0001
0000
0000
,
0000
0000
0010
0100
,
0010
0010
0000
0000
,
0000
0000
0001
0100
,
0110
0010
1000
0000
,
0001
0001
0010
0000
,
0110
0010
0001
0001
,
1000
0010
0100
0100
,
0001
1000
0100
0100
,
1000
0010
0100
0100
,
0001
0000
0010
0010
,
0100
1000
0001
0100
,
0020
0000
0000
0000
,
0000
0000
0000
0000
,
0030
0000
0000
0000
;

//---------------dance-single - RIME-DSP----------------
#NOTES:
     dance-single:
     RIME:
     Medium:
     10:
     :
0000
0000
0000
0000
,
0000
0000
0000
0000
,
0000
0000
0000
0000
,
0000
0000
0000
0000
0000
0000
0000
0000
0000
0000
0000
0000
1000
0000
0000
0100
,
0000
0000
1000
0000
0001
0000
0000
0100
0000
0000
0000
0000
0000
0000
0000
0000
,
0000
0000
0000
0000
0000
0000
0000
0000
0000
0000
0000
0000
0000
0000
0000
0000
0010
0000
0000
0000
0000
0000
0000
0000
1000
0000
0000
0000
0000
0000
0000
0000
0000
1000
0000
0000
0000
0000
0000
0000
0000
0000
0001
0000
0000
0000
0000
0000
,
0010
0000
0000
0100
0000
0000
0000
0000
0000
0000
0000
0000
0000
0000
0000
0000
,
0000
0000
0000
0000
0000
0000
0000
0000
0000
0000
0000
0000
0000
0000
0000
0000
0100
0000
0000
0000
0000
0000
0000
0000
1000
0000
0000
0000
0000
0000
0000
0000
0000
0001
0000
0000
0000
0000
0000
0000
0000
0000
0000
0000
0000
0000
0000
0000
,
0100
0001
2000
0000
3100
0000
1000
0020
,
0000
0000
0100
0000
0130
0010
1000
0001
,
0000
0000
0001
0000
0010
0001
1000
0010
,
0000
0010
0100
0001
0000
0001
0000
1000
,
0001
0000
0020
0000
0130
0010
0001
1000
,
0010
0000
0010
0200
0001
0000
0310
0000
,
0100
0001
1000
0001
0010
0100
1000
0010
,
0000
0100
0010
1000
0000
0001
0000
0000
,
0010
0000
0200
1300
0100
0000
0010
0000
,
0001
0000
1000
0000
0001
0000
0000
0000
0100
0000
0000
0100
0000
0000
0000
0000
,
0010
0000
2000
3001
1000
0000
0100
0000
,
0010
0000
0100
0000
0010
0000
0000
0000
0001
0000
0000
0001
0000
0000
0000
0000
,
0100
0000
0002
0013
0001
0001
1000
0010
,
0100
0000
0010
0000
0100
0000
0000
0000
0001
0000
0000
0001
0000
0000
0000
0000
,
0100
0000
0010
0010
1000
0100
1000
0000
,
0010
0010
0100
0001
0100
0000
0001
0000
,
1000
0000
0100
0001
0100
0000
1000
0010
,
1000
0000
0010
0000
0100
0000
0001
0010
,
0100
0000
1000
0100
1000
0000
0010
0001
,
0010
0000
1000
0100
0010
0000
0001
0010
,
0100
0000
0000
0000
1000
0000
0100
0000
0001
0000
0000
0001
0000
0000
0100
0000
,
1000
0000
0000
0000
1000
0000
0010
0000
0001
0000
0000
0001
0000
0000
0010
0000
,
1000
0000
0000
0000
0001
0000
0010
0000
0100
0000
0000
1000
0000
0000
0100
0000
,
0010
0000
0001
0100
0010
0010
1000
1000
,
0001
0000
0000
0000
1000
0000
0100
0000
0010
0000
0000
0100
0000
0000
0100
0000
,
1000
0000
0001
0001
0200
0000
0310
0000
,
0100
0000
0001
0001
0020
0000
0130
0000
,
0010
0000
0001
0001
2000
0000
3010
0000
,
1000
0000
0001
0001
0200
0000
0310
0000
,
0000
0100
0010
0100
0001
0010
0100
0010
,
0001
0100
0010
0100
0001
0010
0100
0010
,
0001
1000
0010
1000
0001
0000
0000
0000
,
0010
0000
0002
1003
0001
0100
0010
0000
,
0100
0100
0001
1000
0200
0000
1300
0100
,
0010
0000
0100
0100
0010
0100
1000
0010
,
0100
0000
0001
0100
0101
0000
1010
0000
,
1000
0000
0001
0001
0010
0100
1000
0010
,
0100
0001
0100
0000
0002
0000
0013
0001
,
0100
0000
0010
0010
0100
0010
1000
0000
,
0100
0020
0000
0031
0010
0200
0000
0310
,
0100
0000
0100
0000
1000
0000
0000
1000
0000
0000
0000
0000
0000
0000
0000
0000
,
0000
0000
0000
0000
0010
0000
0010
0000
0100
0000
0000
0001
0000
0000
1000
0000
,
0001
0000
0001
0000
0010
0000
0000
0010
0000
0000
0000
0000
0000
0000
0000
0000
,
0000
0000
0000
0000
0000
0000
0100
0100
,
1000
0000
0010
0000
0100
0000
0000
0002
0003
0000
0000
0000
0100
0000
0010
0000
,
0100
0000
0000
0000
0000
0000
0000
0000
0000
0000
0000
0000
0010
0000
0000
0000
1000
0000
0000
0000
0010
0000
0000
0000
1000
0000
0000
0000
0000
0000
0000
0000
0000
0001
0000
0000
0000
0000
0000
0000
0000
0000
1000
0000
0000
0000
0000
0000
,
0001
0000
0000
0020
0030
0000
0100
0000
0010
0000
0000
0000
0001
0000
0001
0000
,
1000
0000
0000
0000
0000
0000
0000
0000
0000
0000
0000
0000
0010
0000
0000
0000
0100
0000
0000
0000
0010
0000
0000
0000
0100
0000
0000
0000
0000
0000
0000
0000
0000
0001
0000
0000
0000
0000
0000
0000
0000
0000
0000
0000
0000
0000
0000
0000
,
0100
0001
2000
0000
3100
0000
1000
0020
,
0100
0000
0100
0000
0130
0010
1000
0001
,
0100
0001
0001
1000
0010
1000
0100
0010
,
0001
0000
1000
0000
0010
1000
0100
0010
,
0001
0000
0020
0000
0130
0010
0001
1000
,
0010
0000
0010
0200
0001
0001
0310
0100
,
0001
0001
1000
0001
0010
0100
1000
0020
,
0000
0130
0010
2000
0000
3001
0000
0000
,
2000
3200
0320
0032
0000
0000
0000
0000
,
0000
0000
0000
0000
,
0203
0302
2003
3020
0000
0000
0000
0000
,
0030
0000
0000
0000
;

//---------------dance-single - RIME-ESP----------------
#NOTES:
     dance-single:
     RIME:
     Hard:
     14:
     :
0000
0000
0000
0000
,
0000
0000
0000
0000
,
0000
0000
0000
0000
,
0000
0000
0000
0000
0000
0000
0000
0000
0000
0000
0000
1000
0100
0010
0001
0100
,
0000
0000
0000
0000
0010
0000
0000
0000
0100
0000
0000
0000
0010
0000
0000
0000
0000
0000
0000
0000
0000
1000
0000
0000
0001
0000
0000
0000
0000
0000
0000
0000
0000
0000
0000
0000
0000
0000
0000
0000
0000
0000
0000
0000
0000
0000
0000
0000
,
0000
0000
0000
0000
0000
0000
0000
0000
0000
0000
0000
0000
0000
0000
0000
0000
0001
0000
0000
0000
0001
0000
0000
0000
0010
0000
0000
0000
0000
0000
0000
0000
0000
0100
0000
0000
0000
0000
0000
0000
0000
0000
0010
0000
0000
0001
0000
0000
,
1000
0010
0000
0000
,
0000
0000
0000
0000
0000
0000
0000
0000
0000
0000
0000
0000
0000
0000
0000
0000
0100
0000
0000
0000
0100
0000
0000
0000
0010
0000
0000
0000
0000
0000
0000
0000
0000
1000
0000
0000
0000
0000
0000
0000
0000
0000
0000
0000
0000
0000
0000
0000
,
1001
0000
0001
0000
0100
0001
0100
0000
0010
0000
0000
0000
1000
0000
0002
0000
,
0010
0000
1003
0000
1001
0001
1000
0100
,
0010
0000
0100
0000
1000
0000
0010
0000
0001
0000
0001
0010
1000
0000
0001
0000
,
0010
0000
0000
0000
1010
0000
0000
0000
1000
0000
0010
0001
1000
0000
0010
0000
,
0100
0000
0000
0100
0002
0000
1000
0000
0013
0000
0001
0010
1000
0000
0010
0000
,
0100
0000
0000
0000
0110
0000
0000
0000
0100
0000
1000
0100
0001
0000
0100
0000
,
0010
0000
0001
0000
1000
0000
0010
0000
0100
0000
0001
0100
1000
0000
0200
0000
,
0010
0301
0100
0002
0010
1003
0000
0000
,
0001
0000
0010
0000
0200
0000
0310
0100
1000
0010
0100
0000
0010
0000
0100
0000
,
0101
0000
0001
0000
1001
0000
1000
0000
1100
0000
0000
0100
0000
0000
0000
0000
,
0010
0000
0100
0000
1000
0000
0010
0100
0001
0010
0100
0000
0010
0000
0001
0000
,
1000
0000
0010
0000
0100
0000
0001
0000
0011
0000
0000
0010
0000
0000
0000
0000
,
0100
0000
0010
0000
0002
1003
0001
0100
0010
1000
0100
0000
0010
0100
1000
0000
,
1010
0000
0010
0000
0110
0000
0100
0000
0101
0000
0000
0100
0000
0000
0000
0000
,
0010
0000
0100
0000
0001
0010
0100
1000
0001
0000
0001
0000
0200
0000
0000
0000
,
0310
0000
0010
0000
0100
0001
1000
0000
0100
0000
0000
0000
0010
0000
0000
0000
,
0100
1000
0010
0010
0100
0000
0001
0001
,
1000
0000
0100
0010
0012
0000
1000
0103
,
0001
0000
0100
0010
0010
0000
1000
0001
,
0001
0000
0010
0001
0011
0010
1100
0000
,
1000
0000
0100
0000
0001
0100
0010
0000
0001
0000
0010
0001
1000
0100
0010
0000
,
0100
0000
1000
0001
0100
0010
0100
0000
0010
0000
1000
0001
0010
0100
0010
0000
,
0100
0000
0010
0100
1000
0010
0001
0010
1000
0000
0010
0100
0001
0010
1000
0010
,
0001
0000
0100
0001
0010
0100
1000
0100
0110
0000
0001
0000
1001
0001
0100
0000
,
0010
0000
0100
0000
0001
0010
0100
0000
0010
0000
0000
0001
0000
0000
1000
0001
,
0100
0000
0000
0000
0010
0000
0010
0000
2000
0000
0000
3100
1000
0000
0000
0000
,
0010
0000
1000
0010
1000
0001
0010
0001
0200
0000
0000
0301
0100
0000
0000
0000
,
0010
0000
0000
0000
1000
0000
1000
0000
0002
0000
0000
0103
0001
0000
0000
0000
,
0010
0000
0100
0000
2000
0000
3001
0000
2000
0000
0000
3010
1000
0000
0000
0000
,
0100
0000
0010
0000
0001
1000
0010
0000
0100
0000
0010
0000
1000
0001
0010
0000
,
0100
0000
0010
0000
0001
1000
0010
0000
0100
0000
0010
0000
1000
0001
0010
0000
,
0100
0000
1000
0000
0001
0100
0010
0000
2000
0000
0000
0000
0000
0000
3001
0000
,
1001
0000
1000
0000
0200
0000
0310
0100
1000
0010
0100
0000
0001
0000
0010
0000
,
0110
0100
1100
1000
1002
0000
0100
0013
,
0001
0000
0100
0000
0010
0000
1000
0010
1000
0001
0010
0000
0100
0000
1000
0000
,
0001
0001
0100
0010
1010
0010
0101
0000
,
0001
0000
1000
0000
0200
0310
0100
1000
0010
0100
0001
0000
0010
0001
0100
0000
,
0010
0010
1000
0001
0021
0000
0100
1030
,
0010
0000
0001
0000
1000
0010
0001
0010
1000
0000
0001
0000
0010
0000
0000
0000
,
0100
0000
0020
0000
0031
0010
0100
0000
1100
0000
1000
0000
0011
0001
1000
0000
,
0001
0000
0000
0000
0010
0000
0000
0000
0100
0000
0000
0000
1000
0000
0000
0000
0000
0000
0000
0000
0000
0001
0000
0000
1000
0000
0000
0000
0000
0000
0000
0000
0000
0000
0000
0000
0000
0000
0000
0000
0000
0000
0000
0000
0000
0000
0000
0000
,
0000
0000
0000
0000
0000
0000
0000
0000
0000
0000
0000
0000
0010
0000
0000
0000
1000
0000
0000
0000
0001
0000
0000
0000
0100
0000
0000
0000
0000
0000
0000
0000
0000
0001
0000
0000
0000
0000
0000
0000
0000
0000
0010
0000
0000
0000
0000
0000
,
0010
0000
0000
0000
0100
0000
0000
0000
1000
0000
0000
0000
0001
0000
0000
0000
0000
0000
0000
0000
0000
0100
0000
0000
0001
0000
0000
0000
0000
0000
0000
0000
0000
0000
0000
0000
0000
0000
0000
0000
0000
0000
0000
0000
0000
0000
0000
0000
,
0000
0000
0000
0000
0000
0000
0000
0000
0000
0000
0000
0010
0100
1000
0001
0100
,
0000
0000
0000
0000
0010
0000
0000
0000
0100
0000
0000
0000
0010
0000
0000
0000
0000
0000
0000
0000
0000
0100
0000
0000
0001
0000
0000
0000
0000
0000
0000
0000
0000
0000
0000
0000
1000
0000
0000
0000
0000
0000
1000
0000
0000
0000
0000
0000
,
0100
0000
0000
0000
0000
0000
0000
0000
0000
0000
0000
0000
0010
0000
0000
0000
0100
0000
0000
0000
0010
0000
0000
0000
0100
0000
0000
0000
0000
0000
0000
0000
0000
1000
0000
0000
0000
0000
0000
0000
0000
0000
0001
0000
0000
0100
0000
0000
,
0001
0000
0000
1000
0001
0000
0010
0000
0100
0000
0000
0000
0010
0000
0010
0000
,
0001
0000
0000
0000
0000
0000
0000
0000
0000
0000
0000
0000
1000
0000
0000
0000
0010
0000
0000
0000
0100
0000
0000
0000
0001
0000
0000
0000
0000
0000
0000
0000
0000
1000
0000
0000
0000
0000
0000
0000
0000
0000
0000
0000
0000
0000
0000
0000
,
1001
0000
0001
0000
0100
0001
0100
0000
0010
0000
0000
0000
1000
0000
0002
0000
,
0010
1000
0103
0000
0101
0001
1000
0100
,
0010
0000
0100
0000
1000
0000
0010
0000
0001
0000
0001
0010
1000
0000
0002
0000
,
0010
0000
1003
0000
0001
0000
2000
0000
0010
0000
3001
1000
0010
0000
0100
0000
,
0010
0000
0000
0100
0002
0000
1000
0000
0013
0000
0001
0010
1000
0000
0010
0000
,
0100
0000
0000
0000
0110
0000
0200
0000
1300
0000
1000
0100
0001
0000
0100
0010
,
0001
0000
0001
0000
1000
0000
0010
0000
0100
0000
0001
0100
1000
0000
0200
0000
,
0010
0301
0100
0002
0010
1003
0000
0000
,
0002
0023
0230
2000
0000
0000
0000
0000
,
0000
0000
0300
3000
,
2000
3020
0230
0002
0000
0000
0000
0000
,
0000
0000
0303
0000
;

//---------------dance-double - NewbStepper-BDP----------------
#NOTES:
     dance-double:
     NewbStepper:
     Easy:
     5:
     :
00000000
00000000
00000000
00000000
,
00000000
00000000
00000000
00000000
,
00000000
00000000
00000000
00000000
,
00000000
00000000
00000000
00100000
,
10000000
00010000
00000000
00000000
,
00000000
00000000
10000000
01000000
,
00100000
00010000
00000000
00000000
,
00000000
00000000
00001000
00000010
,
00000100
00000000
00000001
00000000
,
00001000
00001000
00000001
00000000
,
00000011
00000010
00000100
00001000
,
00010000
00100000
01000000
10000000
,
00010000
00000000
01000000
00010000
,
00001000
00000010
00000100
00000001
,
00001000
00000000
00000010
00001000
,
00010000
01000000
00100000
10000000
,
00010000
00000000
10000000
00100000
,
00010000
00001000
00000010
00000001
,
00001001
00000000
00000001
00000100
,
00001000
00010000
01000000
10000000
,
10010000
00000000
10000000
01000000
,
00010000
00001000
00000100
00000001
,
00001001
00000000
00000001
00000010
,
00001000
00010000
00100000
10000000
,
10010000
00010000
00010000
10000000
,
10000000
00000000
00100000
01000000
,
00010000
00001000
00001000
00000010
,
00000010
00000100
00000001
00000001
,
00000000
00001000
00000001
00000100
,
00001000
00010000
00100000
10000000
,
00000000
01000000
00100000
01000000
,
00010000
00001000
00011000
00011000
,
00010000
00001000
00000100
00000001
,
00000000
00000010
00000001
00000100
,
00000000
00000010
00001000
00000100
,
00000000
00100000
00010000
01000000
,
00000000
00100000
10000000
01000000
,
00000000
10000000
01000000
00010000
,
00001000
00000010
00000001
00001000
,
00000010
00000100
00000101
00000000
,
00001000
00000000
00000001
00000010
,
00001000
00010000
00100000
10000000
,
10010000
00000000
10000000
01000000
,
00010000
00001000
00000100
00000001
,
00001001
00000000
00000001
00000010
,
00001000
00010000
00100000
10000000
,
10010000
00000000
10000000
01000000
,
00010000
00001000
00000100
00000001
,
00001001
00000000
00000000
00000000
,
00000000
00000100
00000010
00000100
,
00001000
00000000
00010000
00000000
,
00000000
00000000
00000000
00100000
,
10000000
00010000
00000000
00000000
,
00000000
00000000
10000000
01000000
,
00100000
00010000
00000000
00000000
,
00000000
00000000
00001000
00000010
,
00000100
00000000
00000001
00000000
,
00001000
00001000
00000001
00000000
,
00000011
00000010
00000100
00001000
,
00010000
00100000
01000000
10000000
,
00010000
00000000
01000000
00010000
,
00001000
00000010
00000100
00000001
,
00001000
00000000
00000010
00001000
,
00010000
01000000
00100000
10000000
,
00010000
00000000
00000000
00000000
;

//---------------dance-double - NewbStepper-DDP----------------
#NOTES:
     dance-double:
     NewbStepper:
     Medium:
     9:
     :
00000000
00000000
00000000
00000000
,
00000000
00000000
00000000
00000000
,
00000000
00000000
00000000
00000000
,
00000000
00000000
00000000
00000000
00000000
00000000
00000000
00000000
00000000
00000000
00000000
00000000
00010000
00000000
00000000
00001000
,
00000000
00000000
00010000
00000000
00001000
00000000
00000000
00000010
00000000
00000000
00000000
00000000
00000000
00000000
00000000
00000000
,
00000000
00000000
00000000
00000000
00000000
00000000
00000000
00000000
00000001
00000000
00000000
00000100
00000000
00000000
00001000
00000000
,
00010000
00000000
00000000
01000000
00000000
00000000
00000000
00000000
00000000
00000000
00000000
00000000
00000000
00000000
00000000
00000000
,
00000000
00000000
00000000
00000000
00000000
00000000
10000000
00000000
01000000
00000000
00000000
00010000
00000000
00000000
00000000
00000000
,
00001000
00000000
00100000
00000000
00010000
00000000
10000000
00200000
,
00000000
00000000
00310000
00001000
,
00010000
00001000
00010000
00000000
00001000
00000010
00000001
00000100
,
00000010
00000000
00001000
00000000
00000001
00000100
00001000
00010000
,
00000000
00000000
00011000
00000000
00010000
00100000
10000000
01000000
,
00100000
00000000
00010000
00000000
10000000
01000000
00010000
00001000
,
00000000
00000000
00011000
00000000
00001000
00000100
00000001
00000010
,
00000100
00000000
00010000
00002000
00000000
00013000
00000000
00000000
,
00200000
00000000
00300000
10000000
01000000
00100000
00010000
00000000
,
01000000
00000000
00100000
00000000
00010000
00000000
00001000
00000000
00010000
00000000
00000000
00001000
00000000
00000000
00000000
00000000
,
00000020
00000000
00000030
00000001
00000100
00000010
00001000
00000000
,
00000100
00000000
00000010
00000000
00001000
00000000
00010000
00000000
00001000
00000000
00000000
00010000
00000000
00000000
00000000
00000000
,
02000000
00000000
03000000
10000000
00100000
01000000
00010000
00000000
,
00100000
00000000
01000000
00000000
00010000
00000000
00001000
00000000
00010000
00000000
00000000
00001000
00000000
00000000
00000000
00000000
,
00000200
00000000
00000300
00000001
00000010
00000100
00001000
00000000
,
00000010
00000100
00001000
00010000
00002000
00000000
00023000
00000000
,
00130000
00000000
10000000
01000000
00100000
00000000
01000000
00100000
,
00010000
00100000
00001000
00010000
,
00000010
00000000
00001000
00000100
00000010
00000000
00000100
00000010
,
00000001
00000000
00000001
00000100
00000010
00000000
00000100
00000010
,
00001000
00000000
00000000
00000000
00000010
00000000
00010000
00000000
00001000
00000000
00000000
00010000
00000000
00000000
00100000
00000000
,
10000000
00000000
00000000
00000000
01000000
00000000
00100000
00000000
00010000
00000000
00000000
01000000
00000000
00000000
00001000
00000000
,
00010000
00000000
00000000
00000000
00000100
00000000
00000010
00000000
00000100
00000000
00000000
00001000
00000000
00000000
00000001
00000000
,
00000100
00000000
00000000
00000010
00000000
00000000
00001000
00000000
00000100
00000000
00010000
00000000
00001000
00000000
00100000
00000000
,
00010000
00000000
10000000
00000000
01000000
00000000
00010000
00000000
00001000
00000000
00000000
00000100
00000000
00000000
00000100
00000000
,
00000001
00000000
00001000
00001000
00000200
00000000
00000310
00000000
,
00001000
00000000
00010000
00010000
00002000
00000000
00003010
00000000
,
00001000
00000000
00100000
00100000
00020000
00000000
01030000
00000000
,
00100000
00000000
10000000
10000000
02000000
00000000
03010000
00000000
,
00000000
00001000
00010000
00001000
00100000
00000000
01000000
00100000
,
01000000
00000000
10000000
01000000
00010000
00000000
00001000
00000100
,
00000001
00000000
00000100
00001000
00010000
00000000
00000000
00000000
,
00200000
00000000
00300000
10000000
01000000
00100000
00010000
00000000
,
01000000
00000000
00100000
00000000
00010000
00000000
00001000
00000000
00010000
00000000
00000000
00001000
00000000
00000000
00000000
00000000
,
00000020
00000000
00000030
00000001
00000100
00000010
00001000
00000000
,
00000100
00000000
00000010
00000000
00001000
00000000
00010000
00000000
00001000
00000000
00000000
00010000
00000000
00000000
00000000
00000000
,
02000000
00000000
03000000
10000000
00100000
01000000
00010000
00000000
,
00100000
00000000
01000000
00000000
00010000
00000000
00001000
00000000
00010000
00000000
00000000
00001000
00000000
00000000
00000000
00000000
,
00000200
00000000
00000300
00000001
00000010
00000100
00001000
00000000
,
00000010
00000100
00001000
00010000
00001000
00000000
00010000
00000000
,
01000000
00000000
00000000
00000000
,
00000000
00000000
00000000
00000000
00000000
00000000
10000000
00000000
00000000
10000000
00000000
00000000
01000000
00000000
00000000
00000000
00010000
00000000
00000000
00000000
00000000
00001000
00000000
00000000
,
00010000
00000100
00001000
00000001
00000000
00000000
00000000
00000000
,
00000000
00000000
00000000
00000000
00000000
00000000
00000000
00000000
00000000
00000000
00000000
00000000
00010000
00000000
00000000
00001000
,
00000000
00000000
00010000
00000000
00001000
00000000
00000000
00000010
00000000
00000000
00000000
00000000
00000000
00000000
00000000
00000000
,
00000000
00000000
00000000
00000000
00000000
00000000
00000000
00000000
00000001
00000000
00000000
00000100
00000000
00000000
00001000
00000000
,
00010000
00000000
00000000
01000000
00000000
00000000
00000000
00000000
00000000
00000000
00000000
00000000
00000000
00000000
00000000
00000000
,
00000000
00000000
00000000
00000000
00000000
00000000
10000000
00000000
01000000
00000000
00000000
00010000
00000000
00000000
00000000
00000000
,
00001000
00000000
00100000
00000000
00010000
00000000
10000000
00200000
,
00000000
00000000
00310000
00001000
,
00010000
00001000
00010000
00000000
00001000
00000010
00000001
00000100
,
00000010
00000000
00001000
00000000
00000001
00000100
00001000
00010000
,
00000000
00000000
00011000
00000000
00010000
00100000
10000000
01000000
,
00100000
00000000
00010000
00000000
10000000
01000000
00010000
00001000
,
00000000
00000000
00011000
00000000
00001000
00000100
00000001
00000010
,
00000100
00000000
00010000
00002000
00000000
00013000
00000000
00000000
,
00100000
00000000
00000000
00000000
;

//---------------dance-double - NewbStepper-EDP----------------
#NOTES:
     dance-double:
     NewbStepper:
     Hard:
     13:
     :
00000000
00000000
00000000
00000000
,
00000000
00000000
00000000
00000000
,
00000000
00000000
00000000
00000000
,
00000000
00000000
00000000
00000000
00000000
00000000
00000000
00000000
00001000
00010000
00001000
00010000
,
00001000
00010000
00001000
00100000
00000000
01000000
00000000
00000000
00000000
00000000
00000000
00000000
,
00000000
00000000
00000000
00000000
00000000
00000000
00000000
00000000
00000000
00000000
00000000
00000000
00000000
00000000
00000000
00000000
10000000
00000000
00000000
00000000
10000000
00000000
00000000
00000000
00100000
00000000
00000000
00000000
00000000
00000000
00000000
00000000
00000000
00010000
00000000
00000000
00000000
00000000
00000000
00000000
00000000
00000000
00001000
00000000
00000000
00000010
00000000
00000000
,
00000001
00000100
00000000
00000000
,
00000000
00000000
00000000
00000000
00000000
00000000
00000000
00000000
00000000
00000000
00000000
00000000
00000000
00000000
00000000
00000000
00000001
00000000
00000000
00000000
00000001
00000000
00000000
00000000
00000010
00000000
00000000
00000000
00000000
00000000
00000000
00000000
00000000
00001000
00000000
00000000
00000000
00000000
00000000
00000000
00000000
00000000
00000000
00000000
00000000
00000000
00000000
00000000
,
00011000
00000000
01000000
00100000
10000000
01000000
00010000
00001000
,
00000010
00000001
00000100
00000010
00001000
00000001
00000010
00001000
,
00010000
00000000
00000000
00000000
00011000
00000000
00000000
00000000
00100000
00000000
10000000
00100000
10000000
00000000
01000000
00000000
,
00010000
00000000
00000000
00000000
00011000
00000000
00000000
00000000
00000010
00000000
00000001
00000010
00000001
00000000
00000100
00000000
,
00001000
00000000
00000000
00000000
00011000
00000000
00000000
00000000
01000000
00000000
10000000
01000000
10000000
00000000
00100000
00000000
,
00010000
00000000
00000000
00000000
00011000
00000000
00000000
00000000
00000100
00000000
00000001
00000100
00000001
00000000
00000010
00000000
,
00001000
00000000
00000000
00000000
00010000
00000000
00001000
00000000
00000010
00000000
00001000
00000010
00001000
00000000
00010000
00000000
,
00100000
00000000
10000000
00020000
00000000
01030000
00000000
00000000
,
00100000
00000000
00000000
00000000
10000000
00000000
01000000
00100000
01000000
00100000
00001000
00000000
00010000
00000000
00100000
00000000
,
00010000
00000000
00001000
00000000
00000010
00000000
00000001
00000000
00001000
00000000
00000000
00001001
00000000
00000000
00000000
00000000
,
00000010
00000000
00000000
00000000
00000001
00000000
00000100
00000010
00000100
00000010
00010000
00000000
00001000
00000000
00000010
00000000
,
00001000
00000000
00010000
00000000
00100000
00000000
10000000
00000000
00010000
00000000
00000000
10010000
00000000
00000000
00000000
00000000
,
11000000
00000000
00000000
00000000
00000000
10000000
00010000
10000000
01000000
00100000
01000000
00000000
00010000
00001000
00010000
00000000
,
00001000
00000000
00000010
00000000
00000001
00000000
00000100
00000000
00000010
00000000
00000000
00001001
00000000
00000000
00000000
00000000
,
00001010
00000000
00000000
00000000
00000000
00000001
00000100
00000001
00000010
00000000
00001000
00000000
00010000
00000000
00000000
00000000
,
00100000
00000000
10000000
00000000
00010000
01000000
00010000
00000000
00100000
00000000
00000000
00000000
01000000
00000000
00000000
00000000
,
10010000
00000000
10000000
01000000
00020000
00000000
00031000
00100000
,
00020000
00031000
00001100
00000001
,
00001000
00000000
00000001
00000100
00002000
00000000
00013000
00000010
,
00002000
00000000
00013000
01000000
00200000
00000000
10300000
01000000
,
00200000
00000000
00000000
00000000
00310000
01000000
00010000
00000000
10000000
00000000
00000000
01000000
00010000
00000000
00001000
00010000
,
00001000
00000000
00000000
00000010
00000001
00000000
00000100
00000010
00000100
00000000
00000000
00000100
00001000
00000000
00010000
00001000
,
00010000
00000000
00000000
00100000
10000000
00010000
10000000
00010000
01000000
00000000
00000000
01000000
00100000
00000000
00010000
00001000
,
00020000
00000000
00000000
00000000
00031000
00000010
00001000
00000010
00000100
00000000
00010000
00001000
00010000
00000000
00001000
00000000
,
00000010
00000000
00000001
00001000
00000001
00000000
00000100
00000000
00000010
00000000
00000000
00001000
00000000
00000000
00000100
00010000
,
00001000
00000000
00000000
00000000
00010000
00000000
00100000
00000000
10000000
00000000
00000000
00010000
10000000
00000000
00000000
00000000
,
01000000
00000000
00000000
00010000
00001000
00000000
00000010
00000000
00000001
00000000
00000000
00001000
00000001
00000000
00000000
00000100
,
00001000
00000000
00000000
00000000
00010000
00000000
01000000
00000000
10000000
00000000
00000000
00010000
10000000
00000000
00000000
00000000
,
00100000
00000000
00000000
00010000
00001000
00000000
00000100
00000000
00000001
00000000
00000000
00001000
00000001
00000000
00000000
00000000
,
00000100
00000000
00000010
00000000
00010000
00001000
00010000
00000000
00100000
00000000
00010000
00000000
00001000
00010000
00001000
00000000
,
00000010
00000000
00001000
00000000
00010000
00001000
00010000
00000000
01000000
00000000
00010000
00000000
00001000
00010000
00001000
00000000
,
00000100
00000000
00001000
00000000
00010000
00001000
00010000
00000000
00011000
00000000
00000000
00000000
00000000
00000000
00000000
00000000
,
00100000
00000000
00000000
00000000
10000000
00000000
01000000
00100000
01000000
00100000
00001000
00000000
00010000
00000000
00100000
00000000
,
00010000
00000000
00001000
00000000
00000010
00000000
00000001
00000000
00001000
00000000
00000000
00001001
00000000
00000000
00000000
00000000
,
00000010
00000000
00000000
00000000
00000001
00000000
00000100
00000010
00000100
00000010
00010000
00000000
00001000
00000000
00000010
00000000
,
00001000
00000000
00010000
00000000
00100000
00000000
10000000
00000000
00010000
00000000
00000000
10010000
00000000
00000000
00000000
00000000
,
11000000
00000000
00000000
00000000
00000000
10000000
00010000
10000000
01000000
00100000
01000000
00000000
00010000
00001000
00010000
00000000
,
00001000
00000000
00000010
00000000
00000001
00000000
00000100
00000000
00000010
00000000
00000000
00001001
00000000
00000000
00000000
00000000
,
00001010
00000000
00000000
00000000
00000000
00000001
00000100
00000001
00000010
00000000
00001000
00000000
00010000
00000000
00000000
00000000
,
00100000
00000000
10000000
00000000
00010000
01000000
00010000
00000000
00100000
00000000
00000000
00000000
01000000
00000000
00000000
00000000
,
00010000
00001000
00010000
00000010
00000000
00000100
00000000
00000000
00000000
00000000
00000000
00000000
,
00000000
00000000
00000000
00000000
00000000
00000000
00000000
00000000
00000000
00000000
00000000
00000000
00000001
00000000
00000000
00000000
00000000
00000000
00000000
00000000
00000001
00000000
00000000
00000000
00000010
00000000
00000000
00000000
00000000
00000000
00000000
00000000
00000000
00001000
00000000
00000000
00000000
00000000
00000000
00000000
00000000
00000000
00010000
00000000
00000000
00000000
00000000
00000000
,
00001000
00100000
00000000
00100000
00010000
00000000
10000000
00000000
00000000
00000000
00000000
00000000
00000000
00000000
00000000
00000000
,
00000000
00000000
00000000
00000000
00000000
00000000
00000000
00000000
00001000
00010000
00001000
00010000
,
00001000
00010000
00001000
00100000
00000000
01000000
00000000
00000000
00000000
00000000
00000000
00000000
,
00000000
00000000
00000000
00000000
00000000
00000000
00000000
00000000
00000000
00000000
00000000
00000000
00000000
00000000
00000000
00000000
10000000
00000000
00000000
00000000
10000000
00000000
00000000
00000000
00100000
00000000
00000000
00000000
00000000
00000000
00000000
00000000
00000000
00010000
00000000
00000000
00000000
00000000
00000000
00000000
00000000
00000000
00001000
00000000
00000000
00000010
00000000
00000000
,
00000001
00000100
00000000
00000000
,
00000000
00000000
00000000
00000000
00000000
00000000
00000000
00000000
00000000
00000000
00000000
00000000
00000000
00000000
00000000
00000000
00000001
00000000
00000000
00000000
00000001
00000000
00000000
00000000
00000010
00000000
00000000
00000000
00000000
00000000
00000000
00000000
00000000
00001000
00000000
00000000
00000000
00000000
00000000
00000000
00000000
00000000
00000000
00000000
00000000
00000000
00000000
00000000
,
00011000
00000000
01000000
00100000
10000000
01000000
00010000
00001000
,
00000010
00000001
00000100
00000010
00001000
00000001
00000010
00001000
,
00010000
00000000
00000000
00000000
00011000
00000000
00000000
00000000
00100000
00000000
10000000
00100000
10000000
00000000
01000000
00000000
,
00010000
00000000
00000000
00000000
00011000
00000000
00000000
00000000
00000010
00000000
00000001
00000010
00000001
00000000
00000100
00000000
,
00001000
00000000
00000000
00000000
00011000
00000000
00000000
00000000
01000000
00000000
10000000
01000000
10000000
00000000
00100000
00000000
,
00010000
00000000
00000000
00000000
00011000
00000000
00000000
00000000
00000100
00000000
00000001
00000100
00000001
00000000
00000010
00000000
,
00001000
00000000
00000000
00000000
00010000
00000000
00001000
00000000
00000010
00000000
00001000
00000010
00001000
00000000
00010000
00000000
,
00100000
00000000
10000000
00020000
00000000
01030000
00000000
00000000
,
00100000
00000000
00000000
00000000
;
