#TITLE:LOVE IS THE POWER -Re\:born-(XX-Special);
#ARTIST:NM;
#BANNER:LOVE IS THE POWER -Reborn-(XX-Special).png;
#BACKGROUND:LOVE IS THE POWER -Reborn-(XX-Special)-bg.png;
#MUSIC:LOVE IS THE POWER -Reborn-(XX-Special).ogg;
#SAMPLESTART:17.3;
#SAMPLELENGTH:15;
#BPMS:0=125;

//---------------dance-single - Kekkle-CSP----------------
#NOTES:
     dance-single:
     Kekkle:
     Challenge:
     14:
     :
0000
0000
0000
0000
,
0000
0000
0000
0000
,
0000
0000
0000
0000
,
0000
0000
0000
0000
,
0000
0000
0000
0000
,
1001
0000
0001
0000
0000
0001
0000
0000
0010
0000
0010
0000
0000
0100
0000
0000
,
0010
0000
0000
0010
0000
0000
2000
0000
0000
0000
0001
0000
0000
0000
3010
0000
,
0001
0000
1000
0000
0000
1000
0000
0000
0010
0000
0000
0010
0000
0000
0100
0000
,
0010
0000
0000
0010
0000
0000
0002
0000
0000
0000
1000
0000
0000
0000
0013
0000
,
0100
0000
0001
0000
1000
0200
0000
0001
0000
0310
0000
0000
0011
0000
1000
0000
,
0010
0000
1000
0000
0001
0010
0000
1000
0010
0100
0000
0100
1000
0000
0001
0000
,
0010
0000
0001
0000
1000
0020
0000
0001
0000
0130
0000
0000
0101
0000
1000
0000
,
0100
0000
1000
0000
0001
0100
0000
1000
0100
0010
0000
0010
1000
0000
0001
0000
,
0020
0000
0000
0000
1000
0000
0000
0031
1000
0001
0000
0001
1000
0000
0010
0000
,
0200
0000
0000
0000
1000
0000
0000
0301
1000
0001
0000
0001
1000
0000
0100
0000
,
0020
0000
0000
0000
1000
0000
0000
0031
1000
0010
0000
0010
1000
0000
0001
0000
,
0200
0000
0000
0000
1000
0000
0000
0301
1000
0100
0000
0100
1000
0000
0001
0000
,
0100
0001
0100
1000
0100
0010
0000
1000
0000
0002
0000
0000
0010
0000
0000
0000
,
1003
0000
0010
0000
0100
0001
0100
0010
0100
0001
0000
0001
1000
0000
0100
0000
,
0010
0001
0010
1000
0010
0100
0000
1000
0000
0002
0000
0000
0100
0000
1003
0100
,
0020
0000
0000
0000
1000
0000
0000
0000
0031
0000
1000
0000
0010
0001
0000
0000
,
0010
1000
0010
0001
0010
0100
0000
0001
0000
2000
0000
0000
0100
0000
0000
0000
,
3001
0000
0100
0000
0010
1000
0010
0100
0010
1000
0000
1000
0001
0000
0010
0000
,
0100
1000
0100
0001
0100
0010
0000
0001
0000
2000
0000
0000
0010
0000
0000
0000
,
3001
0000
1000
0100
0010
0000
0001
0010
0100
0000
1000
0010
0100
0000
0001
0000
,
1000
0200
0000
0001
0000
0310
0000
0001
1000
0020
0000
0001
0000
0000
0230
0000
,
0000
0301
0000
0100
0000
1000
0000
0010
0000
0000
0002
0000
0000
0000
1003
0000
,
0001
0020
0000
1000
0000
0130
0000
1000
0001
0200
0000
1000
0000
0000
0320
0000
,
0000
1030
0000
0010
0000
0001
0000
0100
0000
0000
2000
0000
0000
0000
3001
0000
,
1000
0010
0000
0010
0001
0010
0000
0010
0100
0001
0000
0001
1000
0000
0200
0000
,
0000
1300
0000
0100
0000
0001
0000
0010
0000
0000
2000
0000
0000
0000
3001
0000
,
1000
0100
0000
0100
0001
0100
0000
0100
0010
0001
0000
0001
1000
0000
0010
0000
,
0000
1001
0000
0001
0000
0001
0100
0010
1000
0001
1000
0001
0010
0100
1000
0000
,
0201
0000
0000
0000
1300
0000
0001
0010
1000
0000
0001
0000
0010
0000
0100
0000
,
0002
0000
0000
0000
1003
0010
0000
0001
0000
1000
0000
0000
0001
0000
0100
0000
,
1020
0000
0000
0000
0031
0000
1000
0100
0001
0000
1000
0000
0100
0000
0010
0000
,
2000
0000
0000
0000
3001
0100
0000
1000
0000
0001
0010
0000
0010
0000
0000
0000
,
0021
0000
0000
0000
1030
0000
0001
0100
1000
0000
0001
0000
0100
0000
0010
0000
,
0002
0000
0000
0000
1003
0100
0000
0001
0000
1000
0000
0000
0001
0000
0010
0000
,
1200
0000
0000
0000
0301
0000
1000
0010
0001
0000
1000
0000
0010
0000
0100
0000
,
2000
0000
0000
0000
3001
0010
0000
1000
0002
0000
0000
0000
1003
0000
0000
0000
,
1001
0000
0001
0000
0010
1000
0000
0010
0002
0010
0000
0000
1003
0000
0010
0000
,
0200
0000
0001
0000
0301
1000
0000
0100
0010
0100
0000
0100
0010
0000
0100
0000
,
1000
0000
0001
0000
0100
1000
0000
0100
0002
0100
0000
0000
1003
0000
0100
0000
,
0020
0000
0001
0000
0031
1000
0000
0010
0100
0000
0010
0000
0010
0000
0000
0000
,
1001
0000
1000
0000
0010
0001
0000
0010
2000
0001
0000
0000
3001
0000
0010
0000
,
0200
0000
1000
0000
1300
0001
0000
0100
0010
1000
0000
1000
0010
0000
0100
0000
,
0001
0000
1000
0000
0100
0001
0000
0100
2000
0001
0000
0000
3001
0000
0100
0000
,
0020
0000
1000
0000
1030
0001
0010
0100
1000
0001
0100
0010
1000
0100
0010
0001
,
0100
0000
0001
0000
1000
0200
0000
0001
0000
0310
0000
0000
0011
0000
1000
0000
,
0010
0000
0100
0000
0001
1000
0100
1000
0001
1000
0000
1000
0001
0000
0100
0000
,
0010
0000
1000
0000
0001
0020
0000
1000
0000
0130
0000
0000
1100
0000
0001
0000
,
0100
0000
0010
0000
1000
0001
0010
0001
1000
0001
0000
0001
1000
0000
0010
0000
,
0220
0000
0000
0000
,
0330
0000
0000
0000
;

//---------------dance-double - Kekkle-CDP----------------
#NOTES:
     dance-double:
     Kekkle:
     Challenge:
     14:
     :
00000000
00000000
00000000
00000000
,
00000000
00000000
00000000
00000000
,
00000000
00000000
00000000
00000000
,
00000000
00000000
00000000
00000000
,
00000000
00000000
00000000
00000000
,
00011000
00000000
00010000
00000000
00000000
00010000
00000000
00000000
00100000
00000000
00100000
00000000
00000000
10000000
00000000
00000000
,
01000000
00000000
00000000
01000000
00000000
00000000
00020000
00000000
00000000
00000000
00000000
00000000
00000000
00000000
00031000
00000000
,
00000000
00000000
00001000
00000000
00000000
00001000
00000000
00000000
00000010
00000000
00000000
00000010
00000000
00000000
00000001
00000000
,
00000100
00000000
00000000
00000100
00000000
00000000
00002000
00000000
00000000
00000000
00000000
00000000
00000000
00000000
00013000
00000000
,
00001000
00000000
01000000
00000000
00100000
02000000
00000000
10000000
00000000
03100000
00000000
00000000
10100000
00000000
00000000
00000000
,
10000000
00000000
00010000
00000000
00100000
01000000
00000000
00010000
00001000
00010000
00000000
00000000
00011000
00000000
00000000
00000000
,
00010000
00000000
00000100
00000000
00000010
00000200
00000000
00000001
00000000
00000310
00000000
00000000
00000011
00000000
00000000
00000000
,
00000001
00000000
00001000
00000000
00000010
00000100
00000000
00001000
00010000
00001000
00000000
00000000
00011000
00000000
00000000
00000000
,
00020000
00000000
00000000
00000000
00100000
00000000
00000000
00031000
00000000
01000000
00000000
00000000
10010000
00000000
00000000
00000000
,
00020000
00000000
00000000
00000000
10000000
00000000
00000000
00130000
00001000
00010000
00000000
00010000
00001000
00000000
00000000
00000000
,
00002000
00000000
00000000
00000000
00000010
00000000
00000000
00013000
00000000
00000100
00000000
00000000
00001001
00000000
00000000
00000000
,
00002000
00000000
00000000
00000000
00000001
00000000
00000000
00003010
00010000
00001000
00000000
00001000
00010000
00000000
00000000
00000000
,
00001000
00010000
00100000
00010000
00100000
01000000
00000000
00010000
00000000
20000000
00000000
00000000
01000000
00000000
00000000
00000000
,
30010000
00000000
00100000
00000000
01000000
00100000
00010000
00100000
00001000
00010000
00000000
00000000
00011000
00000000
00000000
00000000
,
00010000
00001000
00000010
00001000
00000010
00000100
00000000
00001000
00000000
00000002
00000000
00000000
00000100
00000000
00001003
00000010
,
00020000
00000000
00000000
00000000
00100000
00000000
00000000
00000000
00030010
00000000
00000000
00000000
00010000
00001000
00000000
00000000
,
00010000
00001000
00000100
00001000
00000100
00000010
00000000
00001000
00000000
00000002
00000000
00000000
00000010
00000000
00000000
00000000
,
00001003
00000000
00000100
00000000
00000010
00000100
00001000
00000100
00010000
00001000
00000000
00000000
00011000
00000000
00000000
00000000
,
00001000
00010000
01000000
00010000
01000000
00100000
00000000
00010000
00000000
20000000
00000000
00000000
00100000
00000000
00000000
00000000
,
30010000
00000000
00100000
00001000
00010000
00000000
00000010
00000000
00010000
00000000
00001000
00100000
00010000
00000000
10000000
00000000
,
00100000
00010000
00000000
00001000
00000000
00001000
00000000
00000010
00001000
00000010
00000000
00001000
00000000
00000000
00020000
00000000
,
00000000
00031000
00000000
00000100
00000000
00010000
00000000
01000000
00000000
00000000
00002000
00000000
00000000
00000000
00013000
00000000
,
01000000
00010000
00000000
00001000
00000000
00001000
00000000
00000100
00001000
00000100
00000000
00001000
00000000
00000000
00020000
00000000
,
00000000
00031000
00000000
00000010
00000000
00010000
00000000
00100000
00000000
00000000
00002000
00000000
00000000
00000000
00013000
00000000
,
00100000
00010000
00000000
00010000
00001000
00010000
00000000
00001000
00000010
00001000
00000000
00001000
00010000
00000000
00002000
00000000
,
00000000
00013000
00000000
00100000
00000000
00001000
00000000
00000010
00000000
00000000
00020000
00000000
00000000
00000000
00031000
00000000
,
00000100
00001000
00000000
00001000
00010000
00001000
00000000
00010000
01000000
00010000
00000000
00010000
00001000
00000000
00010000
00000000
,
00000000
00011000
00000000
00001000
00000000
00001000
01000000
00100000
10000000
00010000
10000000
00010000
00100000
01000000
00100000
00000000
,
00102000
00000000
00000000
00000000
00013000
00000000
00100000
00010000
00100000
00000000
10000000
00000000
00010000
00000000
00100000
00000000
,
02000000
00000000
00000000
00000000
03010000
00001000
00000000
00000010
00000000
00000001
00000000
00000000
00001000
00000000
00000010
00000000
,
00020010
00000000
00000000
00000000
00031000
00000000
00000010
00001000
00000010
00000000
00000001
00000000
00001000
00000000
00000010
00000000
,
00000200
00000000
00000000
00000000
00001300
00010000
00000000
00100000
00000000
10000000
00010000
00000000
00010000
00000000
00000000
00000000
,
01002000
00000000
00000000
00000000
00013000
00000000
01000000
00010000
01000000
00000000
10000000
00000000
00010000
00000000
01000000
00000000
,
00200000
00000000
00000000
00000000
00310000
00001000
00000000
00000100
00000000
00000001
00000000
00000000
00001000
00000000
00000100
00000000
,
00020100
00000000
00000000
00000000
00031000
00000000
00000100
00001000
00000100
00000000
00000001
00000000
00001000
00000000
00000100
00000000
,
00000020
00000000
00000000
00000000
00001030
00010000
00000000
01000000
20000000
00000000
00000000
00000000
30010000
00000000
00000000
00000000
,
10010000
00000000
10000000
00000000
00100000
00010000
00000000
00010000
00000010
00010000
00000000
00000000
00001000
00000000
00000010
00000000
,
00000001
00000000
00001000
00000000
00000010
00000100
00000000
00001000
00000000
00010000
00000000
00000000
00100000
00000000
01000000
00000000
,
00010000
00000000
10000000
00000000
01000000
00010000
00000000
00010000
00000100
00010000
00000000
00000000
00001000
00000000
00000100
00000000
,
00000001
00000000
00001000
00000000
00000100
00000010
00000000
00001000
00000000
00010000
00000100
00000000
00000100
00000000
00000000
00000000
,
00001001
00000000
00000001
00000000
00000010
00001000
00000000
00001000
00100000
00010000
00000000
00000000
10000000
00000000
00010000
00000000
,
00100000
00000000
01000000
00000000
00010000
00001000
00000000
00000010
00000000
00000100
00000000
00000000
00000010
00000000
00000100
00000000
,
00001000
00000000
00000001
00000000
00000100
00001000
00000000
00001000
01000000
00010000
00000000
00000000
10000000
00000000
00010000
00000000
,
01000000
00000000
00100000
00000000
00010000
00001000
00000100
00000010
00001000
00000001
00001000
00000001
00000010
00000100
00010000
00001000
,
00100000
00000000
00010000
00000000
10000000
00200000
00000000
00010000
00000000
01300000
00000000
00000000
01010000
00000000
00000000
00000000
,
00010000
00000000
10000000
00000000
01000000
00100000
00010000
00100000
00001000
00010000
00000000
00010000
00000010
00000000
00000000
00000000
,
00000010
00000000
00001000
00000000
00000001
00000020
00000000
00001000
00000000
00000130
00000000
00000000
00001100
00000000
00000000
00000000
,
00001000
00000000
00000001
00000000
00000100
00000010
00001000
00000010
00010000
00001000
00000000
00001000
00100000
00000000
00000000
00000000
,
02200000
00000000
00000000
00000000
,
03300000
00000000
00000000
00000000
;
