#TITLE:LEAD Gravity (M);
#ARTIST:Des-ROW;
#BANNER:LEAD Gravity (M).png;
#BACKGROUND:LEAD Gravity (M)-bg.png;
#MUSIC:LEAD Gravity (M).ogg;
#OFFSET:-0.56;
#SAMPLESTART:77.156;
#SAMPLELENGTH:15;
#BPMS:0=188;

//---------------dance-single - Marten-ESP----------------
#NOTES:
     dance-single:
     Marten:
     Hard:
     11:
     0.532170,0.622901,0.375136,0.348964,0.034896,427,384,43,40,0,0,0.532170,0.622901,0.375136,0.348964,0.034896,427,384,43,40,0,0:
0000
0000
0000
0000
,
0000
0000
0000
0000
,
0000
0000
0000
0000
,
0000
0000
0000
0000
,
2000
0000
0000
0000
,
3002
0000
0000
0000
,
0203
0000
0320
0000
,
2030
0000
3200
0000
,
0310
0000
0010
0001
0000
0001
0000
0000
,
0011
0000
1001
0000
,
1000
0000
1000
0010
0000
0010
0000
0000
,
0110
0000
0010
1000
,
0001
0000
1000
0100
1000
0100
0000
0010
,
0000
0001
0000
1000
0000
0001
0100
0001
,
0100
0000
0010
0000
0100
0001
0000
0001
,
1000
0000
1000
0010
0000
0100
0010
0100
,
0001
0100
0001
0000
0000
0101
0000
0000
,
0001
0100
0001
0000
0000
0000
0000
0000
,
1000
0100
1000
0000
0000
1100
0000
0000
,
1000
0100
1000
0000
0000
0000
0000
0000
,
0001
0010
0001
0000
0000
0011
0000
0000
,
0001
0010
0001
0000
0000
1000
0000
0010
,
1000
0010
1000
0000
0000
1010
0000
1000
,
0010
0000
0100
0000
0001
1000
0001
1000
,
0100
1000
0010
0000
0000
0110
0000
0000
,
0100
0001
0010
0000
0000
0000
0000
0000
,
0001
1000
0010
0000
0000
0110
0000
0000
,
0010
1000
0100
0000
0000
0000
0000
0000
,
0010
0001
1000
0000
0000
1001
0000
0000
,
0001
1000
0010
0000
0000
0110
0000
0010
,
0100
0001
0100
0000
0000
0101
0000
0001
,
1000
0000
0100
1000
0000
1000
0010
1000
,
0010
0000
0000
0010
0000
0000
0010
0000
0000
0000
0100
0000
0000
0000
0100
0000
,
0001
0000
0000
0001
0000
0000
0001
0000
0000
0000
0000
0000
1001
0000
0000
0000
,
1000
0000
0000
1000
0000
0000
1000
0000
0000
0000
0010
0000
0000
0000
0010
0000
,
0100
0000
0000
0100
0000
0000
0100
0000
0000
0000
0000
0000
0110
0000
0000
0000
,
0010
0000
0000
1000
0000
0000
0001
0000
0000
0000
0001
0000
0000
0000
0001
0000
,
0010
0000
0000
0001
0000
0000
1000
0000
0000
0000
1000
0000
0000
0000
1000
0000
,
0100
0000
0000
1000
0000
0000
0001
0000
0000
0000
0001
0000
0000
0000
0001
0000
,
0100
0000
0000
0001
0000
0000
1000
0000
0000
0000
1000
0000
0000
0000
1000
0000
,
0010
1000
0100
0000
0010
0001
0100
0000
,
0001
0100
0010
0000
1000
0100
0010
0000
,
0001
0010
0001
0010
0100
1000
0100
1000
,
0001
0100
0010
1000
0001
1000
0000
1000
,
0200
2300
3020
0230
,
0302
0023
0032
2003
,
3020
0230
0320
2030
,
3200
0000
0320
0000
0032
0000
0103
0001
,
0200
0000
0310
1000
0010
1000
0020
0000
,
0230
0302
2003
3200
,
0320
0032
0023
0230
,
1300
0100
1000
0100
0010
0100
0010
0001
,
1000
1000
1000
1000
,
0001
0001
0001
0001
,
0101
0000
0001
0100
0010
0000
1000
0100
,
0010
0000
0001
1000
0001
0000
1000
0010
,
0100
0000
0100
0001
1000
0001
1000
0000
,
0100
0100
0010
0010
,
0001
0000
0010
0100
1000
0000
0010
0100
,
0001
0000
1000
0100
1000
0000
0001
0100
,
0001
0000
0100
0010
1000
0010
0100
0000
,
0001
0010
1000
0010
,
0012
1003
2100
3010
,
0210
0000
0301
0000
2001
0000
3100
0010
,
0002
0000
1003
0100
1000
0010
1000
0001
,
1000
0010
0100
0001
,
0102
1003
1020
0130
,
1002
0000
0013
0000
0120
0000
0130
1000
,
0001
0101
0001
0011
,
0001
1001
0001
0101
,
1000
1100
1000
1001
,
1000
1010
1000
1001
,
1000
0010
1000
0010
0100
0010
0100
0010
,
0100
0001
0100
0001
1000
0001
1000
0001
,
1000
0100
0010
0001
1000
0001
1000
0000
,
0001
0100
0010
1000
0001
0000
0001
1000
,
0010
0000
1000
0010
0100
0000
0101
0000
,
0110
1010
1100
1001
,
0011
0000
1000
0010
1000
0000
0001
0010
,
0001
0000
1000
0100
1000
0000
0001
0100
,
0001
0000
1000
0010
0100
0010
1000
0000
,
1010
0110
0101
1001
,
0011
0010
0110
0100
,
1000
0010
0100
0001
1000
0100
0010
0001
,
1000
0000
0000
0000
;

//---------------dance-single - Marten-DSP----------------
#NOTES:
     dance-single:
     Marten:
     Medium:
     9:
     0.444929,0.476336,0.174482,0.191930,0.034896,357,337,20,22,0,0,0.444929,0.476336,0.174482,0.191930,0.034896,357,337,20,22,0,0:
0000
0000
0000
0000
,
0000
0000
0000
0000
,
0000
0000
0000
0000
,
0000
0000
0000
0000
,
0002
0000
0000
0000
,
2003
0000
0000
0000
,
3200
0000
0320
0000
,
0032
0000
2003
0000
,
3010
0000
0000
0010
0000
0010
0000
0000
,
0110
0000
0100
0000
,
0001
0000
1000
0001
0000
0001
0000
0000
,
1001
0000
0001
0010
,
0100
0000
1000
0000
0100
1000
0000
0001
,
0000
1000
0000
0001
0000
0100
0001
0000
,
0010
0000
0010
0000
0100
0010
0000
0010
,
0001
1000
0010
0100
,
0001
0100
0001
0000
0000
1000
0000
0000
,
0100
1000
0100
0000
0000
0000
0000
0000
,
0010
0001
0010
0000
0000
0001
0000
0000
,
1000
0010
1000
0000
0000
0000
0000
0000
,
0001
1000
0001
0000
0000
0100
0000
0000
,
0010
0100
0010
0000
0000
1000
0000
0000
,
0001
0010
0001
0000
0000
1000
0000
1000
,
0010
0100
0001
0010
,
0100
1000
0100
0000
0000
1100
0000
0000
,
0010
0001
0010
0000
0000
0000
0000
0000
,
0001
0100
0001
0000
0000
0101
0000
0000
,
1000
0010
1000
0000
0000
0000
0000
0000
,
0010
1000
0010
0000
0000
1010
0000
0000
,
0100
0001
0100
0000
0000
0011
0000
0000
,
0001
0010
0001
0000
0000
0110
0000
0100
,
1000
0000
0001
1000
0000
0100
0010
0000
,
0001
0000
0000
0001
0000
0000
0001
0000
0000
0000
0100
0000
0000
0000
0010
0000
,
1000
0000
0000
1000
0000
0000
1000
0000
0000
0000
0000
0000
0000
0000
0000
0000
,
1000
0000
0000
1000
0000
0000
1000
0000
0000
0000
0100
0000
0000
0000
0010
0000
,
0001
0000
0000
0001
0000
0000
0001
0000
0000
0000
0000
0000
0100
0000
0000
0000
,
0001
0000
0000
0001
0000
0000
0001
0000
0000
0000
1000
0000
0000
0000
0010
0000
,
1000
0000
0000
1000
0000
0000
1000
0000
0000
0000
0100
0000
0000
0000
0010
0000
,
0001
0000
0000
0001
0000
0000
0001
0000
0000
0000
0100
0000
0000
0000
0010
0000
,
1000
0000
0000
1000
0000
0000
1000
0000
0000
0000
0100
0000
0000
0000
2000
0000
,
0000
3020
0000
0230
0000
0302
0000
0023
,
0000
0032
0000
2003
0000
3200
0000
0320
,
0000
0032
0000
0203
0000
0302
0000
2003
,
0000
3020
0000
0230
0000
0302
0000
1003
,
0100
1000
0010
0100
,
0001
0100
1000
0100
,
0001
0001
1000
1000
,
0100
0000
0100
0000
0010
0000
0010
0001
,
0010
0000
0100
1000
0001
0000
0100
0000
,
0010
0100
0001
1000
,
1010
0010
0100
0100
,
0001
0000
0001
0000
1000
0000
0100
0010
,
0100
0000
1000
0010
1000
0000
0001
0000
,
0010
0001
0100
0010
,
1000
0000
0001
0010
0001
0000
1000
0010
,
1000
0001
0010
0100
,
1000
0000
0001
0100
0001
0000
0010
0000
,
0001
0010
0100
1000
,
0010
0000
1000
0001
1000
0000
0100
0010
,
0100
0000
0010
0001
0010
0000
0100
1000
,
0100
0000
0010
0001
1000
0000
0010
0000
,
0100
0001
0100
0010
,
1010
1000
1001
1000
,
1100
1000
1001
1000
,
0100
0000
0010
0001
0010
0000
0001
0000
,
1000
0010
0100
0001
,
0101
0001
1001
0001
,
0011
0001
1001
0001
,
0100
0000
0010
0100
0010
0000
1000
0000
,
0001
0010
0100
1000
,
1001
0100
0010
0100
,
0110
0010
1000
0001
,
0010
0000
0001
0100
0001
0100
0001
0000
,
1000
0000
0010
0000
0100
0010
0100
0000
,
0010
0000
1000
0000
0001
0010
0100
0000
,
1000
0000
0010
0000
0100
0001
1000
0000
,
0001
0000
0100
0010
0100
0000
0001
0000
,
1000
0010
0100
0001
,
1001
1000
0100
0010
,
0001
0000
0100
0000
0001
0000
1000
0010
,
1000
0000
0100
0000
0010
0001
0010
0000
,
0001
0010
0100
1000
,
1010
0010
0100
0010
,
0100
0000
0001
0000
1000
0001
1000
0001
,
0100
0000
0000
0000
;

//---------------dance-single - Marten-BSP----------------
#NOTES:
     dance-single:
     Marten:
     Easy:
     7:
     0.351457,0.512977,0.209378,0.139586,0,282,258,24,16,0,0,0.351457,0.512977,0.209378,0.139586,0,282,258,24,16,0,0:
0000
0000
0000
0000
,
0000
0000
0000
0000
,
0000
0000
0000
0000
,
0000
0000
0000
0000
,
2000
0000
0000
0000
,
3002
0000
0000
0000
,
0203
0000
0320
0000
,
2030
0000
3002
0000
,
0013
0000
0000
0010
0000
0000
0000
0000
,
0110
0000
0100
0000
,
1000
0000
0000
1000
0000
1000
0000
0000
,
0001
0000
0100
0001
,
1000
1000
0100
0000
,
0010
0010
0100
1000
,
0001
0001
0100
0100
,
0010
0100
0001
1000
,
0010
0000
0010
0000
0000
0100
0000
0000
,
0001
0001
0000
0000
,
0010
0000
0010
0000
0000
0100
0000
0000
,
1000
1000
0000
0000
,
0001
0000
0100
0000
0000
0001
0000
0000
,
1000
0000
1000
0000
0000
0100
0000
0000
,
0010
0000
0100
0000
0000
1000
0000
0000
,
0010
0100
0001
1000
,
0001
0000
1000
0000
0000
1001
0000
0000
,
1000
0001
0000
0000
,
0010
0000
0100
0000
0000
0110
0000
0000
,
0100
0010
0000
0000
,
0001
0000
0100
0000
0000
0101
0000
0000
,
0001
0000
1000
0000
0000
1100
0000
0000
,
1000
0000
0010
0000
0000
1010
0000
0000
,
0010
0100
0010
1000
,
0001
0000
0000
0001
0000
0000
0001
0000
,
1000
0000
0000
1000
0000
0000
0000
0000
,
0100
0000
0000
0100
0000
0000
0100
0000
,
0010
0000
0000
0010
0000
0000
0100
0000
,
1000
0000
0000
1000
0000
0000
0001
0000
,
0100
0000
0000
0100
0000
0000
0001
0000
,
0010
0000
0000
0010
0000
0000
0100
0000
,
0010
0000
0000
0010
0000
0000
0000
0002
,
0000
0000
0000
2003
0000
0000
0000
3020
,
0000
0000
0000
0230
0000
0000
0000
0302
,
0000
0000
0000
0023
0000
0000
0000
0230
,
0000
0000
0000
2300
0000
0000
0000
3001
,
0000
0000
0100
0000
,
0001
0000
0001
0000
,
1000
0000
1000
0000
,
0100
0000
0100
0000
,
0010
0010
0001
0001
,
1000
1000
0010
0010
,
0100
0000
0010
0000
,
1000
0010
0100
0001
,
1001
1000
0001
0001
,
1000
1000
0001
0001
,
0010
0010
0100
0100
,
0010
0010
0001
0010
,
0100
1000
0100
0010
,
0001
0100
0010
1000
,
0001
0100
0010
0010
,
1000
0010
0100
0001
,
1001
0001
0010
0100
,
1000
0100
0010
0001
,
1001
1000
1001
0001
,
1001
1000
1001
0001
,
1001
1000
0010
0100
,
0001
0010
0100
1000
,
1001
0001
1001
1000
,
1001
0001
1001
1000
,
0010
0110
0100
0001
,
1000
1001
0001
0010
,
0100
0110
0100
1000
,
0001
1001
1000
0010
,
0200
0010
0010
0310
,
0020
0100
0100
0130
,
1000
0100
0010
0001
,
1000
0010
0100
0001
,
1000
0100
0010
0100
,
1000
0010
0100
0001
,
1001
1000
0001
0001
,
0010
0010
0100
0100
,
1000
0100
0010
0001
,
1000
0010
0100
0001
,
1001
0001
1000
1000
,
0001
0010
0100
1000
,
1001
0000
0000
0000
;

//---------------dance-single - Marten-bSP----------------
#NOTES:
     dance-single:
     Marten:
     Beginner:
     3:
     0.147063,0.219847,0.017448,0.061069,0,118,116,2,7,0,0,0.147063,0.219847,0.017448,0.061069,0,118,116,2,7,0,0:
0000
0000
0000
0000
,
0000
0000
0000
0000
,
0000
0000
0000
0000
,
0000
0000
0000
0000
,
0002
0000
0000
0000
,
2003
0000
0000
0000
,
3010
0000
0100
0000
,
0001
0000
1000
0000
,
0100
0000
0000
0000
,
0010
0000
0000
0000
,
0001
0000
0000
0000
,
1000
0000
0000
0000
,
0010
0000
0000
0000
,
0010
0000
0000
0000
,
0100
0000
0100
0000
,
0001
0000
1000
0000
,
0100
0000
0000
0000
,
0100
0000
0000
0000
,
0010
0000
0000
0000
,
0010
0000
0000
0000
,
0001
0000
0000
0000
,
0001
0000
0000
0000
,
1000
0000
0000
0000
,
1000
0000
0001
0000
,
1000
0000
0000
0000
,
1000
0000
0000
0000
,
0010
0000
0000
0000
,
0010
0000
0000
0000
,
0100
0000
0000
0000
,
0100
0000
0000
0000
,
0001
0000
0000
0000
,
0001
0000
1000
0000
,
0001
0000
0000
0000
,
0001
0000
0000
1000
,
1000
0000
0000
0000
,
1000
0000
0000
0001
,
0001
0000
0000
1000
,
1000
0000
0000
0010
,
0010
0000
0000
0100
,
0100
0000
0000
0000
,
0002
0000
0000
0000
,
2003
0000
0000
0000
,
3020
0000
0000
0000
,
0230
0000
0000
0000
,
0301
0000
0000
0000
,
1000
0000
0000
0000
,
0001
0000
0001
0000
,
0001
0000
0001
0000
,
0001
0000
0000
0000
,
0010
0000
0000
0000
,
0100
0000
0100
0000
,
1000
0000
0001
0000
,
1001
0000
0000
0000
,
1000
0000
0000
0000
,
0001
0000
0001
0000
,
1000
0000
1000
0000
,
0010
0000
0000
0000
,
0100
0000
0000
0000
,
0010
0000
0010
0000
,
0100
0000
0100
0000
,
0010
0000
0010
0000
,
1000
0000
1000
0000
,
0001
0000
0001
0000
,
0010
0000
0010
0000
,
0100
0000
0100
0000
,
0010
0000
0010
0000
,
0001
0000
0001
0000
,
1000
0000
1000
0000
,
0010
0000
0010
0000
,
0100
0000
0100
0000
,
0001
0000
0001
0000
,
1000
0000
1000
0000
,
0002
0000
0000
0000
,
0000
0000
0000
0003
,
1000
0000
0001
0000
,
1000
0000
0001
0000
,
0100
0000
0000
0000
,
0100
0000
0100
0000
,
0010
0000
0000
0000
,
0010
0000
0000
0000
,
1000
0000
0000
0000
,
0001
0000
0000
0000
,
1000
0000
1000
0000
,
0001
0000
0001
0000
,
1001
0000
0000
0000
;

//---------------dance-double - NewbStepper-EDP----------------
#NOTES:
     dance-double:
     NewbStepper:
     Hard:
     11:
     0.520953,0.659542,0.392585,0.122137,0.034896,418,373,45,14,0,0,0.520953,0.659542,0.392585,0.122137,0.034896,418,373,45,14,0,0:
00000000
00000000
00000000
00000000
,
00000000
00000000
00000000
00000000
,
00000000
00000000
00000000
00000000
,
00000000
00000000
00000000
00000000
,
20000000
00000000
00000000
00000000
,
30020000
00000000
00000000
00000000
,
02030000
00000000
03002000
00000000
,
00023000
00032000
00003020
00000032
,
00001003
00000000
00001000
00000010
00000000
00000010
00000000
00000000
,
00000110
00000000
00011000
01000000
,
00010000
00000000
00010000
00100000
00000000
00100000
00000000
00000000
,
01100000
00000000
20000000
30020000
,
00130000
00000000
00001000
00010000
00000000
00100000
00000000
00010000
,
00000000
00001000
00000000
00000100
00000000
00000001
00001000
00000001
,
00000010
00000000
00000100
00000000
00000010
00001000
00000000
00010000
,
01000000
10000000
00100000
10000000
00010000
00100000
00001000
00010000
,
00000100
00001000
00000100
00000000
00000000
00001100
00000000
00000000
,
00010000
00001000
00010000
00000000
00000000
00000000
00000000
00000000
,
01000000
00010000
01000000
00000000
00000000
01010000
00000000
00000000
,
00001000
00010000
00001000
00000000
00000000
00000000
00000000
00000000
,
00000010
00000001
00000010
00000000
00000000
00000011
00000000
00000000
,
00001000
00000010
00001000
00000000
00000000
00001010
00000000
00010000
,
00001000
00010000
00001000
00000000
00000000
00011000
00000000
01000000
,
00100000
00000000
00010000
00000000
10000000
00100000
10000000
00010000
,
10000000
01000000
00010000
00000000
00000000
00011000
00000000
00000000
,
00001000
00000100
00000001
00000000
00000000
00000000
00000000
00000000
,
00000001
00000100
00001000
00000000
00000000
00011000
00000000
00000000
,
00010000
01000000
10000000
00000000
00000000
00000000
00000000
00000000
,
10000000
00100000
00010000
00000000
00000000
00011000
00000000
00000000
,
00001000
00000010
00000001
00000000
00000000
00001001
00000000
00000001
,
00000010
00000100
00001000
00000000
00000000
00001100
00000000
00010000
,
00001000
00000000
00100000
00010000
00000000
10000000
01000000
00100000
,
00010000
00000000
00000000
00010000
00000000
00000000
00010000
00000000
00000000
00000000
01000000
00000000
00000000
00000000
00100000
00000000
,
00010000
00000000
00000000
00010000
00000000
00000000
00010000
00000000
00000000
00000000
00000000
00000000
00011000
00000000
00000000
00000000
,
00001000
00000000
00000000
00001000
00000000
00000000
00001000
00000000
00000000
00000000
00000100
00000000
00000000
00000000
00000010
00000000
,
00001000
00000000
00000000
00001000
00000000
00000000
00001000
00000000
00000000
00000000
00000000
00000000
00000001
00000000
00000000
00000000
,
00000010
00000000
00000000
00000001
00000000
00000000
00001000
00000000
00000000
00000000
00001000
00000000
00000000
00000000
00000100
00000000
,
00000010
00000000
00000000
00001000
00000000
00000000
00010000
00000000
00000000
00000000
00010000
00000000
00000000
00000000
00001000
00000000
,
00010000
00000000
00000000
00100000
00000000
00000000
01000000
00000000
00000000
00000000
01000000
00000000
00000000
00000000
00100000
00000000
,
10000000
00000000
00000000
01000000
00000000
00000000
00100000
00000000
00000000
00000000
00100000
00000000
00000000
00000000
00001000
00000000
,
00010000
00010000
00000100
00001000
00001000
00000010
00000100
00000100
,
00000001
00000010
00000010
00000100
00001000
00001000
00000010
00010000
,
00010000
00001000
01000000
01000000
00100000
10000000
10000000
01000000
,
00010000
00010000
00001000
00100000
00010000
01000000
00001000
00010000
,
00000100
00000000
00000100
00000000
,
00001000
00000000
00001000
00000000
,
00000001
00000000
00000001
00000000
,
00000100
00000000
00000100
00000000
,
00001000
00000000
00010000
01000000
10000000
00000000
00100000
00000000
,
01000000
00010000
00100000
00001000
,
00011000
00000000
00000000
00000000
00000100
00000010
00000100
00000000
,
00000001
00000100
00000010
00001000
00000100
00010000
00001000
00100000
,
00010000
00000000
00010000
00100000
01000000
00000000
10000000
00100000
,
01000000
01000000
00010000
00010000
,
00001000
00000000
00001000
00000010
00000100
00000000
00000001
00000010
,
00000100
00000100
00001000
00001000
,
00010000
00000000
00010000
01000000
00100000
00000000
10000000
01000000
,
00100000
00100000
00010000
00010000
,
00001000
00000000
00000010
00001000
00000100
00000000
00000010
00000001
,
00000100
00000000
00000010
00000100
00001000
00000000
00011000
00000000
,
00100000
00000000
10000000
01000000
00100000
00010000
10000000
00000000
,
01000000
00010000
00001000
00000100
,
00001000
00011000
00100000
00011000
,
00000010
00011000
00000100
00000001
,
00000010
00000000
00000001
00000100
00000010
00001000
00000001
00000100
,
00001000
00001000
00010000
00010000
,
00021000
00030100
00012000
01003000
,
00210000
10300000
12000000
03010000
,
01000000
00000000
00010000
00100000
01000000
00000000
00010000
00000000
,
00001000
00000010
00000001
00000100
,
00001010
00000100
00011000
01000000
,
00110000
00000000
00001000
00000000
00011000
00000000
01000000
00100000
,
10100000
10100000
01010000
01010000
,
00101000
00101000
00010100
00010100
,
00000010
00000001
00001000
00000010
00000100
00000010
00010000
00001000
,
01000000
00010000
10000000
01000000
00100000
00000000
00010000
01000000
,
00100000
00000000
10000000
01000000
00010000
00000000
00011000
00000000
,
00001100
00000110
00001010
00001001
,
00000001
00000000
00000100
00000001
00000010
00000000
00000100
00001000
,
00000010
00000000
00010000
00000100
00001000
00000000
00010000
00000000
,
00100000
00000000
00010000
00000000
01000000
00100000
10000000
00000000
,
11000000
00100000
01010000
00001000
,
00011000
00000100
00000110
00001001
,
00000001
00000100
00000010
00001000
00000100
00010000
00001000
00100000
,
00010000
00000000
00000000
00000000
;

//---------------dance-double - NewbStepper-DDP----------------
#NOTES:
     dance-double:
     NewbStepper:
     Medium:
     8:
     0.391338,0.512977,0.095965,0.165758,0.034896,314,303,11,19,0,0,0.391338,0.512977,0.095965,0.165758,0.034896,314,303,11,19,0,0:
00000000
00000000
00000000
00000000
,
00000000
00000000
00000000
00000000
,
00000000
00000000
00000000
00000000
,
00000000
00000000
00000000
00000000
,
00000002
00000000
00000000
00000000
,
00002003
00000000
00000000
00000000
,
00023000
00000000
02030000
00000000
,
03200000
00000000
20300000
00000000
,
30100000
00000000
00000000
00100000
00000000
00100000
00000000
00000000
,
01100000
00000000
00010000
00000000
,
00001000
00000000
00000010
00001000
00000000
00001000
00000000
00000000
,
00000110
00000000
00000001
00001000
,
00000010
00000100
00001000
00000000
,
00100000
01000000
00010000
00000000
,
00000010
00000000
00000010
00000000
,
00001000
00000100
00000010
00000001
,
00001000
00000100
00001000
00000000
00000000
00000001
00000000
00000000
,
00001000
00000010
00001000
00000000
00000000
00000000
00000000
00000000
,
00010000
01000000
00010000
00000000
00000000
10000000
00000000
00000000
,
00010000
00100000
00010000
00000000
00000000
00000000
00000000
00000000
,
00001000
00000010
00001000
00000000
00000000
00000001
00000000
00000000
,
00001000
00000100
00001000
00000000
00000000
00001000
00000000
00000000
,
00010000
00100000
00010000
00000000
00000000
10000000
00000000
10000000
,
00100000
01000000
00010000
00100000
,
00001000
00000000
00011000
00000000
00000000
00010100
00000000
00000000
,
00000010
00000100
00000010
00000000
00000000
00000000
00000000
00000000
,
00010000
00000000
00011000
00000000
00000000
01001000
00000000
00000000
,
00100000
01000000
00100000
00000000
00000000
00000000
00000000
00000000
,
10000000
00010000
10000000
00000000
00000000
01000000
00000000
00000000
,
00010000
00001000
00010000
00000000
00000000
00000100
00000000
00000000
,
00001000
00000010
00001000
00000000
00000000
00000001
00000000
00000100
,
00001000
00000000
00010000
00001000
00000000
00100000
00010000
00000000
,
10000000
00000000
00000000
10000000
00000000
00000000
10000000
00000000
00000000
00000000
00000000
00000000
00000000
00000000
00000000
00000000
,
00010000
00000000
00000000
00010000
00000000
00000000
00010000
00000000
00000000
00000000
00000000
00000000
00000000
00000000
00000000
00000000
,
00001000
00000000
00000000
00001000
00000000
00000000
00001000
00000000
00000000
00000000
00000000
00000000
00000000
00000000
00000000
00000000
,
00000001
00000000
00000000
00000001
00000000
00000000
00000001
00000000
00000000
00000000
00000000
00000000
00000100
00000000
00000000
00000000
,
00000001
00000000
00000000
00000001
00000000
00000000
00000001
00000000
00000000
00000000
00000001
00000000
00000000
00000000
00001000
00000000
,
00000100
00000000
00000000
00000100
00000000
00000000
00000100
00000000
00000000
00000000
00000100
00000000
00000000
00000000
00010000
00000000
,
00001000
00000000
00000000
00001000
00000000
00000000
00001000
00000000
00000000
00000000
00001000
00000000
00000000
00000000
01000000
00000000
,
00100000
00000000
00000000
00100000
00000000
00000000
00100000
00000000
00000000
00000000
00100000
00000000
00000000
00000000
10000000
00000000
,
00010000
00000000
01000000
00200000
00000000
00000000
20300000
00000000
,
00000000
32000000
00000000
00000000
03020000
00000000
00000000
00032000
,
00000000
00000000
00003020
00000000
00000000
00000032
00000000
00000000
,
00002003
00000000
00000000
00003200
00000000
00000000
00000300
00010000
,
00002000
00000000
00000000
00000000
,
00023000
00000000
00000000
00000000
,
02030000
00000000
00000000
00000000
,
03020000
00000000
00000000
00000000
,
00031000
00000100
00000001
00000000
,
00000001
00000010
00001000
00000000
,
00011000
00000000
00000000
00000000
00100000
01000000
00100000
01000000
,
00100000
00000000
10000000
00000000
00010000
10000000
00010000
00000000
,
10000000
00000000
00010000
00100000
00010000
00000000
10000000
00000000
,
01000000
00010000
00001000
00000010
,
00000001
00000000
00001000
00000010
00001000
00000000
00000001
00000000
,
00000100
00001000
00010000
00100000
,
10000000
00000000
00010000
01000000
00010000
00000000
10000000
00000000
,
00100000
00010000
00001000
00000100
,
00000001
00000000
00001000
00000100
00001000
00000000
00000100
00010000
,
00000100
00000000
00010000
00001000
00010000
00000000
00001000
00100000
,
00010000
00100000
01000000
10000000
,
01000000
00100000
00010000
01000000
,
00001000
00001000
00010000
00010000
,
00000100
00000100
00000010
00000010
,
00000001
00000000
00000100
00001000
00000100
00000000
00000010
00000000
,
00001000
00000100
00010000
00001000
,
00100000
00010000
10000000
01000000
,
00010000
00001000
00000100
00000001
,
00001000
00000000
00000001
00000100
00000001
00000000
00001000
00000000
,
00000001
00000010
00000100
00001000
,
00010000
01000000
00100000
10000000
,
01000000
00100000
00010000
01000000
,
00010000
00000000
10000000
01000000
10000000
01000000
10000000
00000000
,
00010000
00000000
00100000
00001000
00100000
00000000
00001000
00000000
,
00010000
00000000
00000010
00001000
00000010
00000000
00000100
00000000
,
00000001
00000010
00001000
00010000
,
00100000
00000000
10000000
00010000
10000000
00000000
01000000
00000000
,
00100000
00010000
00100000
00001000
,
00011000
00010000
00001000
00000010
,
00000001
00000000
00000100
00000000
00000001
00000010
00000100
00000000
,
00010000
00000000
00001000
00000000
00100000
00010000
10000000
00000000
,
01000000
00010000
00001000
00100000
,
00110000
00010000
01000000
00001000
,
00011000
00000000
00011000
00000000
00010000
00000100
00010000
00000100
,
00001000
00000000
00000000
00000000
;

//---------------dance-double - NewbStepper-BDP----------------
#NOTES:
     dance-double:
     NewbStepper:
     Easy:
     7:
     0.335255,0.439695,0.122137,0.122137,0,269,255,14,14,0,0,0.335255,0.439695,0.122137,0.122137,0,269,255,14,14,0,0:
// measure 0
00000000
00000000
00000000
00000000
,  // measure 1
00000000
00000000
00000000
00000000
,  // measure 2
00000000
00000000
00000000
00000000
,  // measure 3
00000000
00000000
00000000
00000000
,  // measure 4
20000000
00000000
00000000
00000000
,  // measure 5
30020000
00000000
00000000
00000000
,  // measure 6
00230000
00000000
00000000
00000000
,  // measure 7
00302000
00000000
00000000
00000000
,  // measure 8
00013000
00000000
00000000
00010000
00000000
00000000
00000000
00000000
,  // measure 9
00011000
00000000
00000100
00000000
,  // measure 10
00001000
00000000
00000000
00001000
00000000
00001000
00000000
00000000
,  // measure 11
00000001
00000000
00000100
00000001
,  // measure 12
00001000
00001000
00000100
00000000
,  // measure 13
00010000
00010000
00001000
00100000
,  // measure 14
00010000
00010000
01000000
01000000
,  // measure 15
00100000
10000000
01000000
00010000
,  // measure 16
00001000
00000000
00001000
00000000
00000000
00000010
00000000
00000000
,  // measure 17
00001000
00001000
00000000
00000000
,  // measure 18
00010000
00000000
00010000
00000000
00000000
00100000
00000000
00000000
,  // measure 19
00010000
00010000
00000000
00000000
,  // measure 20
00001000
00000000
00001000
00000000
00000000
00000100
00000000
00000000
,  // measure 21
00001000
00000000
00010000
00000000
00000000
01000000
00000000
00000000
,  // measure 22
00010000
00000000
00010000
00000000
00000000
00000100
00000000
00000000
,  // measure 23
00000010
00000000
00000100
00000000
00000000
00001000
00000000
00000000
,  // measure 24
00000010
00000000
00000100
00000000
00000000
00001000
00000000
00000000
,  // measure 25
00010000
01000000
00000000
00000000
,  // measure 26
00100000
00000000
01000000
00000000
00000000
00010000
00000000
00000000
,  // measure 27
00001000
00000100
00000000
00000000
,  // measure 28
00000010
00000000
00000001
00000000
00000000
00000011
00000000
00000000
,  // measure 29
00000001
00000000
00001000
00000000
00000000
00001100
00000000
00000000
,  // measure 30
00000100
00000000
00010000
00000000
00000000
00011000
00000000
00000000
,  // measure 31
00001000
00010000
01000000
10000000
,  // measure 32
00010000
00000000
00000000
00010000
00000000
00000000
00010000
00000000
,  // measure 33
10000000
00000000
00000000
10000000
00000000
00000000
00000000
00000000
,  // measure 34
01000000
00000000
00000000
01000000
00000000
00000000
01000000
00000000
,  // measure 35
00010000
00000000
00000000
00010000
00000000
00000000
00001000
00000000
,  // measure 36
00000010
00000000
00000000
00000010
00000000
00000000
00000001
00000000
,  // measure 37
00000100
00000000
00000000
00000100
00000000
00000000
00001000
00000000
,  // measure 38
00010000
00000000
00000000
00010000
00000000
00000000
00100000
00000000
,  // measure 39
10000000
00000000
00000000
10000000
00000000
00000000
00000000
00020000
,  // measure 40
00000000
00000000
00000000
20030000
00000000
00000000
00000000
30200000
,  // measure 41
00000000
00000000
00000000
02300000
00000000
00000000
00000000
03020000
,  // measure 42
00000000
00000000
00000000
00230000
00000000
00000000
00000000
00302000
,  // measure 43
00000000
00000000
00000000
00023000
00000000
00000000
00000000
00030010
,  // measure 44
00000000
00000000
00000100
00000000
,  // measure 45
00000001
00000000
00000001
00000000
,  // measure 46
00001000
00000000
00001000
00000000
,  // measure 47
00000100
00000000
00000100
00000000
,  // measure 48
00010000
00010000
00001000
00001000
,  // measure 49
00100000
00100000
00010000
00010000
,  // measure 50
01000000
00000000
00100000
00000000
,  // measure 51
10000000
00100000
01000000
00010000
,  // measure 52
10010000
10000000
01000000
01000000
,  // measure 53
00010000
00010000
00001000
00001000
,  // measure 54
00000010
00000010
00000001
00000001
,  // measure 55
00001000
00001000
00000010
00000010
,  // measure 56
00000100
00000001
00000010
00000100
,  // measure 57
00001000
00000010
00000100
00001000
,  // measure 58
00010000
00100000
00010000
00001000
,  // measure 59
00100000
01000000
00010000
00001000
,  // measure 60
00011000
00010000
00100000
01000000
,  // measure 61
10000000
01000000
00100000
00010000
,  // measure 62
00011000
00001000
00000100
00000010
,  // measure 63
00000001
00000010
00000100
00001000
,  // measure 64
00011000
00010000
01000000
10000000
,  // measure 65
00100000
01000000
00001000
00010000
,  // measure 66
00011000
00001000
00000100
00000001
,  // measure 67
00000010
00000100
00010000
00001000
,  // measure 68
00011000
00011000
00010000
01000000
,  // measure 69
10000000
00100000
01000000
00001000
,  // measure 70
00011000
00011000
00001000
00000100
,  // measure 71
00000001
00000010
00000100
00010000
,  // measure 72
00021000
00001000
00001000
00031000
,  // measure 73
00002000
00010000
00010000
00013000
,  // measure 74
00001000
00000100
00000010
00000100
,  // measure 75
00001000
00010000
01000000
00100000
,  // measure 76
01000000
00010000
00001000
00000100
,  // measure 77
00000010
00000001
00000010
00001000
,  // measure 78
00000100
00010000
00001000
00000010
,  // measure 79
00001000
00010000
00100000
00010000
,  // measure 80
00001000
00100000
00010000
10000000
,  // measure 81
01000000
00100000
00010000
00100000
,  // measure 82
00001000
00010000
01000000
00010000
,  // measure 83
00001000
00000100
00000001
00000010
,  // measure 84
00000100
00000000
00000000
00000000
;
