#TITLE:LA LA LA LA YO-DEL;
#ARTIST:DJ SIMON;
#BANNER:LA LA LA LA YO-DEL.png;
#BACKGROUND:LA LA LA LA YO-DEL-bg.png;
#MUSIC:LA LA LA LA YO-DEL.ogg;
#OFFSET:0.323;
#SAMPLESTART:57.859;
#SAMPLELENGTH:15;
#BPMS:0=165;

//---------------dance-single - Marten-ESP----------------
#NOTES:
     dance-single:
     Marten:
     Hard:
     11:
     0.523380,0.593893,0.221720,0.263953,0.026395,347,326,21,25,0,0,0.523380,0.593893,0.221720,0.263953,0.026395,347,326,21,25,0,0:
// measure 0
0000
0000
0000
0000
,  // measure 1
0000
0000
0000
0000
,  // measure 2
0000
0000
0000
0000
,  // measure 3
0000
0000
0000
0000
,  // measure 4
0000
0000
0000
0000
,  // measure 5
0002
0000
2003
0000
,  // measure 6
3020
0000
0000
0000
,  // measure 7
1030
0001
1000
0000
0010
0000
0010
0000
0100
0000
0100
0000
0001
0000
0001
0000
,  // measure 8
1001
1001
1001
1001
,  // measure 9
0001
0100
0000
0001
0010
0000
0100
0000
,  // measure 10
1000
0100
0000
1000
0010
0000
0100
0000
,  // measure 11
0001
1000
0000
0010
0100
0000
0100
0000
,  // measure 12
0001
0010
0100
0000
1000
0010
0100
0000
,  // measure 13
0001
0100
0000
0001
0010
0000
0100
0000
,  // measure 14
1000
0100
0000
1000
0010
0000
0100
0000
,  // measure 15
0001
0010
0001
0010
0100
1000
0100
1000
,  // measure 16
0002
2003
3010
1000
,  // measure 17
0010
1000
0100
0000
1001
0000
1100
0000
,  // measure 18
1000
0010
1000
0010
0200
0000
0301
0000
,  // measure 19
0001
0100
1000
0100
0002
0000
0013
0000
,  // measure 20
0001
0100
0000
0010
1000
0100
0000
0100
,  // measure 21
0010
0001
0100
0000
1001
0000
0101
0000
,  // measure 22
0001
0010
0001
0010
0200
0000
1300
0000
,  // measure 23
1000
0010
1000
0010
0100
0001
0100
0001
,  // measure 24
1000
0100
0010
0001
2000
0000
3000
0000
,  // measure 25
1001
1001
1001
1001
,  // measure 26
0001
0000
0011
0000
0001
0000
1000
0100
,  // measure 27
0000
1000
0010
0100
0001
0000
0000
0000
,  // measure 28
1000
0000
1010
0000
1000
0000
0001
0100
,  // measure 29
0000
0001
0010
0100
1000
0010
0100
0001
,  // measure 30
1000
0100
1000
0100
0010
0001
0010
0001
,  // measure 31
1000
0010
1000
0010
0100
0001
0100
0001
,  // measure 32
1000
0001
1000
0001
0100
0010
0100
0010
,  // measure 33
1000
0010
0100
0001
1000
0001
0100
0000
,  // measure 34
0001
0010
0001
1000
0020
0000
0130
0000
,  // measure 35
0100
0001
1000
0001
0010
0000
0001
1000
,  // measure 36
0010
0000
0000
0010
1000
0000
0001
0000
0010
0000
0000
0010
0001
0000
1000
0000
,  // measure 37
0100
0000
0000
0100
0010
0000
0001
0000
2000
0000
0000
0000
0000
0000
0000
0000
,  // measure 38
0001
0100
0010
0010
,  // measure 39
0100
0010
0001
3001
,  // measure 40
0001
0100
0001
0010
0200
0000
1300
0000
,  // measure 41
0010
1000
0010
1000
0002
0000
1003
0000
,  // measure 42
0100
1000
0010
1000
0002
0000
0013
0000
,  // measure 43
0001
1000
0010
0100
0001
0010
0100
0000
,  // measure 44
1000
0100
0010
0001
2000
0000
3001
0000
,  // measure 45
0100
0001
0100
0001
0020
0000
0130
0000
,  // measure 46
1000
0100
1000
0100
0010
0001
0010
0001
,  // measure 47
1000
0010
0100
0001
2000
0000
3000
0000
,  // measure 48
0100
0100
1000
1000
,  // measure 49
0010
0010
0100
0100
,  // measure 50
0001
0001
1000
1000
,  // measure 51
0002
0000
2000
3003
,  // measure 52
0110
0110
0110
0110
,  // measure 53
0001
0100
0010
0100
0002
0000
0013
0000
,  // measure 54
0100
1000
0100
1000
0020
0000
1030
0000
,  // measure 55
0001
1000
0010
1000
0002
0000
0013
0000
,  // measure 56
0001
1000
0010
0100
0001
0010
0100
0000
,  // measure 57
1000
0100
0010
0100
2000
0000
3001
0000
,  // measure 58
0100
0010
0100
0010
2000
0000
3001
0000
,  // measure 59
0010
0001
0010
0001
1000
0100
1000
0100
,  // measure 60
1000
0010
0100
0001
2000
0000
3000
0000
,  // measure 61
0001
0100
0001
0000
0010
0000
0010
0000
0100
0000
0100
0000
1000
0000
1000
0000
,  // measure 62
1001
0110
1001
0000
;

//---------------dance-single - Marten-DSP----------------
#NOTES:
     dance-single:
     Marten:
     Medium:
     8:
     0.417799,0.494911,0.253394,0.390650,0,277,253,24,37,0,0,0.417799,0.494911,0.253394,0.390650,0,277,253,24,37,0,0:
0000
0000
0000
0000
,
0000
0000
0000
0000
,
0000
0000
0000
0000
,
0000
0000
0000
0000
,
0000
0000
0000
0000
,
2000
0000
3002
0000
,
0023
0000
0000
0000
,
0031
0010
0001
0000
1000
0010
1000
0000
,
1001
1001
1001
1001
,
0001
0010
0000
0001
0010
0000
0100
0000
,
1000
0100
0000
1000
0100
0000
0010
0000
,
0001
1000
0000
0001
1000
0000
0010
0000
,
1000
0001
1000
0000
0001
1000
0001
0000
,
1000
0010
0000
1000
0010
0000
0100
0000
,
0001
0100
0000
0001
0100
0000
0010
0000
,
1000
0010
0001
0100
,
2000
3002
1003
1001
,
0001
0100
0110
0110
,
0010
1000
0010
0000
2000
0000
3001
0000
,
0010
0001
0010
0000
0002
0000
1003
0000
,
0010
0100
0000
0001
1000
0001
0000
0001
,
1000
0100
0110
0110
,
0010
0001
0010
0000
0002
0000
1003
0000
,
0001
0010
1000
0100
,
0002
2003
3001
0000
,
1001
1001
1001
1001
,
0001
0000
0100
0000
0001
0000
0010
0001
,
0000
0001
0000
0001
1000
0000
0000
0000
,
1000
0000
0100
0000
1000
0000
0010
1000
,
0000
1000
0000
1000
0001
0000
0100
0000
,
0002
2003
3020
0230
,
0302
0023
0032
2003
,
3020
2030
3200
0320
,
0031
0000
1000
0000
0001
1000
0001
0000
,
0100
0100
0010
0010
,
1000
0010
1000
0000
0001
0000
0000
0000
,
0010
0000
0001
1000
0001
0000
0100
0010
,
0100
0000
0010
1000
0002
0000
0000
0000
,
0010
0010
0100
0100
,
0010
0010
1000
1003
,
0001
0100
0110
0110
,
1000
0001
1000
0000
0200
0000
1300
0000
,
0001
0100
0001
0000
0020
0000
0031
0000
,
1000
0001
1000
0000
0001
1000
0000
0010
,
1000
0100
0110
0110
,
0001
1000
0001
0000
0200
0000
0301
0000
,
1000
0010
0001
0100
,
2000
3002
1003
0000
,
0010
0010
1000
1000
,
0001
0001
0010
0010
,
0100
0100
1000
1000
,
0002
0000
2000
3003
,
0110
0110
0110
0110
,
1000
0010
1000
0000
0002
0000
0013
0000
,
0100
0010
0100
0000
0002
0000
1003
0000
,
0010
1000
0010
0000
0200
0000
0301
0000
,
0001
1000
0001
0000
1000
0001
0000
0010
,
0001
0010
0001
0000
2000
0000
3010
0000
,
0100
0010
0100
0000
2000
0000
3001
0000
,
1000
0010
0001
0100
,
2000
3002
1003
0000
,
0001
0010
0001
0000
1000
0010
1000
0000
,
1001
0110
1001
0000
;

//---------------dance-single - Marten-BSP----------------
#NOTES:
     dance-single:
     Marten:
     Easy:
     6:
     0.318251,0.428923,0.200604,0.263953,0,211,192,19,25,0,0,0.318251,0.428923,0.200604,0.263953,0,211,192,19,25,0,0:
0000
0000
0000
0000
,
0000
0000
0000
0000
,
0000
0000
0000
0000
,
0000
0000
0000
0000
,
0000
0000
0000
0000
,
0002
0000
2003
0000
,
3020
0000
0000
0000
,
1030
1000
0001
0001
,
1001
1001
1001
1001
,
1000
0001
0100
0100
,
0001
1000
0010
0010
,
1000
0100
0010
0010
,
0002
0003
2000
3000
,
0001
0100
0001
0001
,
1000
0100
0010
0010
,
0002
0000
2003
0000
,
3010
0100
0110
0000
,
0001
0001
1000
1000
,
0001
0001
0010
0010
,
0100
0100
0010
0010
,
0002
0003
2000
3000
,
1000
1000
0001
0001
,
1000
1000
0010
0010
,
2000
0000
3002
0000
,
0013
0100
0110
0000
,
1001
1001
1001
1001
,
0001
0100
0001
0000
,
1000
0100
1000
0000
,
0001
0010
0001
0000
,
1000
0010
1000
0000
,
0001
0001
0001
0001
,
1000
1000
1000
1000
,
0010
0010
0010
0010
,
0100
0100
0100
0100
,
0001
0100
0001
0001
,
1000
0100
2000
3000
,
0020
0030
0020
0030
,
1000
0100
0020
0000
,
0001
0000
0001
0000
,
0001
0000
0031
0000
,
0001
0100
0001
0001
,
1000
0010
1000
1000
,
0001
0010
0100
0100
,
2000
3000
0002
0003
,
1000
0100
1000
1000
,
0001
0010
0001
0001
,
2000
0000
3002
0000
,
0013
0100
0110
0000
,
1000
1000
1000
1000
,
0001
0001
0001
0001
,
0100
0100
0100
0100
,
0020
0000
0200
0330
,
0110
0110
0110
0110
,
1000
0010
0100
0100
,
0001
0010
0001
0001
,
1000
0100
0010
0010
,
0002
0003
2000
3000
,
0010
1000
0001
0001
,
0100
0001
0010
0010
,
0002
0000
2003
0000
,
3010
0100
0110
0000
,
1000
0100
0010
0001
,
1001
0110
1001
0000
;

//---------------dance-single - Marten-bSP----------------
#NOTES:
     dance-single:
     Marten:
     Beginner:
     3:
     0.156863,0.230958,0.105581,0.031674,0,104,94,10,3,0,0,0.156863,0.230958,0.105581,0.031674,0,104,94,10,3,0,0:
0000
0000
0000
0000
,
0000
0000
0000
0000
,
0000
0000
0000
0000
,
0000
0000
0000
0000
,
0000
0000
0000
0000
,
1000
0000
0001
0000
,
0020
0000
0000
0030
,
0001
0000
1000
0000
,
1001
0000
0000
0000
,
0001
0000
0000
0000
,
1000
0000
0000
0000
,
0001
0000
0000
0000
,
0100
0000
0100
0000
,
0001
0000
0000
0000
,
1000
0000
0000
0000
,
0010
0000
0010
0000
,
0100
0000
0100
0000
,
0001
0000
0001
0000
,
1000
0000
1000
0000
,
0100
0000
0100
0000
,
0010
0000
0000
0000
,
0001
0000
0001
0000
,
1000
0000
1000
0000
,
0001
0000
1000
0000
,
1001
0000
0000
0000
,
1001
0000
1001
0000
,
0001
0000
0000
0000
,
1000
0000
0000
0000
,
0100
0000
0000
0000
,
0010
0000
0000
0000
,
0001
0000
0001
0000
,
1000
0000
1000
0000
,
0001
0000
0001
0000
,
1000
0000
1000
0000
,
0010
0000
0000
0000
,
0010
0000
0000
0000
,
0100
0000
0100
0000
,
0010
0000
0020
0000
,
0000
0000
0000
0030
,
1000
0000
1000
0000
,
0001
0000
0001
0000
,
0010
0000
0100
0000
,
0010
0000
0000
0000
,
0001
0000
0001
0000
,
1000
0000
1000
0000
,
0001
0000
1000
0000
,
1001
0000
0000
0000
,
1000
0000
1000
0000
,
0001
0000
0001
0000
,
1000
0000
1000
0000
,
0001
0000
0001
0000
,
0020
0000
0000
0030
,
0110
0000
0110
0000
,
1000
0000
1000
0000
,
0001
0000
0001
0000
,
0100
0000
0010
0000
,
0100
0000
0000
0000
,
0001
0000
0001
0000
,
1000
0000
1000
0000
,
0001
0000
1000
0000
,
1001
0000
0000
0000
,
0001
0000
1000
0000
,
1001
0000
1001
0000
;

//---------------dance-double - NewbStepper-EDP----------------
#NOTES:
     dance-double:
     NewbStepper:
     Hard:
     11:
     0.524888,0.560899,0.168930,0.126697,0.005279,348,332,16,12,0,0,0.524888,0.560899,0.168930,0.126697,0.005279,348,332,16,12,0,0:
00000000
00000000
00000000
00000000
,
00000000
00000000
00000000
00000000
,
00000000
00000000
00000000
00000000
,
00000000
00000000
00000000
00000000
,
00000000
00000000
00000000
00000000
,
20000000
00000000
30020000
00000000
,
02030000
00000000
00000000
03000000
,
00010000
01000000
00010000
00000000
00100000
00000000
00100000
00000000
01000000
00000000
01000000
00000000
10000000
00000000
10000000
00000000
,
10010000
01100000
10010000
00000000
,
10000000
01000000
00000000
00100000
01000000
00000000
00010000
00000000
,
00001000
00010000
00000000
00000010
00001000
00000000
00000100
00000000
,
00000001
00000100
00000000
00000010
00000001
00000000
00001000
00000000
,
00000001
00000100
00000000
00000010
00001000
00000100
00000000
00000010
,
00000001
00000100
00000000
00000010
00000100
00000000
00001000
00000000
,
00010000
00001000
00000000
00100000
00010000
00000000
01000000
00000000
,
00100000
01000000
00000000
00100000
10000000
01000000
00100000
00010000
,
00100000
00001000
00010000
00000100
00000010
00000000
00001001
00000000
,
00000010
00000000
00000011
00000000
00000001
00000100
00001000
00000000
,
00010000
00000000
00011000
00000000
00000010
00000100
00001000
00000000
,
00010000
00000000
00011000
00000000
00100000
01000000
10000000
00000000
,
00010000
01000000
00000000
00100000
10000000
01000000
00000000
10000000
,
00100000
00000000
10100000
00000000
10000000
01000000
00010000
00000000
,
00001000
00000000
00011000
00000000
00100000
01000000
00010000
00000000
,
00001000
00000000
00011000
00000000
00000010
00000100
00000001
00000000
,
00001000
00000100
00000001
00000100
00002000
00000000
00003000
00000000
,
00000001
00001000
00010000
10000000
,
00100000
10000000
01000000
00000000
00100000
00010000
01000000
00100000
,
00000000
10000000
01000000
00010000
00001000
00000100
00000001
00000000
,
00000010
00000001
00000100
00000000
00000010
00001000
00000100
00000010
,
00000000
00000001
00000100
00001000
00010000
01000000
10000000
00000000
,
00010000
01000000
00010000
01000000
00100000
10000000
00100000
10000000
,
01000000
00100000
01000000
00100000
00001000
00010000
00001000
00010000
,
00000010
00001000
00000010
00000100
00000001
00001000
00000100
00010000
,
00001000
01000000
00010000
01000000
00001000
00010000
00000010
00000000
,
00001000
00000100
00000000
00000010
00000001
00000000
00000100
00000000
,
00001000
00010000
00001000
00100000
00010000
00000000
10010000
00000000
,
10000000
01000000
00010000
00001000
00100000
00010000
00100000
00001000
,
00010000
00000100
00001000
00000001
00000010
00000100
00001000
00000000
,
00000001
00000100
00001000
00010000
00000010
00001000
00000010
00010000
,
00001000
01000000
00010000
10000000
00100000
01000000
00010000
00000000
,
10000000
01000000
00000000
10000000
00100000
00010000
00001000
00000000
,
00100000
00010000
00000000
00100000
00001000
00010000
00000100
00000000
,
00000001
00000100
00000000
00001000
00000100
00000010
00000001
00000000
,
00000100
00000010
00000000
00000010
00001000
00000010
00000000
00000100
,
00000001
00000100
00000000
00000001
00000010
00001000
00010000
00000000
,
00000010
00001000
00000000
00000010
00010000
00001000
01000000
00000000
,
00100000
10000000
00100000
10000000
00010000
00100000
00010000
00100000
,
00001000
00010000
00000100
00010000
00002000
00000000
00003000
00000000
,
00010000
01000000
00000000
00010000
00000000
00000000
00000100
00001000
,
00000000
00000010
00000100
00000000
00001000
00000100
00000000
00001000
,
00000000
00000000
01000000
00010000
00000000
00100000
00010000
00000000
,
20020000
00000000
00000000
30030000
,
10000000
00010000
00001000
00000001
,
00001000
00000001
00000100
00001000
00020000
00000000
00031000
00000000
,
00100000
00001000
00010000
01000000
20000000
00000000
30100000
00000000
,
00010000
00001000
00100000
00010000
00200000
00000000
00301000
00000000
,
00010000
00001000
00000000
00000100
00000001
00000010
00000000
00000100
,
00001000
00000001
00000100
00001000
00010000
00100000
10000000
00000000
,
00010000
10000000
01000000
00010000
00001000
00000010
00000001
00000000
,
00001000
00000010
00001000
00000100
00010000
00001000
00100000
00010000
,
10000000
00100000
00010000
00100000
02200000
00000000
03300000
00000000
,
10000000
01000000
00100000
00010000
00001000
00000100
00000010
00000001
,
00000011
00001010
00001001
00000000
;

//---------------dance-double - NewbStepper-DDP----------------
#NOTES:
     dance-double:
     NewbStepper:
     Medium:
     10:
     0.535447,0.593893,1.393669,0.031674,0,355,223,132,3,0,0,0.535447,0.593893,1.393669,0.031674,0,355,223,132,3,0,0:
00000000
00000000
00000000
00000000
,
00000000
00000000
00000000
00000000
,
00000000
00000000
00000000
00000000
,
00000000
00000000
00000000
00000000
,
00000000
00000000
00000000
00000000
,
00000002
00000000
00002003
00000000
,
00003020
00000000
00000000
00000030
,
00001000
00000100
00000010
00000001
,
00001001
00001001
00001001
00001001
,
00000001
00000100
00000001
00000000
00000100
00000000
00000100
00000000
,
00001000
00010000
00001000
00000000
00010000
00000000
00010000
00000000
,
00100000
10000000
00100000
00000000
10000000
00000000
10000000
00000000
,
11000000
01010000
11000000
01010000
,
10000000
01000000
10000000
00000000
01000000
00000000
01000000
00000000
,
00010000
00001000
00010000
00000000
00001000
00000000
00001000
00000000
,
00001010
00001010
00000011
00000011
,
00000110
00000110
00001001
00000000
,
00000001
00000101
00000010
00001010
,
00000100
00001100
00010000
00011000
,
00100000
00110000
00001000
00011000
,
01000000
01010000
01100000
10010000
,
10000000
11000000
00100000
00110000
,
01000000
01010000
00001000
00011000
,
00000010
00001010
00000100
00000110
,
00001001
00001001
00001001
00000000
,
00000011
00001010
00000011
00001010
,
00000001
00000000
00000100
00000000
00001000
00000000
00010000
00001000
,
00000000
00001000
00000000
00001000
00100000
00000000
01100000
00000000
,
10000000
00000000
01000000
00000000
00010000
00000000
00001000
00010000
,
00000000
00010000
00000000
00010000
00000010
00000000
00000110
00000000
,
00000001
00000000
00000010
00000000
00001000
00000000
00010000
00001000
,
00000000
00001000
00000000
00001000
00100000
00000000
01100000
00000000
,
10000000
00000000
00100000
00000000
00010000
00000000
00001000
00010000
,
00000000
00010000
00000000
00010000
00000010
00000000
00000110
00000000
,
00001010
00001010
00010010
00010010
,
00101000
00010100
00011000
00000000
,
01010000
11000000
01010000
11000000
,
01100000
01100000
10010000
00000000
,
11000000
11000000
01010000
01010000
,
00011000
00011000
00001010
00001010
,
00000011
00000101
00000011
00000101
,
00001010
00001100
00001010
00001100
,
00011000
00101000
00011000
00101000
,
01010000
01100000
01010000
01100000
,
10100000
11000000
10100000
11000000
,
00110000
01010000
00110000
01010000
,
00011000
00001010
00011000
00001010
,
00001001
00000110
00001001
00000000
,
00000010
00000000
00010000
00000000
,
00100000
00000000
00001000
00000000
,
00000010
00000000
00010000
00000000
,
01000000
00001000
01000000
00001000
,
00011000
00011000
00011000
00011000
,
00001010
00010010
00001010
00010010
,
00101000
00110000
00101000
00110000
,
01010000
10100000
01010000
10100000
,
10010000
00011000
00001001
00011000
,
01010000
01001000
01010000
01001000
,
00010100
00001100
00010100
00001100
,
00001001
00011000
10010000
00011000
,
00010010
00101000
00011000
00000000
,
10000000
00010000
00001000
00000001
,
00001001
00000110
00001001
00000000
;

//---------------dance-double - NewbStepper-BDP----------------
#NOTES:
     dance-double:
     NewbStepper:
     Easy:
     6:
     0.297135,0.395929,0.116139,0.137255,0,197,186,11,13,0,0,0.297135,0.395929,0.116139,0.137255,0,197,186,11,13,0,0:
00000000
00000000
00000000
00000000
,
00000000
00000000
00000000
00000000
,
00000000
00000000
00000000
00000000
,
00000000
00000000
00000000
00000000
,
00000000
00000000
00000000
00000000
,
00020000
00000000
00032000
00000000
,
00203000
00000000
00000000
00300000
,
00010000
00010000
10000000
10000000
,
10010000
10010000
10010000
00000000
,
00010000
01000000
00100000
00010000
,
00001000
00100000
00010000
00100000
,
00001000
00010000
00000010
00001000
,
00000002
00000003
00002000
00003000
,
00001000
00000100
00000010
00001000
,
00010000
00000010
00001000
00000010
,
00010000
00001000
00100000
00010000
,
00100000
01000000
01100000
00000000
,
10000000
10000000
00010000
00010000
,
10000000
10000000
01000000
01000000
,
00010000
00001000
00000010
00001000
,
00020000
00030000
00000200
00000300
,
00001000
00001000
00000001
00000001
,
00001000
00001000
00000010
00010000
,
00000100
00010000
00001000
00100000
,
00001000
00010000
00011000
00000000
,
00000000
00000000
00000000
00000000
,
00100000
00100000
00100000
00000000
,
10000000
01000000
00010000
00000000
,
00000010
00000010
00000010
00000000
,
00000001
00000100
00001000
00000000
,
00010000
01000000
00010000
00000000
,
00001000
00000100
00001000
00000000
,
00100000
00100000
00100000
00100000
,
01000000
01000000
01000000
01000000
,
00010000
00000000
00001000
00000000
,
00010000
00001000
00011000
00000000
,
00001000
00000100
00000001
00000001
,
00000010
00000001
00000010
00000000
,
00002000
00003000
00020000
00030000
,
00001000
00100000
00020000
00000000
,
10030000
01000000
10000000
01000000
,
10000000
01000000
00010000
00000000
,
00001000
00010000
00001000
00010000
,
00001000
00010000
00000010
00000000
,
00001000
00000100
00001000
00000100
,
00001000
00000100
00000010
00000000
,
00000001
00000100
00000010
00000100
,
00001000
00010000
00011000
00000000
,
00100000
00000000
00010000
00000000
,
01000000
00000000
00001000
00000000
,
00000010
00000000
00001000
00000000
,
00010000
00001000
00010000
00001000
,
00000020
00000000
00000000
00000030
,
00000001
00000001
00001000
00001000
,
00000001
00000001
00000100
00000100
,
00001000
00010000
00100000
00010000
,
00002000
00003000
02000000
03000000
,
00010000
00010000
10000000
10000000
,
00010000
00010000
00100000
00001000
,
01000000
00001000
00010000
00000010
,
00010000
00001000
00011000
00000000
,
00100000
00010000
00100000
01000000
,
01100000
10010000
01100000
00000000
;
