#TITLE:L'erisia(Primal Logic);
#ARTIST:Zektbach;
#BANNER:L'erisia(Primal Logic).png;
#BACKGROUND:L'erisia(Primal Logic)-bg.png;
#MUSIC:L'erisia(Primal Logic).ogg;
#SAMPLESTART:82.051;
#SAMPLELENGTH:15;
#BPMS:0=234,128=117,176=234;
#STOPS:;
#BGCHANGES:0.001=L'erisia(Primal Logic).mp4=1=0=0=0=StretchNoLoop====,99999=-nosongbg-=1=0=0=0 // don't automatically add -songbackground-;

//---------------dance-single - RGTM-bSP----------------
#NOTES:
     dance-single:
     RGTM:
     Beginner:
     6:
     :
0000
0000
0000
0000
,
0000
0000
0000
0000
,
0000
0000
0000
0000
,
0000
0000
0000
0000
,
0000
0000
0000
0000
,
0000
0000
0000
0000
,
0000
0000
0000
0000
,
0000
0000
0000
0000
,
1000
0000
1000
0000
,
0001
0000
0001
0000
,
0010
0000
0100
0000
,
0010
0000
0100
0000
,
1000
0000
1000
0000
,
0001
0000
0001
0000
,
0100
0000
0010
0000
,
0100
0000
0010
0000
,
1000
0000
1000
0000
,
0100
0000
0100
0000
,
0010
0000
0001
0000
,
0010
0000
0001
0000
,
1000
0000
1000
0000
,
0010
0000
0010
0000
,
0100
0000
0001
0000
,
1000
0000
0100
0000
,
0010
0010
0000
0000
,
0001
0001
0000
0000
,
1000
1000
0000
0000
,
0010
0010
0000
0000
,
0100
0100
0000
0000
,
0001
0001
0000
0000
,
1000
1000
0000
0000
,
0100
0100
0000
0000
,
1001
0000
0000
0000
,
0000
0000
0000
0000
,
2000
0000
0000
0000
,
0000
0000
0000
3000
,
0002
0000
0000
0003
,
0020
0000
0030
0200
,
0000
0000
0000
0000
,
0000
0300
2000
3000
,
0020
0000
0000
0000
,
0000
0000
0000
0030
,
2000
0000
0000
0000
,
0000
0000
3000
0000
,
1001
0000
0000
0000
0000
0000
0000
0100
,
0000
0000
0000
0000
0000
0000
0000
0010
,
0000
0000
0100
0000
,
1000
0000
0000
0001
,
0000
1000
0000
0000
,
0100
0000
0000
0000
,
0010
0000
0001
0000
,
1000
0000
0000
0010
,
0000
0010
0000
0000
0000
0000
0000
0100
,
0000
0000
0001
0000
,
1000
0000
0100
0000
,
0000
0010
0000
0001
,
0000
1000
1000
0000
,
0000
0001
0001
0000
,
0100
0000
0100
0000
,
0010
0000
1001
0000
,
1000
0000
0000
0000
,
0100
0000
0000
0000
,
0010
0000
0000
0000
,
0001
0000
0000
0000
,
1000
0000
1000
0000
,
0010
0000
0010
0000
,
0100
0000
0100
0000
,
0001
0000
0001
0000
,
1000
0000
0001
0000
,
0010
0000
0100
0000
,
1000
0000
0010
0000
,
0001
0000
0010
0000
,
1000
0000
1000
0000
,
0100
0000
0100
0000
,
0010
0000
0001
0000
,
0100
0000
1000
0000
,
0100
0100
0000
0000
,
0001
0001
0000
0000
,
0010
0010
0000
0000
,
0100
0100
0000
0000
,
1000
0000
0001
0000
,
0100
0000
0010
0000
,
0110
0000
1001
0000
,
0110
0000
0000
0000
;

//---------------dance-single - RGTM-BSP----------------
#NOTES:
     dance-single:
     RGTM:
     Easy:
     10:
     :
0000
0000
0000
0000
,
0000
0000
0000
0000
,
0000
0000
0000
0000
,
0000
0000
0000
0000
,
1000
0000
0001
0000
0000
0001
0000
0000
,
0001
0000
0000
0000
0000
0010
0000
0000
,
0001
0000
1000
0000
0000
1000
0000
0000
,
1000
0000
0110
0000
,
0001
0100
0010
1000
,
0100
0010
0001
1000
,
0001
0100
1000
0100
,
0001
0010
1000
0010
,
0001
0001
0010
0010
,
0100
0100
1000
1000
,
0010
0010
0100
0100
,
0001
1000
0001
0001
,
1000
0100
0010
0001
,
0100
0010
1000
0001
,
1000
0100
0001
0100
,
1000
0010
0001
0010
,
1000
1000
0010
0010
,
0100
0100
0001
0001
,
0010
0010
0100
0100
,
1000
0001
1000
1000
,
0001
0000
0001
0000
0000
0001
0000
0000
,
0100
0000
0100
0000
0000
0100
0000
0000
,
0010
0000
0010
0000
0000
0010
0000
0000
,
1000
0000
1000
0000
0000
1000
0000
0000
,
0001
0000
0001
0000
0000
0011
0000
0000
,
0010
0000
0010
0000
0000
0110
0000
0000
,
0100
0000
0100
0000
0000
1100
0000
0000
,
1000
0000
1000
0000
0000
1001
0000
0000
,
0001
0000
0100
0010
1000
0000
0100
0010
,
0001
0000
1000
0010
0100
0000
0001
0010
,
0002
0010
0010
1000
,
1000
0100
0100
1000
,
2003
0001
0100
0100
,
3020
1000
0100
0230
,
0010
1000
1000
0010
,
0010
0001
0302
0100
,
0023
0001
0100
0100
,
1000
1000
0100
0001
,
0032
0010
0010
1000
,
1000
0100
0100
1003
,
1001
0000
0000
1000
0000
1000
0000
0100
,
0000
0000
0000
0010
0000
0000
0000
0001
,
0000
0010
0000
0000
0100
0000
1000
0000
,
0010
0000
0000
0100
0000
0000
0001
0000
,
0000
0000
1000
0000
0000
1000
0000
0000
,
0100
0000
0000
0100
0000
0000
0010
0000
,
0001
0010
1000
0010
,
0001
0000
0000
0100
0000
0000
1000
0000
,
0000
0100
0000
0000
0100
0000
0000
0001
,
0000
0010
0100
1000
,
0001
0000
0000
0000
0100
0000
0000
0010
,
0000
1000
0000
0001
,
0000
0010
0100
1000
,
0000
0001
0010
0100
,
1000
0010
0100
0001
,
1000
0100
1000
0000
0001
0100
0001
0000
,
1000
1000
0100
0100
,
0010
0010
0001
0001
,
1000
0010
0001
0100
,
1000
0100
0001
0010
,
1000
1000
0001
0001
,
0010
0010
0100
0100
,
0001
0100
1000
0010
,
0001
0010
1000
0100
,
0010
0010
0001
0001
,
0010
0100
1000
0001
,
0100
1000
0001
1000
,
0100
0001
1000
0001
,
0010
0100
1000
0001
,
0100
0010
1000
0001
,
1000
0100
0010
1000
,
0001
0100
1000
0010
,
0100
0000
0000
0000
0100
0001
0100
0000
,
0001
0000
0000
0000
0001
1000
0001
0000
,
1000
0000
0000
0000
1000
0100
1000
0000
,
0100
0000
0000
0000
0100
0010
0100
0000
,
0010
0010
0001
0001
,
0100
0100
1000
1000
,
0010
0010
0100
0100
,
2002
0000
0000
0000
,
0000
0000
0000
0000
,
0000
0000
0000
0000
,
0000
0000
0000
0000
,
3003
0000
0000
0000
;

//---------------dance-single - RGTM-DSP----------------
#NOTES:
     dance-single:
     RGTM:
     Medium:
     14:
     :
0000
0000
0000
0000
,
0000
0000
0000
0000
,
0000
0000
0000
0000
,
0000
0000
0000
0000
,
0001
0000
0010
0000
0000
0010
0000
0000
,
0100
0000
0100
0000
0000
1000
0000
0000
,
0001
0000
1000
0000
0000
1000
0000
0000
,
0010
0000
0100
0001
0010
0100
1000
0000
,
0001
0000
0100
0010
1000
0100
0010
0000
,
0001
0010
0100
1000
0010
0100
0001
0000
,
1000
0100
0010
0000
0010
0001
1000
0000
,
0001
0100
0010
0000
0010
1000
0001
0000
,
1000
0010
0100
0001
1000
0100
1000
0000
,
0001
0010
0100
1000
0001
0100
0001
0000
,
1000
0100
0010
0001
0100
0010
1000
0000
,
0010
0100
0001
1000
0100
0001
0100
0000
,
1000
0000
0010
0100
0001
0010
0100
0000
,
1000
0100
0010
0001
0100
0010
1000
0000
,
0001
0010
0100
0000
0100
1000
0001
0000
,
1000
0010
0100
0000
0100
0001
1000
0000
,
0001
0100
0010
1000
0001
0010
0001
0000
,
1000
0100
0010
0001
1000
0010
1000
0000
,
0001
0010
0100
1000
0010
0100
0001
0000
,
0100
0010
1000
0001
0010
1000
0010
0000
,
0001
0000
0011
0000
0000
0110
0000
0000
,
1000
0000
1010
0000
0000
0110
0000
0000
,
0001
0000
1100
0000
0000
0110
0000
0000
,
1000
0000
0101
0000
0000
0110
0000
0000
,
1000
0000
1010
0000
0000
0110
0000
0000
,
0001
0000
0011
0000
0000
0110
0000
0000
,
1000
0000
0101
0000
0000
0110
0000
0000
,
0001
0000
1100
0000
0000
0110
0000
0000
,
1001
0000
0001
0000
0010
0100
0010
0100
1000
0000
0001
0000
0100
0010
0100
0010
,
1000
0000
0100
0000
0010
0001
0010
0001
1000
0000
0010
0000
0100
0001
0100
0001
,
2000
0100
0001
0010
0001
0100
0010
0001
,
0010
0100
0001
0010
0001
0100
0010
0100
,
3002
1000
0100
0010
0100
1000
0010
0100
,
0023
0001
0100
1000
0001
1000
0230
0010
,
1000
0001
0010
1000
0010
0001
1000
0010
,
0001
0010
1000
0001
2300
0100
0001
0100
,
3020
0000
1000
0000
0000
0001
0000
0000
0100
0000
0000
0000
0000
1000
0000
0000
,
0100
0000
0100
0000
0000
0001
0000
0000
1000
0000
0000
0000
0000
0100
0000
0000
,
2030
0000
0010
0000
0000
0001
0000
0000
0100
0000
0000
0000
0000
0001
0000
0000
,
0010
0000
0010
0000
0001
0000
0000
0100
0000
0000
0010
0000
0000
0001
3000
0100
,
0010
0000
0000
0110
0000
0110
0000
1001
,
0000
0000
0000
1000
0000
0000
0000
0001
,
0000
0010
0000
0100
0010
0001
0010
0100
,
1000
0010
0100
0001
0000
1000
0100
0000
,
0000
0000
0110
0000
0000
1100
0000
0000
,
0110
0000
0000
0011
0000
0001
0100
0001
,
0010
0100
1000
0010
0100
0001
0100
0010
,
1000
0001
0010
0100
0000
1000
0001
0000
,
0000
1100
0000
0000
0101
0000
0000
1100
,
0000
0001
0100
0010
1000
0010
0100
0001
,
1000
0100
0000
0010
0100
1000
0000
0001
,
0000
0010
0001
0100
0000
0001
1000
0000
,
0000
0000
0001
0010
0100
1000
0001
0010
,
0000
0100
0010
0001
1000
0100
0010
0000
,
0001
0010
0100
1000
0001
0100
0010
0001
,
1000
0100
0010
1000
0001
0010
0100
1000
,
0001
0000
0010
0000
0100
1000
0100
0000
,
0010
0000
0001
0000
0100
0001
0100
0000
,
0010
1000
0100
0000
0010
0001
0100
0000
,
0001
0010
0100
0000
1000
0010
0100
0000
,
0001
0000
0100
0000
0010
1000
0010
0000
,
0100
0000
0001
0000
0010
0001
0010
0000
,
0100
1000
0010
0000
0100
0001
0010
0000
,
0001
0100
0010
0000
1000
0100
0010
0000
,
0001
0000
0100
0001
1000
0000
0100
1000
,
0010
0100
0010
0001
0010
0100
0010
1000
,
0001
0010
0100
0000
0001
0100
1000
0000
,
1000
0010
0100
0000
1000
0100
0001
0000
,
0010
0001
1000
0010
0100
0001
1000
0000
,
0100
1000
0001
0100
0010
1000
0001
0000
,
0010
0100
0001
0100
0010
0100
1000
0100
,
0010
0001
0100
0010
1000
0001
0010
0100
,
0010
0000
0001
0000
0100
1000
0100
0000
,
0010
0000
1000
0000
0100
0001
0100
0000
,
0010
0000
0001
0000
0100
1000
0001
0000
,
0010
0000
1000
0000
0100
0001
1000
0000
,
0010
0001
0100
0000
0100
0010
1000
0000
,
0001
0010
0100
0000
0100
1000
0001
0000
,
1000
0010
0001
0000
0001
0100
1000
0000
,
0220
0000
0000
0000
,
0000
0000
0000
0000
,
0000
0000
0000
0000
,
0000
0000
0000
0000
,
0330
0000
0000
0000
;

//---------------dance-single - RGTM-ESP----------------
#NOTES:
     dance-single:
     RGTM:
     Hard:
     17:
     :
0000
0000
0000
0000
,
0000
0000
0000
0000
,
0000
0000
0000
0000
,
0000
0000
0000
0000
,
0100
0000
1010
0000
0000
0011
0000
0000
,
0110
0000
0001
0000
1000
0100
0000
0000
,
0010
0000
1100
0000
0001
0100
0000
0000
,
1001
0000
0001
0010
0100
1000
0001
0000
,
1000
0100
0010
0100
1000
0001
0100
0001
,
0010
1000
0010
0100
1000
0001
0100
0010
,
0001
0010
1000
0100
0001
0100
1000
0010
,
0001
0000
0010
0000
0100
0000
0010
0000
1000
0000
0001
0000
0010
0000
0100
0010
,
0001
0100
0010
0001
1000
0001
0010
0100
,
0001
0010
0100
0001
1000
0010
0100
1000
,
0001
0000
0100
0000
0010
0000
1000
0000
0001
0000
0010
0100
1000
0000
0001
0000
,
1000
0010
0100
1000
0001
0010
1000
0001
,
1000
0010
0100
0010
1000
0001
0010
0001
,
0100
1000
0100
0010
1000
0001
0010
0100
,
0001
0100
1000
0010
0001
0010
1000
0100
,
0001
0000
0100
0000
0010
0000
0100
0000
1000
0000
0001
0000
0100
0000
0010
0100
,
0001
0010
0100
0001
1000
0001
0100
0010
,
0001
0100
0010
0001
1000
0100
0010
1000
,
0001
0000
0010
0000
0100
0000
1000
0000
0001
0000
0100
0010
1000
0000
0001
0000
,
1000
0100
0010
1000
0001
0100
1000
0001
,
0101
0000
1100
0000
0000
1001
0000
0000
,
1100
0000
0101
0000
0000
1001
0000
0000
,
0011
0000
1010
0000
0000
1001
0000
0000
,
1010
0000
0011
0000
0000
1001
0000
0000
,
0101
0000
1100
0000
0010
1001
0100
0000
,
1100
0000
0101
0000
0010
1001
0100
0000
,
1010
0000
0000
0000
0011
0000
0000
0000
0100
0000
1000
0001
0010
0000
0000
0000
,
0011
0000
1010
0000
0100
1001
0010
0100
,
1001
1000
0100
0010
0001
1000
1000
0010
0100
0001
0010
0100
1000
0001
0001
0010
,
0001
1000
0010
0100
0001
1000
1000
0010
0100
0001
0100
0010
1000
0001
0001
0010
,
0002
0000
0100
0000
0000
1000
0000
0010
0000
0000
0100
0000
0000
1000
0000
0010
,
0000
0000
0100
0000
0000
0010
0000
1000
0000
0000
0100
0000
0000
0010
0000
1000
,
2003
0000
0001
0000
0000
0010
0000
0001
0000
0000
0100
0000
0000
0001
0000
0010
,
3020
0000
1000
0000
0000
0100
0000
1000
0000
0000
0001
0000
0230
0010
0000
0001
,
0000
0000
0010
0000
0000
1000
0000
0010
0000
0000
0001
0000
0000
0010
0000
1000
,
0000
0000
0001
0000
0000
0010
0000
0001
0302
0000
0100
0000
0000
1000
0000
0010
,
0023
0000
0100
0000
0000
1000
0000
0000
0100
0000
0000
0000
0000
0001
0000
0000
,
0100
0000
0100
0000
0000
1000
0000
0000
0001
0000
0000
0000
0000
0100
0000
0000
,
0032
0000
0010
0000
0000
1000
0000
0000
0100
0000
0000
0000
0000
1000
0000
0000
,
0010
0000
0000
0000
0010
0000
0000
0000
1000
0000
0000
1000
0000
0000
0100
0000
0000
0000
0000
0000
0010
0000
0000
0000
0000
0000
1000
0000
0003
0000
0100
0000
,
0110
0000
0000
0101
0000
1100
0000
1001
,
0000
0000
0000
0001
0000
0000
0000
1000
,
0000
0010
0000
0100
1000
0100
0010
1000
,
0100
0001
0100
1000
0000
0100
0010
0000
,
0000
0000
0011
0000
0000
0110
0000
0000
,
1100
0000
0000
1001
0000
0001
0100
0001
,
1000
0000
0010
0000
0001
0000
1000
0000
0100
0000
0001
0010
0100
0000
1000
0000
,
0010
0001
1000
0100
0000
0001
0010
0000
,
0000
1100
0000
0000
1001
0000
0000
0101
,
0000
0001
0100
0010
0001
0010
1000
0100
,
1000
0010
0000
0010
0100
0001
0000
1000
,
0000
0001
0010
0100
0000
1000
0001
0000
,
0000
0000
1000
0010
1000
0001
0010
0100
,
0000
0010
0001
0010
0100
1000
0001
0000
,
1000
0000
0000
0100
0000
0000
0010
0000
0000
0001
0000
0000
0100
0000
0001
0000
0100
0000
0010
0000
1000
0000
0100
0000
,
0001
0100
1000
0010
0100
0001
0010
0100
1000
0001
0100
0010
,
1000
0000
1010
0000
0100
0001
0011
0000
,
1000
0000
1100
0000
0010
0001
0101
0000
,
1000
0000
0110
0000
0001
0100
1010
0000
,
0001
0100
0110
0010
1000
0100
0011
0000
,
0001
0000
1010
0000
0100
0001
0011
0000
,
1000
0000
0101
0000
0010
1000
1100
0000
,
0001
0000
0000
0000
0110
0000
0000
0000
1000
0000
0100
0010
0001
0000
0000
0000
,
1000
0100
0110
0010
0001
0100
1010
0000
,
0001
0100
0100
0010
1000
0001
0001
0010
,
1000
0010
0001
0010
0100
0001
0100
0010
,
0001
0100
1000
0001
0010
0001
1000
0100
,
0001
0000
0100
0000
0010
0000
0001
0000
0010
0000
1000
0000
0100
0000
0010
0001
,
1000
0010
0001
0010
0100
1000
0100
0010
,
1000
0001
0010
1000
0010
0100
0001
0100
,
1000
0000
0010
0000
0100
0000
0010
0000
0001
0000
0010
0100
0001
0000
1000
0000
,
0100
0010
1000
0010
0001
1000
0010
0100
,
0101
0000
1100
0000
0010
1001
0100
0000
,
1100
0000
0101
0000
0010
1001
0100
0000
,
1010
0000
0011
0000
0100
1001
0010
0000
,
0011
0000
1010
0000
0100
1001
0010
0000
,
1010
1000
1100
0000
0011
0001
0101
0000
,
0110
0010
1010
0000
0110
0010
0011
0000
,
1010
0110
0101
0000
0011
0110
1100
0000
,
2002
0000
0000
0000
,
0000
0000
0000
0000
,
0000
0000
0000
0000
,
0000
0000
0000
0000
,
3003
0000
0000
0000
;

//---------------dance-single - NewbStepper-CSP----------------
#NOTES:
     dance-single:
     NewbStepper:
     Challenge:
     18:
     :
0000
0000
0000
0000
,
0000
0000
0000
0000
,
0000
0000
0000
0000
,
0000
0000
0000
0000
,
1001
0000
0001
0100
0010
1000
0100
0010
,
0100
0001
1000
0010
0010
0001
0100
0100
,
1000
0100
0001
0010
0001
1000
0100
0001
,
1000
0001
0100
1000
0010
0001
1000
0100
,
0001
0000
1000
0100
1000
0000
0001
0000
1000
0000
0010
0000
0100
0010
0100
0000
,
0001
1000
0001
0000
0010
0000
1000
0000
0001
0000
0100
0000
0010
0000
0001
0000
,
1000
0010
0001
1000
0100
1000
0001
0010
,
1000
0100
0001
0100
1000
0010
0001
0010
,
1000
0000
0100
0010
0100
0000
0001
0000
1000
0000
0010
0000
0001
0000
0100
0000
,
0001
0000
0100
0010
0100
0000
1000
0000
0001
0000
0010
0000
1000
0000
0100
0000
,
0010
0000
1000
0010
0100
0000
1000
0000
0001
0000
0100
0000
1000
0000
0100
0000
,
0010
0000
0001
0010
0100
0000
0001
0000
1000
0000
0100
0000
0001
0000
0100
0000
,
0110
0000
0000
0000
0001
0000
1000
0000
0001
0000
0010
0000
0100
0010
0100
0000
,
1000
0001
1000
0000
0010
0000
0001
0000
1000
0000
0100
0000
0010
0000
1000
0000
,
0001
0010
1000
0001
0100
0001
1000
0010
,
0001
0100
1000
0100
0001
0010
1000
0010
,
0001
0000
0100
0010
0100
0000
1000
0000
0001
0000
0010
0000
1000
0000
0100
0000
,
1000
0000
0100
0010
0100
0000
0001
0000
1000
0000
0010
0000
0001
0000
0100
0000
,
0110
1010
1001
0101
,
0110
0000
1000
0100
0001
0100
1000
0010
,
0110
0000
1001
0000
0001
0100
1000
0100
,
0110
0000
1001
0000
1000
0100
0001
0100
,
0110
0000
1001
0000
1000
0010
0001
0010
,
0110
0000
1001
0000
0001
0010
1000
0010
,
0001
0000
0100
0000
0010
1000
0010
0000
0001
0000
1000
0000
0100
0000
0001
0000
,
1000
0000
0100
0000
0010
0001
0010
0001
0010
0000
1000
0000
0010
0000
0001
0000
,
0100
0000
1000
0000
0100
0010
0100
0010
0100
0010
1000
0000
0001
0000
0100
0000
,
0010
1000
0010
1000
0001
0010
0001
0010
0100
1000
0100
1000
0001
0100
0001
0100
,
0020
0000
1000
0000
,
1000
0000
1000
0030
,
1000
0000
0100
0000
0001
0000
0100
0000
1000
0000
0100
0000
0001
0000
0100
0010
0001
0000
0100
0000
1000
0000
0100
0000
0001
0000
0100
0000
1000
0000
0100
0010
,
1000
0000
0100
0000
0001
0000
0100
0000
1000
0000
0100
0000
0001
0000
0100
0010
0001
0000
0100
0000
1000
0000
0100
0000
0001
0000
0100
0000
1000
0000
0100
0010
,
1000
0000
0010
0000
0001
0000
0010
0000
1000
0000
0010
0000
0001
0000
0010
0100
0001
0000
0010
0000
1000
0000
0010
0000
0001
0000
0010
0000
1000
0000
0010
0100
,
1000
0000
0010
0000
0001
0000
1000
0000
0100
0000
0001
0000
0010
0000
0100
0010
0100
0000
1000
0000
0100
0000
0001
0000
1000
0000
0010
0000
0001
0000
0100
0010
,
0100
0001
0010
0100
1000
0010
0010
0001
1000
0100
0001
0100
1000
0001
0001
0010
,
1000
0001
0100
1000
0001
0010
0010
1000
0001
0100
1000
0100
0001
0100
0100
0000
,
1001
0000
1000
0000
0001
0000
0010
0000
0100
1000
0100
1000
0100
0000
1000
0000
1001
0000
0001
0000
1000
0000
0010
0000
0100
0001
0100
0001
0100
0000
0001
0000
,
1001
0000
1000
0000
0001
0000
0100
0000
0010
1000
0010
1000
0010
0000
1000
0000
1001
0000
0001
0000
1000
0000
0100
0000
0010
0001
0010
0001
0010
0000
0000
0000
,
1001
0000
0001
0000
1000
0000
0100
0000
0010
0001
0010
0100
1000
0000
0001
0000
1001
0000
1000
0000
0001
0000
0100
0000
0010
1000
0010
0100
0001
0000
1000
0000
,
1001
0000
0001
0000
1000
0000
0010
0000
0100
0001
0100
0010
1000
0000
0001
0000
1001
0000
1000
0000
0001
0000
0010
0000
0100
1000
0100
0010
0001
0000
0000
0000
,
1001
0000
0000
1100
0000
0011
0000
0210
,
0000
0000
0000
2300
0000
0000
0000
3001
,
0000
0100
0000
1000
0100
0001
0010
1000
,
0001
1000
0010
0001
0000
1000
0020
0000
,
0030
0000
1010
0000
0000
0101
0000
0000
,
1001
0000
0000
1010
0000
0010
0001
1000
,
0001
0010
1000
0100
1000
0001
0100
0010
,
0001
1000
0100
0001
0000
1000
0010
0000
,
0000
1010
0000
0000
0101
0000
0000
1001
,
0000
1000
0100
1000
0001
0100
0001
1000
,
0010
0011
0000
0001
0010
1010
0000
1000
,
0100
0001
1000
0010
0000
0001
0200
0000
,
0300
0000
0000
0000
1000
0000
0100
0010
0100
0000
0001
0000
0010
0000
1000
0000
,
0000
0000
0001
0000
0100
0010
0100
0000
1000
0000
0010
0000
0001
0000
0000
0000
,
1000
0000
0000
0000
0000
0000
0100
0000
0000
0010
0000
0000
0100
0000
0000
0000
0000
0000
0001
0000
0000
0000
0000
0000
0010
0000
0000
0000
0001
0000
0000
0000
0100
0000
0000
0000
0010
0000
0000
0000
0001
0000
0000
0000
0010
0000
0000
0000
,
0100
0001
0010
0100
1000
0010
0100
1000
0100
0010
1000
0001
,
1000
0000
0001
0100
0001
0000
0010
0000
1000
0000
0001
0000
0100
0000
1000
0000
,
0010
0000
1000
0010
1000
0000
0010
0000
0001
0000
0010
0000
1000
0000
0001
0000
,
0100
0000
0010
1000
0010
0000
0001
0000
0010
0000
1000
0010
1000
0000
0001
0000
,
0100
0000
1000
0100
1000
0000
0100
0001
0100
0000
0001
1000
0100
0010
0001
1000
,
0001
0000
1000
0100
1000
0000
0010
0000
0001
0000
1000
0000
0100
0000
0001
0000
,
0010
0000
0001
0010
0001
0000
0010
0000
1000
0000
0010
0000
0001
0000
1000
0000
,
0100
0000
0010
0001
0010
0000
1000
0000
0010
0000
0001
0010
0001
0000
1000
0000
,
0100
0000
0001
0100
0001
0000
0100
1000
0100
0000
1000
0001
0100
0010
1000
0001
,
1000
0000
0001
0100
0001
0000
1000
0000
0001
0000
0010
0000
0100
0010
0100
0000
,
1000
0001
1000
0000
0010
0000
0001
0000
1000
0000
0100
0000
0010
0000
1000
0000
,
0001
0010
1000
0001
0100
0001
1000
0010
,
0001
0100
1000
0100
0001
0010
1000
0010
,
0001
0000
0100
0010
0100
0000
1000
0000
0001
0000
0010
0000
1000
0000
0100
0000
,
1000
0000
0100
0010
0100
0000
0001
0000
1000
0000
0010
0000
0001
0000
0100
0000
,
0001
0000
1000
0010
1000
0000
0001
0000
1000
0000
0001
0010
0001
0000
1000
0000
,
0010
0000
1000
0100
0010
0000
0001
0100
0010
0000
1000
0100
0010
0000
0001
0100
,
0010
1000
0010
0000
0100
0000
0001
0000
1000
0100
1000
0000
0001
0000
0010
0000
,
1000
0010
1000
0010
0100
0000
1000
0000
0001
1000
0001
1000
0001
0000
0000
0000
,
1000
0100
1000
0000
0100
0000
0001
0000
1000
0000
0010
0000
0001
0000
1000
0000
,
0001
0100
0001
0000
0100
0000
1000
0000
0100
0010
0100
0010
1000
0100
0010
0001
,
1000
0001
1000
0001
0100
0000
0000
0000
0001
1000
0001
1000
0100
0000
0000
0000
,
1000
0001
1000
0001
0010
0000
0000
0000
0001
1000
0001
1000
0010
0000
0000
0000
,
0100
0010
1000
0001
0010
0000
0000
0000
0100
0010
0001
1000
0010
0000
0000
0000
,
2002
0000
0000
0000
,
0000
0000
0000
0000
,
0000
0000
0000
0000
,
0000
0000
0000
0000
,
3003
0000
0000
0000
;

//---------------dance-double - RGTM-BDP----------------
#NOTES:
     dance-double:
     RGTM:
     Easy:
     10:
     :
00000000
00000000
00000000
00000000
,
00000000
00000000
00000000
00000000
,
00000000
00000000
00000000
00000000
,
00000000
00000000
00000000
00000000
,
10000000
00000000
00010000
00000000
00000000
00010000
00000000
00000000
,
00010000
00000000
00000000
00000000
00000000
00100000
00000000
00000000
,
00001000
00000000
00010000
00000000
00000000
00010000
00000000
00000000
,
00010000
00000000
00000110
00000000
,
00000001
00000100
00000010
00001000
,
00000100
00010000
00001000
01000000
,
00010000
00100000
10000000
00100000
,
00010000
01000000
10000000
01000000
,
00100000
00100000
01000000
01000000
,
00001000
00001000
00010000
00010000
,
00000100
00000100
00000010
00000010
,
00001000
00000010
00000001
00001000
,
00000001
00000010
00000100
00001000
,
00000010
00010000
00001000
00100000
,
00010000
01000000
10000000
01000000
,
00010000
00100000
10000000
00100000
,
01000000
01000000
00100000
00100000
,
00001000
00001000
00010000
00010000
,
00000010
00000010
00000100
00000100
,
00001000
00000100
00000001
00001000
,
00000001
00000000
00000001
00000000
00000000
00000001
00000000
00000000
,
00001000
00000000
00001000
00000000
00000000
00001000
00000000
00000000
,
00000100
00000000
00000100
00000000
00000000
00000100
00000000
00000000
,
00010000
00000000
00010000
00000000
00000000
00010000
00000000
00000000
,
00001000
00000000
00001000
00000000
00000000
00001000
00000000
00000000
,
01000000
00000000
01000000
00000000
00000000
01000000
00000000
00000000
,
00010000
00000000
00010000
00000000
00000000
00010000
00000000
00000000
,
10000000
00000000
10000000
00000000
00000000
10000000
00000000
00000000
,
10010000
00000000
10000000
01000000
00100000
00000000
00001000
00010000
,
00001000
00000000
00010000
00000100
00000010
00000000
00000001
00001000
,
00000002
00000100
00000100
00001000
,
00001000
00000010
00000010
00010000
,
00020003
00000100
00000100
00000010
,
00032000
00100000
00100000
02003000
,
00100000
00100000
10000000
10000000
,
00010000
00010000
03200000
01000000
,
20300000
01000000
00010000
00100000
,
00010000
01000000
00010000
00100000
,
30020000
00100000
10000000
01000000
,
00100000
10000000
01000000
00130000
,
10010000
00000000
00000000
10000000
00000000
10000000
00000000
01000000
,
00000000
00000000
00000000
00100000
00000000
00000000
00000000
00010000
,
00000000
00100000
00000000
00000000
00001000
00000000
00010000
00000000
,
00001000
00000000
00000000
00000100
00000000
00000000
00000010
00000000
,
00000000
00000000
00001000
00000000
00000000
00001000
00000000
00000000
,
00000001
00000000
00000000
00000001
00000000
00000000
00000010
00000000
,
00000001
00000010
00000100
00000010
,
00001000
00000000
00000000
00010000
00000000
00000000
00100000
00000000
,
00000000
10000000
00000000
00000000
10000000
00000000
00000000
01000000
,
00000000
00100000
01000000
00100000
,
00001000
00000000
00000000
00000000
00010000
00000000
00000000
00000100
,
00000000
00000010
00000000
00000001
,
00000000
00001000
00000010
00000100
,
00000000
00001000
00010000
01000000
,
00010000
01000000
00100000
00010000
,
10000000
00100000
01000000
00001000
,
00010000
00010000
00000100
00000100
,
00000010
00000010
00000001
00000001
,
00001000
00000010
00000001
00000010
,
00001000
00000100
00010000
00001000
,
00010000
00010000
01000000
01000000
,
00100000
00100000
00010000
00010000
,
10000000
00100000
00010000
00100000
,
10000000
01000000
00100000
00010000
,
10000000
00100000
01000000
00010000
,
00100000
00001000
00010000
00000010
,
00001000
00000100
00000001
00000100
,
00001000
00000010
00000001
00000010
,
00000100
00000100
00000010
00000010
,
00010000
00010000
00001000
00001000
,
00100000
00100000
01000000
01000000
,
00010000
01000000
10000000
00010000
,
10000000
00000000
10000000
00000000
00000000
10000000
00000000
00000000
,
00010000
00000000
00010000
00000000
00000000
00010000
00000000
00000000
,
00100000
00000000
00100000
00000000
00000000
00100000
00000000
00000000
,
00001000
00000000
00001000
00000000
00000000
00001000
00000000
00000000
,
00010000
00000100
00000010
00000100
,
00010000
01000000
00100000
01000000
,
10000000
00100000
00010000
00001000
,
00022000
00000000
00000000
00000000
,
00000000
00000000
00000000
00000000
,
00000000
00000000
00000000
00000000
,
00000000
00000000
00000000
00000000
,
00033000
00000000
00000000
00000000
;

//---------------dance-double - RGTM-DDP----------------
#NOTES:
     dance-double:
     RGTM:
     Medium:
     14:
     :
00000000
00000000
00000000
00000000
,
00000000
00000000
00000000
00000000
,
00000000
00000000
00000000
00000000
,
00000000
00000000
00000000
00000000
,
00001000
00000000
00010000
00000000
00000000
00010000
00000000
00000000
,
01000000
00000000
00100000
00000000
00000000
00010000
00000000
00000000
,
10000000
00000000
00100000
00000000
00000000
00100000
00000000
00000000
,
01000000
00000000
00001000
00010000
00100000
00010000
00001000
00000000
,
00010000
00000000
00000100
00000000
00000010
00000001
00000100
00000000
,
00000001
00000000
00001000
00000000
00000010
00001000
00000100
00000000
,
00010000
00001000
00010000
00000000
00001000
01000000
00001000
00000000
,
01000000
00100000
01000000
00000000
00100000
10000000
00100000
00000000
,
10000000
01000000
10000000
01000000
00100000
00010000
00100000
00000000
,
00001000
00010000
00001000
00010000
00000100
00001000
00000100
00000000
,
00000010
00000001
00000010
00000001
00000100
00000001
00000100
00000000
,
00000010
00000100
00001000
00010000
00100000
00010000
00001000
00000000
,
00010000
00000000
00000010
00000000
00000100
00000001
00000010
00000000
,
00000001
00000000
00001000
00000000
00000100
00001000
00000010
00000000
,
00010000
00001000
00010000
00000000
00001000
00100000
00001000
00000000
,
00100000
01000000
00100000
00000000
01000000
10000000
01000000
00000000
,
10000000
00100000
10000000
00100000
01000000
00010000
01000000
00000000
,
00001000
00010000
00001000
00010000
00000010
00001000
00000010
00000000
,
00000100
00000001
00000100
00000001
00000010
00000001
00000010
00000000
,
00000100
00000010
00001000
00010000
01000000
00010000
00001000
00000000
,
00010000
00000000
01000000
00000000
00000000
11000000
00000000
00000000
,
10000000
00000000
00100000
00000000
00000000
00110000
00000000
00000000
,
00010000
00000000
00000100
00000000
00000000
00000110
00000000
00000000
,
00000001
00000000
00000100
00000000
00000000
00000110
00000000
00000000
,
00010000
00000000
00011000
00000000
00000000
01010000
00000000
00000000
,
10000000
00000000
10100000
00000000
00000000
00110000
00000000
00000000
,
00001000
00000000
00011000
00000000
00000000
00001100
00000000
00000000
,
00000001
00000000
00000011
00000000
00000000
00001010
00000000
00000000
,
00011000
00000000
00010000
00000000
01000000
10000000
01000000
00000000
10000000
00000000
00100000
00000000
00010000
00001000
00010000
00001000
,
00010000
00000000
00001000
00000000
00000100
00000001
00000100
00000000
00000001
00000000
00000010
00000000
00001000
00010000
00001000
00010000
,
00002000
00100000
00100000
00010000
00010000
00000100
00000100
00010000
,
00010000
00000010
00000010
00010000
00100000
00010000
00000100
00010000
,
00003020
00001000
00001000
00000001
00000001
00000100
00000100
00001000
,
00000230
00000010
00010000
00010000
00001000
00000010
00020300
00000100
,
00000100
00001000
00001000
00100000
00100000
00001000
00001000
01000000
,
00001000
00000100
00000010
00001000
00230000
00010000
01000000
10000000
,
20300000
00000000
00100000
00000000
00000000
00010000
00000000
00000000
01000000
00000000
00000000
00000000
00000000
00010000
00000000
00000000
,
00100000
00000000
00100000
00000000
00000000
00010000
00000000
00000000
01000000
00000000
00000000
00000000
00000000
00100000
00000000
00000000
,
32000000
00000000
10000000
00000000
00000000
00100000
00000000
00000000
00010000
00000000
00000000
00000000
00000000
10000000
00000000
00000000
,
00010000
00000000
00010000
00000000
00100000
00000000
00000000
00100000
00000000
00000000
00010000
00000000
00000000
10000000
03000000
00000000
,
11000000
00000000
00000000
01010000
00000000
01010000
00000000
00011000
,
00000000
00000000
00000000
00010000
00000000
00000000
00000000
00000100
,
00000000
00000010
00000000
00000100
00001000
00000100
00000010
00001000
,
00010000
00100000
00010000
00001000
00000000
01000000
00100000
00000000
,
00000000
00000000
10000000
00000000
00000000
10000000
00000000
00000000
,
00100000
00000000
00000000
00100000
00000000
01000000
00100000
10000000
,
00010000
00100000
01000000
00100000
00010000
01000000
00001000
00010000
,
00000100
00001000
00000100
00000010
00000000
00000001
00001000
00000000
,
00000000
00000010
00000000
00000000
00000010
00000000
00000000
00000100
,
00000000
00000001
00000100
00000010
00001000
00000100
00000010
00000100
,
00010000
00001000
00000000
00001000
01000000
00010000
00000000
10000000
,
00000000
00100000
10000000
01000000
00000000
00100000
00010000
00000000
,
00000000
00000000
10000000
01000000
00100000
00010000
10000000
01000000
,
00000000
00100000
00001000
00010000
00000100
00010000
00001000
00000000
,
00010000
00000100
00000010
00000001
00001000
00000010
00000100
00000001
,
00000010
00000100
00010000
00001000
01000000
00100000
10000000
01000000
,
00100000
00000000
00010000
00000000
01000000
00010000
01000000
00000000
,
00001000
00000000
00010000
00000000
00000100
00001000
00000100
00000000
,
00000010
00000000
00000001
00000000
00000100
00000001
00000100
00000000
,
00000010
00001000
00000100
00010000
00001000
01000000
00010000
00000000
,
00100000
00000000
01000000
00000000
10000000
00100000
10000000
00000000
,
00100000
00000000
01000000
00000000
00001000
00010000
00001000
00000000
,
00010000
00000000
00000100
00000000
00000010
00000001
00000010
00000000
,
00000100
00010000
00001000
00100000
00010000
01000000
00100000
00000000
,
10000000
01000000
10000000
00000000
00010000
00100000
00010000
00000000
,
01000000
00001000
00010000
00000100
00000010
00000100
00010000
00001000
,
00100000
00010000
01000000
00000000
01000000
00001000
00010000
00000000
,
00000010
00001000
00000100
00000000
00000100
00010000
00001000
00000000
,
00010000
00100000
10000000
01000000
00100000
00001000
00010000
00000000
,
00001000
00000010
00000001
00000100
00000010
00010000
00001000
00000000
,
00010000
01000000
10000000
00000000
10000000
01000000
00010000
00000000
,
00001000
00000100
00000001
00000100
00001000
00010000
01000000
00000000
,
10000000
00000000
00100000
00000000
00010000
00001000
00010000
00000000
,
00000010
00000000
00000100
00000000
00000001
00001000
00000001
00000000
,
00000001
00000000
00000010
00000000
00001000
00010000
00001000
00000000
,
00100000
00000000
01000000
00000000
10000000
00010000
10000000
00000000
,
10000000
01000000
00010000
00000000
00010000
00001000
00010000
00000000
,
00001000
00000100
00000001
00000000
00000001
00001000
00000001
00000000
,
00000010
00000100
00010000
00000000
00001000
01000000
00100000
00000000
,
20020000
00000000
00000000
00000000
,
00000000
00000000
00000000
00000000
,
00000000
00000000
00000000
00000000
,
00000000
00000000
00000000
00000000
,
30030000
00000000
00000000
00000000
;

//---------------dance-double - RGTM-EDP----------------
#NOTES:
     dance-double:
     RGTM:
     Hard:
     17:
     :
00000000
00000000
00000000
00000000
,
00000000
00000000
00000000
00000000
,
00000000
00000000
00000000
00000000
,
00000000
00000000
00000000
00000000
,
10000000
00000000
01100000
00000000
00000000
00011000
00000000
00000000
,
00000110
00000000
00000010
00000000
00000001
00001000
00000000
00000000
,
00000010
00000000
00000110
00000000
00010000
00001000
00000000
00000000
,
00011000
00000000
00010000
00100000
10000000
00010000
00100000
00000000
,
01000000
10000000
00100000
01000000
00001000
00010000
00000100
00001000
,
00000010
00000001
00000010
00001000
00000100
00010000
00001000
01000000
,
00100000
01000000
00010000
00100000
10000000
00100000
00010000
01000000
,
10000000
01000000
00010000
00100000
01000000
00010000
00001000
00000100
,
00000001
00000100
00001000
00000001
00000010
00001000
00000100
00010000
,
01000000
10000000
00100000
00010000
00100000
01000000
00001000
00010000
,
00000010
00001000
00000100
00000010
00001000
00000010
00000001
00001000
,
00000100
00010000
01000000
10000000
00100000
00010000
10000000
00010000
,
00100000
10000000
01000000
00100000
00001000
00010000
00000010
00001000
,
00000100
00000001
00000100
00001000
00000010
00010000
00001000
00100000
,
01000000
00100000
00010000
01000000
10000000
01000000
00010000
00100000
,
10000000
00100000
00010000
01000000
00100000
00010000
00001000
00000010
,
00000001
00000010
00001000
00000001
00000100
00001000
00000010
00010000
,
00100000
10000000
01000000
00010000
01000000
00100000
00001000
00010000
,
00000100
00001000
00000010
00000100
00001000
00000100
00000001
00001000
,
00000010
00010000
00100000
10000000
01000000
00010000
01000000
10000000
,
11000000
00000000
01010000
00000000
00000000
00011000
00000000
00000000
,
00000101
00000000
00001100
00000000
00000000
00011000
00000000
00000000
,
10100000
00000000
00110000
00000000
00000000
00011000
00000000
00000000
,
00000011
00000000
00001010
00000000
00000000
00011000
00000000
00000000
,
11000000
00000000
01010000
00000000
00100000
00001000
00010000
00000000
,
00000101
00000000
00001100
00000000
00000010
00010000
00001000
00000000
,
10100000
00000000
00110000
00000000
01000000
00001000
00010000
00000000
,
00000011
00000000
00001010
00000000
00000100
00010000
00001000
00000000
,
00010000
00001000
00100000
01000000
10000000
00010000
00010000
00100000
00001000
00010000
00000010
00000100
00000001
00001000
00001000
00000010
,
00010000
00001000
01000000
00100000
10000000
00010000
00010000
00100000
00001000
00010000
00000100
00000010
00000001
00001000
00001000
00000010
,
00020000
00000000
00000100
00000000
00000000
00001000
00000000
00100000
00000000
00000000
00001000
00000000
00000000
01000000
00000000
00001000
,
00000000
00000000
00000100
00000000
00000000
00000010
00000000
00001000
00000000
00000000
01000000
00000000
00000000
00001000
00000000
01000000
,
02030000
00000000
00010000
00000000
00000000
00100000
00000000
10000000
00000000
00000000
00010000
00000000
00000000
10000000
00000000
00100000
,
03200000
00000000
01000000
00000000
00000000
00001000
00000000
00010000
00000000
00000000
01000000
00000000
00302000
00100000
00000000
00010000
,
00000000
00000000
00000100
00000000
00000000
00010000
00000000
01000000
00000000
00000000
00100000
00000000
00000000
01000000
00000000
00010000
,
00000000
00000000
00100000
00000000
00000000
00010000
00000000
00000100
00003200
00000000
00001000
00000000
00000000
00000010
00000000
00000001
,
00000302
00000000
00000100
00000000
00000000
00001000
00000000
00000000
00000010
00000000
00000000
00000000
00000000
00001000
00000000
00000000
,
00000100
00000000
00000100
00000000
00000000
00001000
00000000
00000000
00000010
00000000
00000000
00000000
00000000
00000100
00000000
00000000
,
00000023
00000000
00000001
00000000
00000000
00000100
00000000
00000000
00001000
00000000
00000000
00000000
00000000
00000001
00000000
00000000
,
00001000
00000000
00000000
00000000
00001000
00000000
00000000
00000000
00000001
00000000
00000000
00000001
00000000
00000000
00000100
00000000
00000000
00000000
00000000
00000000
00000001
00000000
00000000
00000000
00000000
00000000
00001000
00000000
00000030
00000000
00000100
00000000
,
00000110
00000000
00000000
00001100
00000000
00011000
00000000
01010000
,
00000000
00000000
00000000
10000000
00000000
00000000
00000000
00010000
,
00000000
00100000
00000000
01000000
00010000
00001000
00000100
00000010
,
00001000
00000100
00000010
00000001
00000000
00001000
00000010
00000000
,
00000000
00000000
00001010
00000000
00000000
00011000
00000000
00000000
,
00110000
00000000
00000000
01100000
00000000
01000000
10000000
00100000
,
00010000
00100000
01000000
00010000
00100000
00001000
00000100
00000010
,
00000001
00000010
00000100
00000001
00000000
00000010
00001000
00000000
,
00000000
00011000
00000000
00000000
10100000
00000000
00000000
01010000
,
00000000
00010000
00100000
10000000
00100000
00001000
00010000
00000100
,
00000001
00001000
00000000
00000001
00000100
00001000
00000000
01000000
,
00000000
10000000
00010000
01000000
00000000
00001000
00010000
00000000
,
00000000
00000000
00000010
00001000
00000001
00000010
00001000
00010000
,
00000000
00100000
10000000
01000000
00010000
00001000
00000100
00000000
,
00001000
00000000
00000000
00010000
00000000
00000000
01000000
00000000
00000000
00100000
00000000
00000000
01000000
00000000
10000000
00000000
00010000
00000000
01000000
00000000
00100000
00000000
00010000
00000000
,
00001000
00010000
00000100
00000010
00000001
00001000
00000010
00000100
00001000
00010000
00000100
00000010
,
00000001
00000000
00000110
00000000
00000001
00001000
00000100
00000000
,
00010000
00000000
01001000
00000000
00100000
10000000
01000000
00000000
,
10000000
00000000
01100000
00000000
10000000
00010000
01000000
00000000
,
00001000
00010000
00010100
00000100
00000010
00000001
00000100
00000000
,
00000001
00000000
00000110
00000000
00000001
00001000
00000010
00000000
,
00010000
00000000
00101000
00000000
01000000
10000000
00100000
00000000
,
10000000
00000000
01100000
00000000
10000000
00010000
00100000
00000000
,
00001000
00010000
00010010
00000010
00000100
00000001
00000010
00000000
,
00000100
00001000
00001000
00000001
00000100
00000010
00000010
00010000
,
00001000
00100000
01000000
00010000
00001000
00000010
00000100
00010000
,
00001000
01000000
00100000
00010000
10000000
01000000
00100000
01000000
,
00001000
00010000
00000100
00000010
00001000
00000010
00000001
00000100
,
00010000
00000100
00000010
00010000
00001000
00000100
00000010
00010000
,
00001000
00100000
01000000
00010000
00001000
01000000
00100000
00010000
,
00001000
00010000
00000100
00000010
00001000
00010000
01000000
00100000
,
00001000
01000000
00100000
00010000
10000000
01000000
00010000
00100000
,
00110000
00000000
00001010
00000000
00000010
00010000
00000100
00000000
,
00001010
00000000
00110000
00000000
00100000
00001000
01000000
00000000
,
11000000
00000000
01010000
00000000
00100000
00001000
00010000
00000000
,
00001100
00000000
00000101
00000000
00000010
00010000
00001000
00000000
,
00010000
01000000
11000000
00000000
10000000
00100000
00110000
00000000
,
00001000
00000100
00000101
00000000
00000001
00000010
00001010
00000000
,
00011000
00010000
00100000
00000000
10010000
00010000
01000000
00000000
,
00022000
00000000
00000000
00000000
,
00000000
00000000
00000000
00000000
,
00000000
00000000
00000000
00000000
,
00000000
00000000
00000000
00000000
,
00033000
00000000
00000000
00000000
;

//---------------dance-double - NewbStepper-CDP----------------
#NOTES:
     dance-double:
     NewbStepper:
     Challenge:
     18:
     :
00000000
00000000
00000000
00000000
,
00000000
00000000
00000000
00000000
,
00000000
00000000
00000000
00000000
,
00000000
00000000
00000000
00000000
,
10010000
00000000
10000000
01000000
00010000
00001000
00000100
00001000
,
00010000
00000100
00001000
00000001
00000100
00001000
00010000
01000000
,
00010000
00001000
01000000
00010000
10000000
00100000
00010000
00001000
,
00000010
00001000
00010000
00000010
00001000
00000001
00000010
00001000
,
00010000
00001000
00000010
00001000
01000000
10000000
01000000
00010000
,
01000000
00100000
00010000
00001000
00010000
00000010
00001000
00100000
,
00010000
00001000
00100000
00001000
00000010
00001000
00010000
00001000
,
00000100
00000001
00000010
00000100
00000001
00001000
00000010
00000001
,
00001000
00000010
00000100
00001000
01000000
00001000
00010000
00100000
,
01000000
10000000
01000000
00001000
01000000
00100000
00010000
00001000
,
00100000
00010000
00001000
00000100
00000001
00001000
00000010
00000001
,
00000100
00001000
01000000
00001000
00010000
00100000
10000000
01000000
,
00010000
00000100
00001000
00010000
00001000
00000100
00010000
00001000
,
00000010
00000001
00000100
00001000
00000100
00000010
00010000
00000100
,
00000010
00001000
00010000
00100000
10000000
01000000
00010000
00000100
,
00000010
00001000
00010000
00001000
00000010
00000100
00010000
00001000
,
00000010
00001000
00000001
00000100
00001000
00000010
00010000
00100000
,
10000000
00100000
00010000
10000000
01000000
00010000
00100000
00001000
,
00000010
00001000
00100000
00001000
00000010
00000100
00010000
01000000
,
00010000
00000100
00010000
01000000
00010000
00001000
00000100
00000001
,
00000101
00000000
00001100
00000000
00001000
00010000
01000000
10000000
,
11000000
00000000
01010000
00000000
00010000
00001000
00000010
00000001
,
00000011
00000000
00001010
00000000
00001000
00010000
00100000
10000000
,
10100000
00000000
00110000
00000000
00010000
00001000
00000100
00000001
,
00001000
00000000
00000100
00000000
00000010
00000001
00000010
00000000
00001000
00000000
00010000
00000000
00000010
00000000
00001000
00000000
,
00010000
00000000
01000000
00000000
00100000
10000000
00100000
10000000
00100000
00000000
01000000
00000000
00010000
00000000
10000000
00000000
,
01000000
00000000
00010000
00000000
00001000
00010000
00001000
00010000
00001000
00010000
00000100
00000000
00000010
00000000
00000001
00000000
,
00000100
00000001
00000100
00000001
00001000
00000100
00001000
00000100
00000010
00000000
00001000
00000000
00010000
00000000
00100000
00000000
,
10000000
00000000
01000000
00000000
00010000
00000000
01000000
00000000
00100000
00000000
00001000
00000000
00001000
00000000
00010000
00001000
00010000
00000000
00000010
00000000
00000100
00000000
00001000
00000000
00000001
00000000
00000010
00000000
00000010
00001000
00000001
00001000
,
00000001
00000000
00000100
00000000
00001000
00000000
00000100
00000000
00000010
00000000
00010000
00000000
00010000
00000000
00001000
00010000
00001000
00000000
00100000
00000000
01000000
00000000
00010000
00000000
10000000
00000000
00100000
00000000
00100000
00010000
10000000
00010000
,
20000000
00000000
31000000
00010000
00001000
00100000
00010000
00001000
00020000
00000000
01030000
00100000
00010000
00001000
00100000
00010000
,
00000020
00000000
00001030
00010000
00000100
00000010
00000001
00000100
00002000
00000000
00003100
00000010
00001000
00010000
00001000
00000100
,
00020000
00000000
00031000
00100000
01000000
00010000
00001000
01000000
20000000
00000000
30010000
00100000
00001000
00100000
00010000
00001000
,
00000020
00000000
00000130
00010000
00001000
00010000
00000100
00000010
00000002
00000000
00000103
00001000
00010000
00001000
00100000
00010000
,
00002000
00000000
00013000
01000000
10000000
01000000
00100000
10000000
00020000
00000000
00130000
01000000
00010000
00000010
00000100
00001000
,
00020000
00000000
00031000
00000010
00000001
00000100
00000001
00001000
00000200
00000000
00010300
00001000
00010000
00100000
10000000
00000000
,
00020000
00000000
10030000
01000000
00010000
00000100
00000001
00000100
00002000
00000000
00003001
00000100
00001000
01000000
10000000
01000000
,
00020000
00000000
10030000
00100000
00010000
00000010
00000001
00000010
00002000
00000000
00003001
00000010
00001000
00100000
10000000
00100000
,
00020000
00000000
10030000
01000000
00010000
00000010
00000001
00000010
00002000
00000000
00003001
00000100
00001000
00100000
10000000
00100000
,
00020000
00000000
10030000
00100000
00010000
00000100
00000001
00000100
00002000
00000000
00003001
00000010
00001000
01000000
10000000
01000000
,
00020000
00030000
00000000
10010000
00000000
00011000
00000000
00002001
,
00000000
00000000
00000000
00003002
00000000
00000000
00000000
00001003
,
00000000
00000010
00000000
00000100
00001000
00010000
01000000
10000000
,
00100000
00010000
00001000
00100000
00000000
00001000
00000200
00000000
,
00000300
00000000
00000101
00000000
00000000
00011000
00000000
00000000
,
11000000
00000000
00000000
00110000
00000000
00010000
00100000
00001000
,
00000010
00001000
00010000
00000010
00000100
00010000
00000100
00000001
,
00001000
00000100
00000010
00001000
00000000
00010000
01000000
00000000
,
00000000
11000000
00000000
00000000
00011000
00000000
00000000
00000101
,
00000000
00000000
00000001
00000000
00000100
00000000
00000001
00000000
00000010
00000000
00001000
00000000
00010000
00000000
00100000
01000000
,
00100000
01000000
00100000
00000000
00000000
00000000
10000000
00100000
10000000
00100000
10000000
00000000
00000000
00000000
00010000
00100000
,
00010000
00100000
00010000
00000000
01000000
00000000
00001000
00000000
00000000
00000000
00000010
00000000
00000200
00000000
00000000
00000000
,
00000300
00000000
00000000
00000000
00010000
00000000
01000000
00100000
01000000
00000000
10000000
00000000
00100000
00000000
00010000
00000000
,
00000000
00000000
00001000
00000000
00000100
00000010
00000100
00000000
00000001
00000000
00000010
00000000
00001000
00000000
00000000
00000000
,
00010000
00000000
00000000
00000000
00000000
00000000
01000000
00000000
00000000
00100000
00000000
00000000
01000000
00000000
00000000
00000000
00000000
00000000
10000000
00000000
00000000
00000000
00000000
00000000
00100000
00000000
00000000
00000000
10000000
00000000
00000000
00000000
01000000
00000000
00000000
00000000
00100000
00000000
00000000
00000000
00010000
00000000
00000000
00000000
01000000
00000000
00000000
00000000
,
00100000
00010000
00001000
00100000
00001000
00010000
00000010
00010000
00001000
00000010
00000100
00001000
,
00000100
00000000
00010000
00001000
00010000
00000000
00001000
00000000
00000010
00000000
00000001
00000000
00000100
00000000
00000010
00000000
,
00000100
00000000
00000001
00000100
00000001
00000000
00000100
00000000
00001000
00000000
00010000
00000000
00100000
00000000
10000000
00000000
,
00010000
00000000
10000000
01000000
10000000
00000000
01000000
00000000
00010000
00000000
00001000
00010000
00001000
00000000
00000010
00000000
,
00000001
00000000
00001000
00000010
00001000
00000000
00000100
00000010
00000100
00000000
00000010
00000001
00000010
00000000
00000100
00000000
,
00010000
00000000
00001000
00010000
00001000
00000000
00010000
00000000
00100000
00000000
10000000
00000000
01000000
00000000
00100000
00000000
,
01000000
00000000
10000000
01000000
10000000
00000000
01000000
00000000
00010000
00000000
00001000
00000000
00000010
00000000
00000001
00000000
,
00001000
00000000
00000001
00000100
00000001
00000000
00000100
00000000
00001000
00000000
00010000
00001000
00010000
00000000
00100000
00000000
,
10000000
00000000
00010000
00100000
00010000
00000000
01000000
00100000
01000000
00000000
00100000
10000000
00100000
00000000
01000000
00000000
,
00001000
00010000
00100000
00010000
00000100
00000001
00000100
00001000
,
00000100
00000010
00001000
00010000
00001000
00100000
00010000
00000010
,
00001000
00010000
00000010
00010000
00100000
00010000
00001000
00010000
,
01000000
10000000
00100000
01000000
10000000
00010000
00100000
10000000
,
00010000
00100000
01000000
00010000
00000100
00010000
00001000
00000010
,
00000100
00000001
00000100
00010000
00000100
00000010
00001000
00010000
,
00000010
00001000
00010000
01000000
10000000
00010000
00100000
10000000
,
01000000
00010000
00000100
00010000
00001000
00000010
00000001
00000100
,
00001000
00010000
00001000
00000000
00010000
00000000
00100000
00000000
10000000
00100000
10000000
00000000
01000000
00000000
00010000
00000000
,
00001000
00010000
00001000
00000000
00000100
00000000
00000010
00000000
00001000
00000001
00001000
00000001
00001000
00000000
00000000
00000000
,
00000001
00000100
00000001
00000000
00000100
00000000
00001000
00000000
00010000
00000000
00100000
00000000
10000000
00000000
00010000
00000000
,
10000000
01000000
10000000
00000000
01000000
00000000
00010000
00000000
00001000
00010000
00001000
00010000
00000100
00001000
00000100
00000010
,
00000001
00000100
00010000
00000000
10000000
01000000
00001000
00000000
,
00000001
00000010
00010000
00000000
10000000
00100000
00001000
00000000
,
00000010
00000100
00001000
00000000
00100000
01000000
00010000
00000000
,
00022000
00000000
00000000
00000000
,
00000000
00000000
00000000
00000000
,
00000000
00000000
00000000
00000000
,
00000000
00000000
00000000
00000000
,
00033000
00000000
00000000
00000000
;
