#TITLE:恋音と雨空;
#ARTIST:AAA;
#TITLETRANSLIT:Koi Oto to Amazora;
#BANNER:Koi Oto to Amazora.png;
#BACKGROUND:Koi Oto to Amazora-bg.png;
#MUSIC:Koi Oto to Amazora.ogg;
#OFFSET:0.429268;
#SAMPLESTART:87.874;
#SAMPLELENGTH:15;
#BPMS:0=129.1;
#BGCHANGES:0.25=Koi Oto to Amazora.avi=1=0=0=0=StretchNoLoop====,99999=-nosongbg-=1=0=0=0 // don't automatically add -songbackground-;

//---------------dance-single - NewbStepper-bSP----------------
#NOTES:
     dance-single:
     NewbStepper:
     Beginner:
     2:
     :
0000
0000
0000
0000
,
0000
0000
0000
0000
,
0000
0000
0000
0000
,
0000
0000
0000
0000
,
0000
0000
0000
0000
,
1000
0000
0000
0000
,
1000
0000
0000
0000
,
0001
0000
0000
0000
,
0001
0000
0000
0000
,
1000
0000
0000
0000
,
0000
0000
0000
0000
,
1000
0000
0000
0000
,
0000
0000
0000
0000
,
0001
0000
0000
0000
,
0000
0000
0000
0000
,
0001
0000
0001
0000
,
0001
0000
0000
0000
,
1000
0000
1000
0000
,
1000
0000
0000
0000
,
0100
0000
0100
0000
,
0100
0000
0000
0000
,
0010
0000
0010
0000
,
0010
0000
0000
0000
,
0001
0000
0000
0000
,
0001
0000
0000
0000
,
1000
0000
0000
0000
,
1000
0000
0000
0000
,
0001
0000
0000
0000
,
0100
0000
0000
0000
,
0100
0000
0000
0000
,
0010
0000
0000
0000
,
1000
0000
0000
0000
,
1000
0000
0000
0000
,
0001
0000
0000
0000
,
0001
0000
0000
0000
,
1000
0000
0000
0000
,
0100
0000
0000
0000
,
0100
0000
0000
0000
,
0010
0000
0000
0000
,
0001
0000
0001
0000
,
0000
0010
0010
0000
,
1000
0000
1000
0000
,
0000
0010
0010
0000
,
0001
0000
0001
0000
,
0100
0000
0100
0000
,
0010
0000
0010
0000
,
2000
0000
3000
0000
,
0000
0000
0000
0000
,
0001
0000
0001
0000
,
0001
0000
0000
0000
,
1000
0000
1000
0000
,
1000
0000
0000
0000
,
0010
0000
0000
0000
,
0010
0000
0000
0000
,
0100
0000
0100
0000
,
0001
0000
0000
0000
,
1000
0000
1000
0000
,
1000
0000
0000
0000
,
0001
0000
0001
0000
,
0001
0000
0000
0000
,
0100
0000
0000
0000
,
0010
0000
0000
0000
,
1000
0000
1000
0000
,
1000
0000
0000
0000
,
0001
0000
0001
0000
,
0001
0000
0000
0000
,
0100
0000
0100
0000
,
0100
0000
0000
0000
,
0010
0000
0010
0000
,
0010
0000
0000
0000
,
2000
0000
3000
0000
,
0002
0000
0003
0000
,
0200
0000
0000
0000
,
0000
0000
0000
0300
;

//---------------dance-single - NewbStepper-BSP----------------
#NOTES:
     dance-single:
     NewbStepper:
     Easy:
     4:
     :
0000
0000
0000
0000
,
0000
0000
0000
0000
,
0000
0000
0000
0000
,
0000
0000
0000
0000
,
0000
0000
0001
0100
,
0001
0000
1000
0100
,
1000
0000
0010
0000
,
1000
0000
0001
0000
,
1001
0000
0000
0000
,
1000
0100
1000
0100
,
0010
0000
0001
0000
,
0001
0100
0001
0100
,
0010
0000
1000
0000
,
0001
0000
1000
0000
,
0002
0000
0003
0000
,
1000
0001
1000
0001
,
0200
0000
0300
0000
,
0001
1000
0001
1000
,
0020
0000
0030
0000
,
1000
0100
0010
0001
,
2000
0000
3000
0000
,
0001
0010
0100
1000
,
0002
0000
0003
0000
,
1000
0000
0001
0100
,
0001
0100
0010
1000
,
0010
0000
1000
0100
,
1000
0100
0010
0001
,
0010
0000
0001
1000
,
0010
0000
1000
0001
,
0010
0000
0100
0000
,
0020
0000
0030
0000
,
0001
0000
1000
0100
,
1000
0100
0010
0001
,
0010
0000
0001
0100
,
0001
0100
0010
1000
,
0010
0000
1000
0001
,
0010
0000
0001
1000
,
0010
0000
0100
0000
,
0020
0000
0030
0000
,
1000
0000
1000
0000
,
0010
0100
0010
0000
,
0001
0000
0001
0000
,
0100
0010
0100
0000
,
1000
0000
0001
0000
,
1000
0000
0001
0000
,
0010
0000
0100
0000
,
2002
0000
0000
3003
,
0000
0000
0000
0000
,
1000
0010
1000
0010
,
0100
0001
0100
0000
,
0001
0010
0001
0010
,
0100
0000
1000
0100
,
1000
0000
0001
0100
,
0001
0000
0010
0000
,
0001
0000
1000
0000
,
1001
0000
0100
0000
,
0001
0010
0001
0010
,
0100
1000
0100
0000
,
1000
0010
1000
0010
,
0100
0000
0001
0000
,
1000
0000
0001
0000
,
2000
0000
3000
0000
,
0001
1000
0001
1000
,
0200
0000
0300
0000
,
1000
0001
1000
0001
,
0020
0000
0030
0000
,
0001
0100
0010
1000
,
0002
0000
0003
0000
,
1000
0010
0100
0001
,
2000
0000
3000
0000
,
0001
0000
0100
0000
,
0010
0000
1000
0000
,
0002
0000
0000
0000
,
0000
0000
0000
0003
;

//---------------dance-single - NewbStepper-DSP----------------
#NOTES:
     dance-single:
     NewbStepper:
     Medium:
     7:
     :
0000
0000
0000
0000
,
0000
0000
0000
0000
,
0000
0000
0000
0000
,
0000
0000
0000
0000
,
0000
0000
0000
0000
1000
0100
1000
0000
,
0002
0000
0003
0000
0001
0100
0001
0000
,
2000
0000
3000
0000
0010
0100
0010
0000
,
1000
0001
0100
0010
,
2000
0000
3002
0000
,
1003
0000
0100
0010
0001
0000
0100
0000
,
0010
1000
0100
0000
0010
0000
0010
0000
,
0001
0000
0100
0010
1000
0000
0100
0000
,
0110
0000
0000
0000
0001
1000
0001
0000
,
1000
0100
0010
0001
,
2000
3000
0001
1000
,
1001
0010
0100
0001
,
0020
0000
0030
0100
,
1000
0010
0100
0001
,
0010
0000
0001
1000
0100
0000
0000
0000
,
1001
0010
0100
1000
,
0020
0000
0030
0000
,
1000
0100
0010
0001
,
2000
0000
3002
0000
,
1003
0000
0100
0000
0010
0001
0010
0000
,
0001
0000
1000
0100
0010
0000
0001
0000
,
1000
0000
0000
0000
0010
1000
0010
0000
,
1000
0000
0001
0100
0010
0000
1000
0000
,
0001
0000
0000
0000
1000
0100
0001
0000
,
0100
0000
0000
0000
0001
0100
1000
0000
,
0100
0000
1000
0000
0001
0010
0100
2000
,
0000
3000
0001
1000
,
0001
0000
0100
0000
0010
1000
0010
0000
,
1000
0000
0001
0100
0010
0000
1000
0000
,
0001
0000
0000
0000
0010
0001
0010
0000
,
0001
0000
1000
0100
0010
0000
0001
0000
,
1000
0000
0000
0000
0001
0100
1000
0000
,
0100
0000
0000
0000
1000
0100
0001
0000
,
0100
0000
0001
0000
1000
0010
0100
0002
,
0000
0003
1000
0001
,
1000
0000
0000
0010
0010
0000
0000
0100
,
0100
0001
0101
0000
,
0001
0000
0000
0010
0010
0000
0000
0100
,
0100
1000
1100
0000
,
0010
0000
0000
0001
0001
0000
0000
1000
,
1000
0000
0100
0010
0001
0000
0100
0000
,
0101
0000
1010
0000
,
0220
0000
0000
0330
,
1001
0000
0000
0000
,
1100
0000
0010
0001
0100
0000
0010
0000
,
1000
0001
1000
0000
0100
0000
0010
0000
,
0001
0000
1000
0010
0100
0000
0001
0000
,
1000
0000
0000
0000
0001
0100
0010
0100
,
0002
0000
0003
0000
1000
0100
0010
0100
,
2000
0000
3000
0000
0001
0100
1000
0000
,
0100
0001
0010
0100
,
2000
0000
3001
0100
,
0101
0000
0010
1000
0100
0000
0010
0000
,
0001
1000
0001
0000
0100
0000
0010
0000
,
1000
0000
0001
0010
0100
0000
1000
0000
,
0001
0000
0000
0000
1000
0100
0001
0000
,
0100
1000
0010
0100
,
0002
0003
1000
0001
,
1001
0010
0100
1000
,
0020
0000
0030
0100
,
0001
0010
0100
1000
,
0020
0000
0030
0100
,
0001
0010
0100
1000
,
0010
0000
1000
0001
0100
0000
0000
0000
,
1001
0010
0100
0001
,
0020
0000
0230
0000
,
1300
0100
0001
0010
,
2000
0000
3002
0000
,
0203
0000
0000
0000
,
0000
0000
0000
0300
;

//---------------dance-single - NewbStepper-ESP----------------
#NOTES:
     dance-single:
     NewbStepper:
     Hard:
     10:
     :
0000
0000
0000
0000
,
0000
0000
0000
0000
,
0000
0000
0000
0000
,
0000
0000
0000
0000
,
0000
0000
0000
0000
0001
1000
0001
0100
,
0020
0000
0030
0000
1000
0001
1000
0100
,
0020
0000
0030
0000
0001
0100
1000
0100
,
0002
0203
2300
3020
,
0032
0000
0003
0000
1000
0100
0010
0001
,
1000
0000
0001
0100
0010
0100
1000
0100
,
0001
1000
0001
0000
0001
0100
0010
1000
,
0001
0000
0010
0100
1000
0001
0100
0000
,
0020
0000
0030
0000
1000
0100
0001
0100
,
2000
3200
0302
0023
,
2030
0000
3000
0001
1000
0100
0001
0100
,
0020
0032
0203
0320
,
2030
0000
3001
0100
0010
0000
1000
0000
,
0002
0023
0230
2300
,
3200
0000
0000
0300
0001
0100
1000
0000
,
0020
2030
3200
0320
,
0032
0000
1003
0100
0010
0000
0001
0000
,
2000
3020
0230
0302
,
0203
0000
0000
0300
1000
0100
0001
0000
,
0010
0000
0011
0000
0100
1000
0010
0010
,
0001
0100
1000
0100
0002
0000
0013
0100
,
1000
0000
1010
0000
0100
0001
0010
0010
,
1000
0100
0001
0100
2000
0000
3010
0100
,
0001
0000
1000
0000
0001
0010
0100
1000
,
0020
0000
0130
0000
0001
0010
0100
1000
,
0010
0001
0010
0100
0010
1000
0100
0010
,
0002
0000
0000
0000
1003
0100
0010
0001
,
1000
0000
1010
0000
0100
0001
0010
0010
,
1000
0100
0001
0100
2000
0000
3010
0100
,
0001
0000
0011
0000
0100
1000
0010
0010
,
0001
0100
1000
0100
0002
0000
0013
0100
,
1000
0000
1001
0000
1000
0010
0100
0001
,
0020
0000
0130
0000
1000
0010
0100
0001
,
0010
1000
0010
0100
0010
0001
0100
0010
,
2000
0000
0001
3001
,
0010
0000
0000
0000
0001
0000
0100
0000
0010
0000
0000
1000
0000
0000
0100
0000
,
0001
0000
0000
0100
0000
0000
1000
0000
0020
0000
0000
0000
0030
0000
1000
0000
,
0100
0000
0000
0100
0000
0000
0001
0000
0010
0000
0000
0010
0000
0000
1000
0000
,
0001
0000
0000
0100
0000
0000
0010
0000
2000
0000
0000
0000
3000
0000
0000
0000
,
0001
0000
0000
0001
0000
0000
0100
0000
1000
0000
0000
1000
0000
0000
0100
0000
,
0001
0000
0000
1000
0000
0000
0100
0000
0010
0000
0000
0000
0001
0000
0000
0000
,
0202
0303
2020
3030
,
1000
0001
1000
0001
,
1001
0000
0000
0000
,
1000
0000
0001
0100
0010
0100
1000
0100
,
0001
1000
0001
0000
0001
0100
0010
1000
,
0001
0000
0010
0100
1000
0001
0100
0000
,
0020
0000
0030
0000
1000
0001
1000
0100
,
0020
0000
0030
0000
0001
1000
0001
0100
,
0020
0000
0030
0000
1000
0100
0001
0100
,
2000
3200
0302
0023
,
2030
0000
3000
0000
0001
0100
0010
1000
,
0001
0000
1000
0100
0010
0100
0001
0100
,
1000
0001
1000
0000
1000
0100
0010
0001
,
1000
0000
0010
0100
0001
1000
0100
0000
,
0020
0000
0030
0000
0001
0100
1000
0100
,
0002
0203
2300
3020
,
0032
0000
0003
1000
0001
0100
1000
0100
,
0020
2030
3200
0320
,
0032
0000
1003
0100
0010
0000
0001
0000
,
2000
3020
0230
0302
,
0203
0000
0000
0300
1000
0100
0001
0000
,
0020
0032
0203
0320
,
2030
0000
3001
0100
0010
0000
1000
0000
,
0002
0023
0230
2300
,
3200
0000
0000
0300
0001
0100
1000
0000
,
0020
0000
2030
0000
,
3002
0000
0023
0000
,
0230
0000
0000
0000
,
0000
0000
0000
0300
;

//---------------dance-double - NewbStepper-BDP----------------
#NOTES:
     dance-double:
     NewbStepper:
     Easy:
     4:
     :
00000000
00000000
00000000
00000000
,
00000000
00000000
00000000
00000000
,
00000000
00000000
00000000
00000000
,
00000000
00000000
00000000
00000000
,
00000000
00000000
10000000
01000000
,
10000000
00000000
00010000
01000000
,
00010000
00000000
00100000
00000000
,
00001000
00000000
00000100
00000000
,
00000001
00000000
00000000
00000000
,
00000001
00000100
00000001
00000100
,
00000001
00000000
00001000
00000000
,
00001000
00000100
00001000
00000100
,
00010000
00000000
00100000
00000000
,
10000000
00000000
00010000
00000000
,
10000000
00000000
01000000
00000000
,
00010000
00001000
00010000
00001000
,
00000200
00000000
00000300
00000000
,
00000001
00000100
00000001
00000100
,
00000020
00000000
00000030
00000000
,
00010000
00001000
00010000
00001000
,
00200000
00000000
00300000
00000000
,
00010000
01000000
00010000
01000000
,
00200000
00000000
00300000
00000000
,
10000000
00000000
00010000
01000000
,
00010000
00000000
00100000
00000000
,
00001000
00000000
00010000
00000100
,
00010000
00000000
00000010
00000000
,
00000100
00000000
00000001
00001000
,
00000001
00000000
00001000
00010000
,
00001000
00000000
00010000
00000000
,
01000000
00000000
00100000
00000000
,
10010000
00000000
00010000
01000000
,
00010000
00000000
00100000
00000000
,
00001000
00000000
00010000
00000100
,
00010000
00000000
00000010
00000000
,
00000100
00000000
00000001
00001000
,
00000001
00000000
00001000
00010000
,
00001000
00000000
00010000
00000000
,
01000000
00000000
00100000
00000000
,
10000000
00000000
10000000
00000000
,
00100000
01000000
00100000
00000000
,
00010000
00000000
00010000
00000000
,
00001000
00000010
00001000
00000000
,
00000010
00000000
00000001
00000000
,
00001000
00000000
00000010
00000000
,
00000100
00000000
00001000
00000000
,
00022000
00000000
00000000
00033000
,
00000000
00000000
00000000
00000000
,
10000000
00100000
10000000
00100000
,
01000000
00010000
01000000
00000000
,
00001000
00010000
00001000
00010000
,
00000010
00000000
00001000
00000100
,
00001000
00000000
00000001
00000100
,
00000001
00000000
00000010
00000000
,
00001000
00000000
00000100
00000000
,
00000001
00000000
00000000
00000000
,
00000001
00000010
00000001
00000010
,
00000100
00001000
00000100
00000000
,
00010000
00001000
00010000
00001000
,
00100000
00000000
00010000
10000000
,
00100000
00010000
00001000
00000000
,
00000010
00000000
00000100
00000010
,
00001000
00010000
00001000
00010000
,
02000000
00000000
03000000
00000000
,
10000000
01000000
10000000
01000000
,
00200000
00000000
00300000
00000000
,
00001000
00010000
00001000
00010000
,
00000020
00000000
00000030
00000000
,
00001000
00000100
00001000
00000100
,
00000020
00000000
00000030
00000000
,
00000001
00000000
00000100
00000000
,
00000010
00000000
00010000
00000000
,
00002000
00000000
00000000
00000000
,
00000000
00000000
00000000
00003000
;

//---------------dance-double - NewbStepper-DDP----------------
#NOTES:
     dance-double:
     NewbStepper:
     Medium:
     6:
     :
00000000
00000000
00000000
00000000
,
00000000
00000000
00000000
00000000
,
00000000
00000000
00000000
00000000
,
00000000
00000000
00000000
00000000
,
00000000
00000000
10000000
00100000
,
00020000
00030000
00001000
00000010
,
00000002
00000000
00000003
00000000
00000010
00000100
00000010
00000000
,
00000001
00000100
00000010
00010000
,
00002000
00000000
00023000
00000000
,
01030000
10000000
00100000
01000000
,
00001000
00010000
00001000
00000000
00020000
00000000
00000000
00000000
,
00030100
00001000
00000010
00000100
,
00000001
00000000
00000000
00000000
00000100
00000010
00000100
00000000
,
00001000
00010000
01000000
10000000
,
00020000
00030000
10000000
00010000
,
10010000
00100000
01000000
00001000
,
00020000
00000000
00030000
00000010
,
00001000
00000001
00000100
00001000
,
00010000
00000000
00000100
00000000
,
00001001
00000010
00000100
00010000
,
00002000
00000000
00003000
00100000
,
00010000
10000000
01000000
00010000
,
00001000
00000000
01000000
00000000
,
10010000
00000000
00000000
00000000
10000000
00100000
10000000
00000000
,
01000000
00000000
00010000
00000000
00001000
00000000
00000010
00000010
,
00000000
00000000
00000000
00000000
00000001
00000010
00000001
00000000
,
00000100
00000000
00001000
00000000
00010000
00000000
00100000
00100000
,
00000000
00000000
00000000
00000000
10000000
00010000
10000000
00000000
,
01000000
00000000
00000000
00000000
00010000
00001000
00010000
00000000
,
00000100
00001000
00000001
00000100
,
00001000
00000000
00010000
00001000
,
00011000
00000000
00000000
00000000
10000000
01000000
10000000
00000000
,
00100000
00000000
00010000
00000000
00001000
00000000
00000100
00000100
,
00000000
00000000
00000000
00000000
00000001
00000100
00000001
00000000
,
00000010
00000000
00001000
00000000
00010000
00000000
01000000
01000000
,
00000000
00000000
00000000
00000000
10000000
00010000
10000000
00000000
,
00100000
00000000
00000000
00000000
00010000
00001000
00010000
00000000
,
00000010
00001000
00000001
00000010
,
00001000
00000000
00010000
00001000
,
00010000
00000000
00000000
01000000
01000000
00000000
00000000
00010000
,
00010000
00001000
00000010
00000000
,
00000001
00000000
00000000
00000100
00000100
00000000
00000000
00001000
,
00001000
00010000
00100000
00000000
,
10000000
00000000
00000000
00010000
00010000
00000000
00000000
00001000
,
00001000
00000100
00000010
00000001
,
00001000
00000000
00010000
00000000
,
00022000
00000000
00000000
00033000
,
00011000
00000000
00000000
00000000
,
11000000
00000000
00100000
00000000
00010000
01000000
00010000
00000000
,
00100000
00001000
00100000
00000000
00001000
00000000
00010000
00000000
,
00000010
00000000
00000100
00000000
00000001
00001000
00000001
00000000
,
00000100
00000000
00000000
00000000
00000001
00000010
00000001
00000000
,
00002000
00000000
00003000
00000000
00000100
00010000
00000100
00000000
,
00020000
00000000
00030000
00000000
00100000
01000000
00100000
00000000
,
10000000
01000000
00010000
00001000
,
00000100
00000000
00000001
00000100
,
00000101
00000000
00000010
00000000
00001000
00000100
00001000
00000000
,
00000010
00010000
00000010
00000000
00010000
00000000
00001000
00000000
,
00100000
00000000
01000000
00000000
10000000
00010000
10000000
00000000
,
01000000
00000000
00000000
00000000
01000000
00100000
01000000
00000000
,
00010000
00001000
00000100
00000001
,
00002000
00003000
00000001
00001000
,
00001001
00000010
00000100
00010000
,
00002000
00000000
00003000
00100000
,
00010000
10000000
01000000
00010000
,
00001000
00000000
01000000
00000000
,
10010000
00100000
01000000
00001000
,
00020000
00000000
00030000
00000010
,
00001000
00000001
00000100
00001000
,
00010000
00000000
00000100
00000000
,
00001000
00000010
00010000
00001000
,
00200000
00000000
00320000
00000000
,
20030000
00000000
00000000
00000000
,
00000000
00000000
00000000
30000000
;

//---------------dance-double - NewbStepper-EDP----------------
#NOTES:
     dance-double:
     NewbStepper:
     Hard:
     10:
     :
00000000
00000000
00000000
00000000
,
00000000
00000000
00000000
00000000
,
00000000
00000000
00000000
00000000
,
00000000
00000000
00000000
00000000
,
00000000
00000000
00000000
00000000
10000000
00010000
10000000
01000000
,
00200000
00000000
00300000
00000000
00001000
00010000
00000010
00001000
,
00000020
00000000
00000030
00000000
00001000
00000100
00000010
00000001
,
00000200
00002300
00023000
02030000
,
23000000
00000000
30000000
00000000
00010000
00100000
01000000
10000000
,
00010000
00000000
10000000
01000000
00100000
01000000
00010000
00001000
,
00000010
00000001
00001000
00000000
00000001
00000100
00000010
00001000
,
00000001
00000000
00000010
00000100
00010000
00001000
00000010
00000000
,
00000200
00000000
00000300
00000000
00010000
00001000
00000100
00001000
,
00020000
02030000
23000000
30200000
,
00320000
00000000
00030000
00001000
00000100
00000010
00000100
00000001
,
00002000
00003200
00000320
00000032
,
00000203
00000000
00001300
00010000
01000000
00000000
10000000
00000000
,
00020000
00230000
02300000
23000000
,
30020000
00000000
00000000
00030000
10000000
00010000
00100000
00000000
,
00020000
02030000
03200000
20300000
,
32000000
00000000
03010000
00001000
00000100
00000000
00000001
00000000
,
00002000
00003020
00000230
00000302
,
00002003
00000000
00000000
00003000
00000001
00001000
00000010
00000000
,
00001010
00000000
00000000
00000000
00010000
00001000
00100000
00010000
,
10000000
01000000
00010000
00001000
00000200
00000000
00000301
00001000
,
00000100
00000000
00000010
00000000
00001000
00010000
00000010
00001000
,
00000001
00000100
00001000
00010000
02000000
00000000
13000000
00100000
,
01000000
00000000
00100000
00000000
10000000
01000000
00010000
00001000
,
00000200
00000000
00000301
00000000
00000010
00000001
00000100
00000010
,
00010000
00001000
00100000
00001000
00010000
01000000
10000000
00100000
,
02000000
00000000
03010000
00000000
10000000
01000000
00100000
00010000
,
10000000
00000000
00110000
00000000
00001000
00010000
00000010
00001000
,
00000001
00000100
00001000
00010000
02000000
00000000
13000000
00010000
,
01000000
00000000
00100000
00000000
00010000
00001000
00100000
00010000
,
10000000
01000000
00010000
00001000
00000200
00000000
00000301
00000010
,
00000100
00000000
00000010
00000000
00000001
00000100
00001000
00010000
,
02000000
00000000
13000000
00000000
00100000
10000000
01000000
00100000
,
00001000
00010000
00000010
00010000
00001000
00000100
00000001
00000010
,
00000200
00000000
00010000
00010300
,
00001000
00000000
00000000
00000000
00010000
00000000
00100000
00000000
10000000
00000000
00000000
01000000
00000000
00000000
10000000
00000000
,
00010000
00000000
00000000
00100000
00000000
00000000
00001000
00000000
00020000
00000000
00000000
00000000
00030000
00000000
01000000
00000000
,
00010000
00000000
00000000
00001000
00000000
00000000
00000010
00000000
00000001
00000000
00000000
00000100
00000000
00000000
00000001
00000000
,
00001000
00000000
00000000
00000010
00000000
00000000
00010000
00000000
00002000
00000000
00000000
00000000
00003000
00000000
00000000
00000000
,
00010000
00000000
00000000
00010000
00000000
00000000
01000000
00000000
10000000
00000000
00000000
10000000
00000000
00000000
01000000
00000000
,
00010000
00000000
00000000
00001000
00000000
00000000
00000100
00000000
00000010
00000000
00000000
00000000
00001000
00000000
00000000
00000000
,
00002020
00003030
00000202
00000303
,
00000100
00001000
00010000
01000000
,
10000000
00000000
00000000
00000000
,
00010000
00000000
10000000
01000000
00100000
01000000
00010000
00001000
,
00000010
00000001
00001000
00000000
00000001
00000100
00000010
00001000
,
00000001
00000000
00000010
00000100
00010000
00001000
00000010
00000000
,
00000200
00000000
00001300
00000000
00000001
00001000
00000001
00000100
,
00000020
00000000
00000030
00000000
00010000
00001000
00100000
00010000
,
00200000
00000000
00300000
00000000
00010000
01000000
00100000
10000000
,
02000000
03020000
00032000
00003200
,
00000302
00000000
00000003
00000000
00001000
00000010
00000100
00000001
,
00001000
00000000
00000001
00000100
00000010
00000100
00001000
00010000
,
00100000
10000000
00010000
00000000
10000000
01000000
00100000
00010000
,
10000000
00000000
00100000
01000000
00001000
00010000
00100000
00000000
,
02000000
00000000
03000000
00000000
00001000
00010000
01000000
00010000
,
00002000
00003200
00000302
00000023
,
00002030
00000000
00003000
00010000
01000000
00100000
01000000
10000000
,
00020000
02030000
03200000
20300000
,
32000000
00000000
03010000
00001000
00000100
00000000
00000001
00000000
,
00002000
00003020
00000230
00000302
,
00002003
00000000
00000000
00003000
00000001
00001000
00000010
00000000
,
00002000
00003200
00000320
00000032
,
00000203
00000000
00001300
00010000
01000000
00000000
10000000
00000000
,
00020000
00230000
02300000
23000000
,
30020000
00000000
00000000
00030000
10000000
00010000
00100000
00000000
,
00002000
00000000
00023000
00000000
,
00030020
00000000
00002030
00000000
,
00003200
00000000
00000000
00000000
,
00000000
00000000
00000000
00000300
;
