#TITLE:子供の落書き帳;
#ARTIST:佐々木博史;
#TITLETRANSLIT:Kodomo no rakugakichou;
#ARTISTTRANSLIT:Hirofumi Sasaki;
#BANNER:Kodomo no rakugakichou.png;
#BACKGROUND:Kodomo no rakugakichou-bg.png;
#MUSIC:Kodomo no rakugakichou.ogg;
#OFFSET:1.25;
#SAMPLESTART:37.107;
#SAMPLELENGTH:15;
#BPMS:0=140,188.5=130,197.5=120,201=110,201.5=100,202=90,202.5=80,203.5=70;
#BGCHANGES:2.25=Kodomo no rakugakichou.avi=1=0=0=0=StretchNoLoop====,99999=-nosongbg-=1=0=0=0 // don't automatically add -songbackground-;

//---------------dance-single - Talkion-bSP----------------
#NOTES:
     dance-single:
     Talkion:
     Beginner:
     4:
     0.167986,0.222353,0.021380,0.138971,0,110,108,2,13,0,0,0.167986,0.222353,0.021380,0.138971,0,110,108,2,13,0,0:
0000
0000
0000
0000
,
0000
0000
0000
0000
,
0000
0000
0000
0000
,
0000
0000
0000
0000
,
0000
0000
0000
0000
,
0000
0000
0000
0000
,
0000
0000
0000
0000
0000
1001
0000
0000
,
0000
1000
0100
0010
,
0001
1000
0002
0000
,
0000
0000
0000
0000
,
1003
0001
0000
1000
,
0001
0000
1000
0001
,
0000
1000
0010
0100
,
0001
1000
0000
0001
,
1000
0000
0001
1000
,
0000
0001
0010
0100
,
1000
0000
0000
0001
,
0000
0000
1000
0000
,
0000
0010
0100
0100
,
0001
0000
0000
1000
0000
0000
0100
0000
,
0000
0010
0000
0000
0001
0000
0000
1000
,
0000
0000
0001
0000
0000
0001
0000
0000
,
2000
0000
0000
3010
,
0000
0100
0000
0000
0001
0000
0000
0010
,
0000
0000
0100
0000
0000
1000
0000
0000
,
0010
0000
0000
0100
0000
0000
0001
0000
,
0000
0010
0000
0000
0100
0000
0000
0010
,
0000
0000
0001
0000
0000
0100
0000
0000
,
0010
0000
0000
1000
0000
0000
0100
0000
,
0000
0010
0000
0000
0001
0000
0000
1000
,
0000
0020
0000
0000
,
0000
0000
0000
0000
0000
0030
0000
1000
,
0000
0002
0000
0000
,
0000
0003
1000
0100
,
0000
0000
1000
0001
,
0000
0001
0000
0000
0001
0000
0000
0100
,
0000
0000
0010
0000
0000
1000
0000
0000
,
0001
0000
2000
3200
,
1300
0000
0000
0000
0001
0000
0000
1000
,
0000
0000
0001
0000
0000
1000
0000
0000
,
0001
0000
0000
0100
0000
0000
0010
0000
,
0000
1000
0000
0000
0001
0000
0000
0010
,
0000
0000
0100
0000
0000
1000
0000
0000
,
0010
0000
0000
0100
0000
0000
0010
0000
,
0000
1000
0000
0000
0100
0000
0000
0010
,
0000
0000
0001
0000
0000
0100
0000
0000
,
0020
0000
0000
2030
0000
0000
0002
0000
,
0000
3003
0000
0000
0000
0000
0000
1000
,
0000
0000
0100
0000
0000
0010
0000
0000
,
0002
0000
0000
2003
0000
0000
0000
3010
,
0000
0000
0100
0000
0000
0001
0000
0000
,
0000
2002
0000
0000
0000
0000
0000
0000
,
3003
0000
0000
0000
;

//---------------dance-single - Talkion-BSP----------------
#NOTES:
     dance-single:
     Talkion:
     Easy:
     8:
     0.311538,0.361323,0.032070,0.534502,0.096210,204,201,3,50,0,0,0.311538,0.361323,0.032070,0.534502,0.096210,204,201,3,50,0,0:
0000
0000
0000
0000
,
0000
0000
0000
0000
,
0000
0000
0000
0000
,
0000
0000
0000
0000
,
0000
0000
0000
0000
,
0000
1000
0000
0000
0100
0000
0000
0020
,
0000
0000
0032
0000
0000
2003
0000
0000
,
0000
3010
0100
0001
,
1000
0000
0100
0010
0200
0000
0000
0000
,
0000
0000
0000
0000
,
1300
0001
0000
0100
0000
0010
0000
1000
,
0000
0001
0000
0010
0000
0001
0000
1000
,
0000
0010
0000
0100
0000
0001
0001
1000
,
0100
0010
0000
0001
0000
1000
0000
0010
,
0000
0100
0000
0001
0000
0100
0000
0010
,
0000
1000
0000
0001
0001
1000
0100
0010
,
0002
1000
0100
2003
,
0001
0000
0100
0000
3001
0000
1000
0010
,
0000
0000
0100
0000
0010
0000
0000
0000
1000
0000
0000
0001
0000
0001
0000
0000
,
0020
0000
0000
0032
0000
0000
0203
0000
,
0000
0320
0000
0000
1030
0000
0001
0010
,
0001
0000
1001
0000
0000
0110
0000
0000
,
1000
1000
1000
0001
0000
0000
2000
0000
,
3100
0002
0000
0103
2000
0000
3010
0002
,
0000
0013
2000
0000
3100
0020
0000
1030
,
0020
0000
0031
2000
0000
3010
0200
0000
,
1300
0200
0000
0301
2000
0000
3100
0020
,
0000
0031
2000
0000
3010
0002
0000
0013
,
2000
0000
3100
0002
0000
0103
2000
0000
,
3010
0200
0000
1300
0002
0000
0013
0200
,
0000
0301
2000
0000
0100
0000
0000
0001
,
0000
0000
0000
0000
3010
0000
0000
0010
0000
0000
0000
0010
0000
0000
1000
0000
,
0000
0001
0001
0000
0100
0100
0000
0010
,
0010
0000
1000
0000
0002
0000
0000
0000
0010
0000
0000
0000
0000
1003
0000
0001
,
0000
1000
0000
0001
0000
1000
0000
0000
0010
0000
0000
0000
0100
0000
0000
0010
,
0000
0000
1000
0000
0000
0100
0000
0000
0010
0000
0000
0000
0001
0000
0000
0000
,
2000
0000
0000
0000
0010
0000
0000
0000
0000
0000
3001
0000
0000
1000
0000
0000
,
0000
0000
0001
0000
0000
0100
0000
0000
0010
0000
1000
0000
0002
0000
0000
0000
,
2003
0000
0000
0000
0000
0000
0000
0000
3100
0000
0000
1000
0000
0000
0001
0000
,
0000
1000
0000
0000
0010
0000
0000
1000
0000
0000
0001
0000
0000
1000
0000
0000
,
0100
0000
0010
0001
0000
0100
0010
0000
,
1000
0100
0000
0010
0001
0000
0000
2000
,
0000
0000
3020
0000
0000
0230
0000
0000
,
0301
0000
1000
0100
0000
1000
0001
0000
,
0100
0001
0000
1000
0100
0000
0010
0001
,
0000
0100
0010
0000
1000
0100
0000
0010
,
0002
0000
0000
2003
0000
0000
3010
0010
,
0010
0200
0000
0000
0000
0000
0000
0302
,
0000
0000
2003
0000
0000
3200
0000
0000
,
0320
0000
0000
0032
0000
0000
0000
2003
,
0000
0000
3020
0000
0130
0010
1000
0001
,
0000
0022
0000
0000
0000
0000
0000
0000
0000
0000
0000
0000
0000
0000
0000
0000
,
0033
0000
0000
0000
;

//---------------dance-single - Talkion-DSP----------------
#NOTES:
     dance-single:
     Talkion:
     Medium:
     12:
     0.488688,0.583676,0.331391,0.620022,0.213801,320,289,31,58,0,0,0.488688,0.583676,0.331391,0.620022,0.213801,320,289,31,58,0,0:
0000
0000
0000
0000
,
0000
0000
0000
0000
,
0000
0000
0000
0000
,
0000
0000
0000
0000
,
0000
0000
0000
0000
,
0000
1000
0100
0010
0001
0010
0100
2000
,
0000
0000
3002
0000
0000
0203
0000
0000
,
0000
0320
2030
3002
,
0023
0000
0230
0000
1300
0001
0001
0100
,
0001
0001
1000
0100
1000
0100
1000
0100
,
0010
0000
0001
0000
1000
0000
0020
0000
0000
0000
0000
0000
0030
0100
0000
0200
,
0000
0000
0000
0000
0000
0000
0301
0000
0000
1000
0000
0000
0100
0000
0000
1000
0000
0000
0001
0000
0100
0000
0000
0020
,
0000
0000
0000
0000
0000
0000
0130
0000
0001
0000
0000
0000
1000
0000
0000
0000
0000
0100
0000
0000
0000
0010
0000
0000
,
0002
0000
0000
0000
2003
0000
0010
0000
0000
0000
0000
3002
0000
0000
0000
0000
,
0000
0013
0100
1000
0001
0100
0010
0001
,
0010
0000
1000
0000
0010
0000
0100
0000
0100
0000
0001
1000
0000
1000
0000
0000
,
1002
0010
1000
0203
,
1000
0000
0000
0000
0000
0000
0010
0000
0000
0000
0000
0000
0301
0000
0000
0100
0000
0000
0010
0000
0000
0000
0000
0010
,
0000
0000
1000
0000
0001
0000
0010
0000
0100
0000
0000
1000
0000
1000
0000
1000
,
0001
0100
0010
0001
0010
0100
0001
0010
,
0100
0001
0100
0010
0001
0000
1000
0010
,
0010
0000
0000
0000
0100
0001
0000
0001
0000
0000
0000
1000
0000
1000
0100
0010
,
0001
0001
0001
1000
0010
0100
0102
0000
,
1003
2100
0000
3001
0012
0000
1003
1020
,
0000
0130
0102
0000
0013
0021
0000
0130
,
2100
0000
3010
1020
0000
0130
0021
0000
,
0130
2010
0000
3001
1000
1000
0010
0120
,
0000
1030
2010
0000
3001
0012
0000
1003
,
2100
0000
3001
0201
0000
0310
2010
0000
,
3100
1200
0000
0310
0012
0000
0103
0120
,
0000
1030
0001
0010
0000
0010
0001
1000
,
0010
0000
0100
0000
0100
0000
0000
0001
0000
0000
1000
0000
0100
0000
1000
0000
,
0001
0000
0100
0000
0010
0000
1000
0000
0200
0000
0000
0000
0000
0000
0310
0100
,
0010
0000
0000
0000
1000
0000
0010
0000
0001
0000
1000
0000
0020
0000
0000
0130
,
0000
0010
0000
0002
0000
0000
0000
0000
0013
0000
0100
0000
0001
0000
0000
1100
,
0000
0000
0110
0000
0000
0011
0000
0000
0001
0000
1000
0000
0010
0000
0200
0000
,
0000
2300
0000
0000
0000
3200
0000
0000
0000
0301
0000
0100
0010
1000
0000
0000
,
0001
0000
0000
1000
0000
0000
0100
0000
0000
0010
0000
0000
0001
0000
0000
0100
0000
0000
0010
0000
1000
0000
0010
0000
,
1000
0000
0001
0000
0010
0000
0100
0000
1000
0000
0000
1010
0000
0000
0011
0000
,
0000
0101
0000
0000
1100
0000
0000
1010
0000
0000
0011
0000
0000
1001
0000
0000
,
2000
0000
3010
0100
0010
0001
1000
0100
,
0010
0100
0001
1000
0100
0001
0100
0010
,
0001
1000
0010
0100
1000
0200
0000
0301
,
2000
0000
0000
3200
0000
0000
0302
0000
0000
0203
0000
0000
0320
0000
0000
0000
,
0031
1000
0001
0100
1000
1000
0100
0001
,
0001
0010
1000
1000
0010
0001
0001
1000
,
0010
0200
0000
0302
0000
0000
0103
0100
,
0001
1000
0002
0000
0000
0000
0000
0000
0000
0000
0103
0000
0010
0000
2000
0000
,
0000
3100
0002
0000
0103
2000
0000
3100
,
0020
0000
0031
1000
0010
0200
0000
1300
,
0100
0001
1000
0100
0010
0001
0010
0100
,
0000
2200
0000
0000
0000
0000
0000
0000
0000
0000
0000
0000
0000
0000
0000
0000
,
3300
0000
0000
0000
;

//---------------dance-single - Talkion-ESP----------------
#NOTES:
     dance-single:
     Talkion:
     Hard:
     15:
     0.723869,0.806029,0.310011,0.673473,0.775028,474,445,29,63,0,0,0.723869,0.806029,0.310011,0.673473,0.775028,474,445,29,63,0,0:
0000
0000
0000
0000
,
0000
0000
0000
0000
,
0000
0000
0000
0000
,
0000
0000
0000
0000
,
0000
0000
0000
0000
,
0000
1000
0100
0010
0001
1000
0010
0200
,
0000
0000
0302
0000
0003
2002
0000
0000
,
0000
3003
2200
3300
0220
0330
0022
0033
,
2002
3003
1000
0010
1000
0001
0001
0010
,
0001
0000
0001
0000
1000
0010
0100
0010
1000
0010
0100
0010
1000
0001
0010
0001
,
0200
0000
0310
0000
1000
0000
0002
0000
0000
0000
0000
0000
0013
0001
0000
0100
,
0010
0000
0000
2000
0000
0000
0000
0000
0000
0000
0000
0000
0000
0000
0000
3001
0000
0000
0000
0000
0000
1000
0000
0000
0100
0000
0000
0000
0000
0000
1000
0000
0001
0000
1000
0000
0010
0000
0000
0000
0100
0000
0010
0000
0000
0000
2000
0000
,
0000
0000
0000
3001
0000
0000
1000
0001
0020
0000
0000
0000
0031
0000
0001
0000
0000
1000
0000
0000
0010
0100
0000
0000
,
0002
0000
0010
0000
2003
0000
0001
0000
3001
1000
0100
0010
0000
0001
0010
0001
,
0010
0001
0000
1000
0010
0000
0100
0000
0010
1000
0001
1000
0100
1000
0001
1000
,
0010
0100
0001
1000
0010
0000
0010
0000
0100
0000
0010
1000
0000
0001
0000
1000
,
0200
0000
0001
0010
2300
0001
3020
0000
,
0230
0000
0000
0000
0000
0000
0301
0000
0000
0001
0000
0000
1000
0000
0000
0100
0000
0000
1000
0000
0001
0000
0000
0001
,
0000
0000
0100
0010
0000
1000
0001
0000
0001
0010
0000
0010
0100
0000
0100
1000
0002
0000
0000
0000
0000
0100
0000
0000
,
1003
0001
0010
0001
1000
0010
0100
0001
1000
0000
0100
0010
0000
0100
1000
0001
,
0100
0000
0010
1000
0001
0000
1000
0001
0010
0100
1000
0001
0010
0100
1000
0000
,
0020
0000
0000
0000
0130
0010
0000
1000
0000
0000
0100
0010
0000
1000
0010
0100
,
1000
0000
1001
0000
0110
0000
0001
1000
0100
0010
0001
0100
0020
0000
1000
0000
,
0130
0201
0010
0301
2001
0100
3010
1020
,
0100
1030
1002
0010
0103
0210
1000
0310
,
2010
0001
3100
1200
0010
1300
1002
0100
,
0013
0021
0100
0031
1001
0001
0100
0210
,
0001
0310
1020
0100
1030
1002
0010
0103
,
0201
0010
0301
2001
0100
3010
0120
0001
,
0130
0102
0010
1003
2100
0010
3001
0201
,
1000
0000
0010
0000
0301
0000
1000
0000
0100
0010
0001
0000
1000
0001
0100
0010
,
1000
0001
0100
0000
0010
0000
1000
0000
0001
0010
0000
0010
0001
1000
0010
0100
,
0001
0010
0100
0010
0001
0000
1000
0000
0020
0000
0100
0000
1030
0000
0001
1000
,
0200
0000
0010
0000
1300
0000
0001
0000
0100
0000
0010
0000
1000
0001
0010
0100
,
0000
1000
0000
0020
0000
0000
0000
0000
0130
0000
0010
0000
1000
0000
0001
0010
,
0000
0010
1000
0000
1000
0010
0000
0010
0001
0000
1000
0000
0010
0000
0100
0010
,
0100
0002
0000
0000
0000
1000
0000
0000
0000
0013
0000
0100
0010
0002
0000
0000
,
2003
0000
0000
0000
0000
0000
0010
0000
0000
0000
0000
0000
3001
0000
0000
1000
0000
0000
0010
0000
0000
0000
0000
0000
0100
0000
0000
0000
0000
0000
0001
0000
0000
0000
0000
0000
1000
0000
0000
0000
0010
0000
0000
0000
1000
0000
0000
0000
,
0001
0010
0100
1000
0010
0100
0001
1000
0100
0000
0100
0010
0000
0010
0001
0000
,
0001
0100
0000
0100
0010
0000
0010
1000
0000
1000
0001
0010
0100
1000
0001
0010
,
0200
0000
0000
0000
1300
0000
0010
0100
0010
0000
1000
0001
0010
0100
1000
0100
,
0010
0001
1000
0010
0100
0001
0010
0100
0010
0001
0100
0010
0001
0000
0010
0000
,
1000
0000
0000
0000
0000
0000
0001
0000
0000
0000
0000
0000
1000
0000
0000
0000
0000
0000
0100
0000
0010
0000
0001
0000
1000
0000
0000
0001
0000
0000
0100
0000
0000
0000
0000
0000
0010
0000
0000
0000
0000
0000
1000
0000
0000
0000
0000
0000
,
0001
0010
0000
0010
0001
1000
0010
0000
0100
0010
1000
0100
0010
0001
1000
0010
,
1000
0001
0010
0100
0000
0000
1000
0001
0100
0000
0010
0100
0001
0010
0100
1000
,
0000
0001
0000
0200
0000
1300
0100
0001
0000
1000
0001
0010
0100
0000
1000
0002
,
0000
0103
0000
0010
0100
0010
1000
0001
1000
0001
1000
0001
0010
0000
0011
0000
,
1000
0010
1020
0000
0000
0000
0000
0000
0030
0000
0100
0000
0010
0000
2000
0000
,
0010
3001
0002
0010
1003
2000
0001
3100
,
0002
1000
0103
0010
1000
0002
0000
0023
,
0100
0031
0200
0010
0301
1000
0100
0001
,
0000
0202
0000
0000
0000
0000
0000
0000
0000
0000
0000
0000
0000
0000
0000
0000
,
0303
0000
0000
0000
;

//---------------dance-single - Talkion-CSP----------------
#NOTES:
     dance-single:
     Talkion:
     Challenge:
     17:
     0.862839,1.111764,0.705543,0.470362,1.122454,565,499,66,44,0,0,0.862839,1.111764,0.705543,0.470362,1.122454,565,499,66,44,0,0:
0000
0000
0000
0000
,
0000
0000
0000
0000
,
0000
0000
0000
0000
,
0000
0000
0000
0000
,
0000
0000
0000
0000
,
0000
0001
0010
0100
1000
0001
0100
0020
,
0000
0000
0000
0000
0000
0000
0000
0000
2030
0000
0000
0000
0000
0000
0000
0000
3000
0000
0002
2000
0000
0000
0000
0000
0000
0000
0000
0000
0000
0000
0000
0000
,
0000
3003
0022
0033
0220
0330
2200
3300
,
2002
3003
0001
0100
0001
1000
1000
0100
,
1000
0000
1000
0000
0001
0100
0010
0100
0001
0100
0010
0100
0001
0010
0100
1000
,
0010
0000
1000
0001
0000
0000
0010
0000
0011
0000
0000
1001
0000
0000
0000
1000
0000
1010
0000
0000
0101
0000
0000
0000
,
0001
0000
0011
0000
0000
1010
0000
0000
0000
1000
0000
1100
0000
0000
0011
0000
0000
0000
0001
0000
0101
0000
0000
1100
,
0000
0000
0000
1000
0000
1010
0000
0000
0101
0000
0000
0000
0001
0000
1001
0000
0000
1000
0100
0000
0100
0010
0000
0010
,
0001
0000
1000
0010
0000
0000
0100
0000
0101
0000
0000
1001
0000
0000
0000
1000
0000
1100
0000
0000
0011
0000
0000
0000
,
0001
0000
0101
0000
0000
1100
0000
0000
0000
1000
0000
1010
0000
0000
0101
0000
0000
0000
0001
0000
0011
0000
0000
1010
,
0000
0000
0000
0000
0000
0000
1000
0000
0000
0000
0001
0000
0010
0000
0000
0000
0010
0000
0001
0000
0000
0000
0000
0000
0101
0000
0000
0000
0000
0000
0100
0000
0000
1000
0000
0000
0100
0000
0000
0001
0000
0000
0010
0000
0000
0100
0000
0000
,
0001
0000
0000
0000
0100
0000
0010
0000
0000
0000
0000
0000
0001
0000
0000
1000
0000
0000
0010
0000
0000
0000
0000
0000
0100
0000
0000
0000
0100
0000
0010
0000
0000
0000
0010
0000
1000
0000
0000
0000
1000
0000
0001
0000
0000
0000
0000
0000
,
0010
0000
0000
0001
0000
0000
1000
0000
0000
0000
0000
0000
0010
0000
1000
0000
0010
0000
1000
0000
0010
0000
1000
0000
0001
0000
0000
0000
0010
0000
0001
0000
0000
0000
0000
0000
0100
0000
0000
0000
0110
0000
0000
0000
0000
0000
1001
0000
,
0000
0000
0000
0000
0001
0000
0010
0000
0000
0000
0010
0000
0100
0000
0000
0000
0000
0000
0001
0000
0000
0000
0001
0000
0100
0000
0000
0000
0100
0000
1000
0000
0000
0010
0000
0000
0000
0000
0000
0010
0000
0000
0000
0000
0000
0010
0000
0000
,
0100
0000
0010
1000
0000
0000
0001
0000
0011
0000
0000
1010
0000
0000
0000
1000
0000
1010
0000
0000
0011
0000
0000
0000
,
0001
0000
0101
0000
0000
1100
0000
0000
0000
1000
0000
0010
0100
0000
0100
0001
0000
0000
1000
0000
0000
1000
0000
0000
,
0100
0000
0000
0000
0000
0000
0001
0000
0000
0000
1000
0000
0010
0000
0000
0100
0000
0000
0000
0000
0000
1100
0000
0000
0000
0000
0000
1000
0000
0000
0010
0000
0000
0100
0000
0000
0000
0000
0000
1000
0000
0000
0001
0000
0000
0010
0000
0000
,
1000
0000
1010
0000
0101
0000
0001
0010
0100
1000
0010
0100
0002
0000
0010
0000
,
1003
2010
0001
3100
0120
0001
0130
1200
,
0010
1300
1002
0100
1003
2100
0001
3010
,
0210
1000
0310
1020
0001
0130
0201
1000
,
0310
2010
0001
3100
0010
0010
0001
0201
,
0010
0301
1002
0100
1003
2100
0001
3010
,
0210
0001
0310
1020
0100
1030
1002
0010
,
1003
0000
2100
0000
3001
1000
0010
0000
0102
0000
1003
0001
0010
0000
2100
0000
,
3001
1000
0010
0000
0100
0010
1000
0000
0010
1000
0001
1000
0010
1000
0100
0000
,
0010
0000
0000
0001
0000
0000
0001
0000
0000
0000
0000
0000
1000
0000
0000
0000
0000
0000
0001
0000
0000
0100
0000
0000
0000
0000
0000
0010
0000
0000
0100
0000
0000
0000
0100
0000
0010
0000
0000
0000
0000
0000
1000
0000
0000
0001
0000
0000
,
0010
0100
0001
0100
1000
0010
0100
0001
1000
0000
0100
0010
1000
0010
0001
0000
,
1000
0000
0000
0000
0000
0000
1000
0000
0000
0000
0000
0000
0001
0000
0100
0000
0010
0000
1000
0000
0000
0001
0000
0000
0010
0000
0000
0000
0000
0000
0100
0000
1000
0000
0100
0000
1000
0000
0000
0001
0000
0000
0100
0000
0000
0010
0000
0000
,
0000
0000
0000
0001
0000
0000
0000
0000
0000
0010
0000
0000
1000
0000
0000
0100
0000
0000
0000
0000
0000
0000
0001
0000
0000
0000
0000
0000
0100
0000
0010
0000
0000
0000
0010
0000
0001
0000
0000
0000
0000
0000
1000
0000
0000
2000
0000
0000
,
0000
3010
0020
0000
0130
0200
0000
0301
0001
1000
0001
0010
0100
1000
0010
0100
,
0001
0000
1000
0001
1000
0000
0000
0000
0100
0000
0010
0000
1000
0000
0001
0000
0100
0000
1000
0000
0001
0000
0100
0000
0010
0000
0001
0000
0010
0000
1000
0000
,
0001
0000
0000
0000
0000
0000
0010
0000
0000
0100
0000
0000
0010
0000
0000
0000
0000
0000
0000
0000
0000
0000
0000
0000
0100
0000
0000
1000
0000
0000
0100
0000
0000
0000
0000
0000
0000
0000
0000
0000
0000
0000
1000
0000
0000
0001
0000
0000
1000
0000
0000
0000
0000
0000
0000
0000
0000
0000
0000
0000
1001
0000
0000
0000
0000
0000
0000
0000
0000
0000
0000
0000
0110
0000
0000
0000
0000
0000
0000
0000
0001
0000
0000
0000
0000
0000
0000
0000
1000
0000
0000
0000
0000
0000
0000
0000
,
0100
0001
1000
0010
0001
1000
0010
0001
0010
0100
0000
0101
0000
1001
0000
1000
,
0100
1000
0000
1010
0000
0110
0000
0101
0000
1001
0000
1000
0100
0010
0001
0100
,
0000
0010
0010
0000
1000
0100
0010
0001
0001
0000
0100
0010
1000
0001
0001
0000
,
0010
0100
1000
0010
0100
0010
1000
0100
0010
1000
0000
0001
0000
0100
0010
0001
,
1000
0001
0100
0001
1000
0100
0000
0001
0100
1000
0010
0000
0010
0001
0010
0100
,
0001
1000
0000
0100
1000
0010
0100
0001
0000
0010
0001
0100
0010
1000
0000
0100
,
0001
0000
1000
0010
0000
0001
1000
0000
0010
0100
0100
0001
0010
0100
1000
0001
,
0001
0100
0010
1000
0100
0010
0010
0001
1000
0010
0100
0001
0001
1000
0100
0010
,
1000
0000
0000
0010
0100
1000
0001
0010
0001
1000
0010
1000
0001
0010
0001
1000
0010
1000
0001
0010
0100
1000
0100
0010
,
0001
0010
0100
2000
0000
0000
0000
0000
0000
0000
0000
0000
3000
0000
0000
0010
0000
0000
1000
0000
0000
0002
0000
0000
,
0010
1003
2000
0010
3001
0002
1000
0103
,
2000
0001
3100
0010
0001
2000
0000
3020
,
0100
1030
0200
0010
1300
0001
0100
1000
,
0000
2200
0000
0000
0000
0000
0000
0000
0000
0000
0000
0000
0000
0000
0000
0000
,
3300
0000
0000
0000
;

//---------------dance-double - Talkion-BDP----------------
#NOTES:
     dance-double:
     Talkion:
     Easy:
     9:
     0.287104,0.361323,0.032070,0.481052,0.096210,188,185,3,45,0,0,0.287104,0.361323,0.032070,0.481052,0.096210,188,185,3,45,0,0:
00000000
00000000
00000000
00000000
,
00000000
00000000
00000000
00000000
,
00000000
00000000
00000000
00000000
,
00000000
00000000
00000000
00000000
,
00000000
00000000
00000000
00000000
,
00000000
00001000
00000000
00000000
00010000
00000000
00000000
00000020
,
00000000
00000000
00000230
00000000
00000000
00000302
00000000
00000000
,
00000000
00001003
00000100
00010000
,
00001000
00000000
01000000
00100000
02000000
00000000
00000000
00000000
,
00000000
00000000
00000000
00000000
,
03010000
10000000
00000000
01000000
00000000
00100000
00000000
00001000
,
00000000
00000010
00000000
00001000
00000000
00100000
00000000
00001000
,
00000000
00010000
00000000
00000010
00000000
00000100
00000100
00000001
,
00001000
00000001
00000000
00000100
00000000
00000010
00000000
00001000
,
00000000
00100000
00000000
00001000
00000000
00000010
00000000
00010000
,
00000000
00001000
00000000
01000000
01000000
00010000
10000000
01000000
,
00200000
00010000
01000000
00302000
,
00100000
00000000
01000000
00000000
00013000
00000000
00000100
00001000
,
00000000
00000000
00000100
00000000
00000010
00000000
00000000
00000000
00000001
00000000
00000000
00001000
00000000
00001000
00000000
00000000
,
00000200
00000000
00000000
00020300
00000000
00000000
02030000
00000000
,
00000000
03002000
00000000
00000000
00003100
00000000
00010000
00001000
,
00010000
00000000
00010010
00000000
00000000
00101000
00000000
00000000
,
00100000
00100000
00100000
00010000
00000000
00000000
20000000
00000000
,
00000000
30020000
00000000
00000000
00032000
00000000
00000000
00003002
,
00000000
00000000
00002003
00000000
00000000
00023000
00000000
00000000
,
20030000
00000000
00000000
30020000
00000000
00000000
00032000
00000000
,
00000000
00003002
00000000
00000000
00001003
00000100
00000100
00001000
,
00000000
00001000
00000002
00000000
00000000
00002003
00000000
00000000
,
00023000
00000000
00000000
20030000
00000000
00000000
30010000
00000000
,
00010000
00001000
00000000
00001000
00000001
00000000
00000001
00000010
,
00000000
00000010
00000200
00000000
00010000
00000000
00000000
00001000
,
00000000
00000000
00000000
00000000
00010300
00000000
00000000
00010000
00000000
00000000
00000000
00001000
00000000
00000000
01000000
00000000
,
00000000
00100000
00100000
00000000
10000000
10000000
00000000
00010000
,
00010000
00000000
00100000
00000000
00002000
00000000
00000000
00000000
00010000
00000000
00000000
00000000
00000000
01003000
00000000
00001000
,
00000000
01000000
00000000
00001000
00000000
01000000
00000000
00000000
00001000
00000000
00010000
00000000
00000100
00000000
00000000
00000010
,
00000000
00000000
00000001
00000000
00000000
00001000
00000000
00000000
00000010
00000000
00000000
00000000
00010000
00000000
00000000
00000000
,
00002000
00000000
00000000
00000000
00100000
00000000
00000000
00000000
00000000
00000000
00013000
00000000
00000000
00001000
00000000
00000000
,
00000000
00000000
01000000
00000000
00000000
00100000
00000000
00000000
10000000
00000000
00010000
00000000
00200000
00000000
00000000
00000000
,
00302000
00000000
00000000
00000000
00000000
00000000
00000000
00000000
00013000
00000000
00000000
00000100
00000000
00000000
00000010
00000000
,
00000000
00000001
00000000
00000000
00001000
00000000
00000000
00000010
00000000
00000000
00000100
00000000
00000000
00000001
00000000
00000000
,
00001000
00000000
00000000
00000100
00000100
00000000
00010000
00010000
,
00000000
00001000
00001000
00000000
01000000
01000000
00000000
00200000
,
00000000
00000000
20300000
00000000
00000000
30020000
00000000
00000000
,
00130000
00000000
00000000
00001000
00001000
00000000
00010000
00010000
,
00000000
00000010
00000010
00000000
00000100
00000000
00000001
00000010
,
00000000
00000001
00000100
00000000
00000001
00000010
00000000
00000100
,
00020000
00000000
00000000
00032000
00000000
00000000
02003000
00000000
,
00000000
03200000
00000000
00000000
00000000
00000000
00000000
20300000
,
00000000
00000000
30020000
00000000
00000000
00032000
00000000
00000000
,
00003002
00000000
00000000
00000023
00000000
00000000
00000000
00002030
,
00000000
00000000
00023000
00000000
00000000
01030000
00100000
01000000
,
00000000
02200000
00000000
00000000
00000000
00000000
00000000
00000000
00000000
00000000
00000000
00000000
00000000
00000000
00000000
00000000
,
03300000
00000000
00000000
00000000
;

//---------------dance-double - Talkion-DDP----------------
#NOTES:
     dance-double:
     Talkion:
     Medium:
     12:
     0.447455,0.528088,0.032070,0.545192,0.240526,293,290,3,51,0,0,0.447455,0.528088,0.032070,0.545192,0.240526,293,290,3,51,0,0:
00000000
00000000
00000000
00000000
,
00000000
00000000
00000000
00000000
,
00000000
00000000
00000000
00000000
,
00000000
00000000
00000000
00000000
,
00000000
00000000
00000000
00000000
,
00000000
00010000
10000000
01000000
00100000
00001000
00010000
00000020
,
00000000
00000000
00000230
00000000
00000000
00000302
00000000
00000000
,
00000000
00002003
00003200
00020300
,
00032000
00000000
02003000
00000000
03100000
01000000
01000000
00001000
,
01000000
01000000
00100000
10000000
00100000
10000000
00100000
01000000
,
00001000
00000000
00010000
00000000
00001000
00000000
00000020
00000000
00000000
00000000
00000000
00000000
00000030
00000100
00000000
00000200
,
00000000
00000000
00000000
00000000
00000000
00000000
00000000
00000000
00000000
00000310
00000000
00000000
00000001
00000000
00000000
00001000
00000000
00000000
00000001
00000000
00000001
00000000
00000000
00000200
,
00000000
00000000
00000000
00000000
00000000
00000000
00000310
00000000
00020000
00000000
00000000
00000000
00031000
00000000
00000000
00000000
00000000
00100000
00000000
00000000
00000000
00010000
00000000
00000000
,
20000000
00000000
00000000
00000000
30200000
00000000
01000000
00000000
00000000
00000000
00000000
00320000
00000000
00000000
00000000
00000000
,
00000000
00031000
00010000
00000100
00010000
00001000
01000000
00100000
,
00010000
00000000
00100000
00000000
01000000
00000000
00001000
00000000
00001000
00000000
00010000
00000100
00000000
00000100
00000000
00000000
,
00000210
00000001
00000010
00002300
,
00000100
00000000
00000000
00000000
00000000
00000000
00000001
00000000
00000000
00000000
00000000
00000000
00003010
00000000
00000000
00010000
00000000
00000000
00001000
00000000
00000000
00000000
00000000
00001000
,
00000000
00000000
01000000
00000000
00010000
00000000
10000000
00000000
01000000
00000000
00000000
10000000
00000000
10000000
00000000
10000000
,
00010000
01000000
00001000
00010000
00000010
00000100
00000010
00010000
,
00001000
00100000
01000000
10000000
00100000
00000000
01000000
00001000
,
00002000
00000000
00000000
00000000
00013000
00001000
00000000
00001000
00000000
00000000
00000000
00000010
00000000
00000010
00000001
00001000
,
00000001
00000001
00000001
00001000
00000100
00010000
00002000
00000000
,
01003000
00200000
00000000
01300000
00002000
00000000
00013000
00000200
,
00000000
00000310
00000200
00000000
00010300
00002000
00000000
01003000
,
00200000
00000000
00310000
00002000
00000000
00003010
00000200
00000000
,
00010300
00002000
00000000
01003000
00100000
00100000
10000000
00010000
,
00100000
00001000
00020000
00000000
00030100
00000020
00000000
00000130
,
00020000
00000000
00031000
02000000
00000000
03100000
02000000
00000000
,
03001000
00000000
00010000
00000000
00000000
00010000
00000100
00000000
00000100
00000000
00000000
00000100
00000010
00000000
00000010
00000000
,
00000000
00000010
00000001
00000000
00001000
00000000
00000100
00000000
00000000
00000000
00000100
00000000
00010000
00000000
00001000
00000000
,
01000000
00010000
01000000
00000000
00100000
00000000
00000000
00100000
00000000
00000000
10000000
00000000
00010000
00000000
00100000
00000000
,
01000000
00000000
00010000
00000000
00001000
00000000
00000010
00000000
00000200
00000000
00000000
00000000
00000000
00000000
00010300
00000100
,
00001000
00000000
00000000
00000000
00000001
00000000
00000100
00000000
00001000
00000000
00000100
00000000
00000020
00000000
00000000
00010030
,
00000000
00001000
00000000
02000000
00000000
00000000
00000000
00000000
03100000
00000000
01000000
00000000
00001000
00000000
00000000
00000100
,
00000000
00000000
00010000
00000000
00000000
01000000
00000000
00000000
00001000
00000000
00010000
00000000
00000100
00000000
00000020
00000000
,
00000000
00000032
00000000
00000000
00000000
00002003
00000000
00000000
00000000
00003100
00000000
00010000
00001000
01000000
00000000
00000000
,
00010000
00000000
00000000
00000000
00000000
00000000
10000000
00000000
00000000
00000000
00000000
00000000
01000000
00000000
00000000
00100000
00000000
00000000
00010000
00000000
00000000
00000000
00000000
00000000
10000000
00000000
00000000
00000000
00000000
00000000
00100000
00000000
00000000
00000000
00000000
00000000
01000000
00000000
00000000
00000000
00001000
00000000
00000000
00000000
01000000
00000000
00000000
00000000
,
00001000
00000000
00010000
00000000
00000100
00000000
00000010
00000000
00001000
00000000
00000000
00010000
00000000
00000000
00100000
00000000
,
00000000
00010000
00000000
00000000
00001000
00000000
00000000
00000010
00000000
00000000
00001000
00000000
00000000
00010000
00000000
00000000
,
00000200
00000000
00000310
00000100
00000001
00000100
00001000
00000001
,
00000100
00001000
00010000
00100000
10000000
00010000
00100000
01000000
,
00100000
00010000
10000000
00100000
01000000
00002000
00000000
00000000
,
00013000
00000000
00000000
00000100
00000000
00000000
00000001
00000000
00000000
00000100
00000000
00000000
00010000
00000000
00000000
00001000
,
00000000
01000000
00000000
00100000
10000000
00010000
00100000
01000000
,
00010000
00001000
00000010
00000100
00010000
00001000
01000000
00100000
,
20000000
00000000
00000000
30020000
00000000
00000000
00031000
00001000
,
00000001
00001002
00000000
00000000
00000000
00000103
00000010
00020000
,
00000000
00031000
00000020
00000000
00001030
00020000
00000000
00031000
,
02000000
00000000
03100000
10000000
00010000
00200000
00000000
00301000
,
00010000
00000100
00000010
00000100
00010000
00001000
01000000
00100000
,
00000000
02200000
00000000
00000000
00000000
00000000
00000000
00000000
00000000
00000000
00000000
00000000
00000000
00000000
00000000
00000000
,
03300000
00000000
00000000
00000000
;

//---------------dance-double - Talkion-EDP----------------
#NOTES:
     dance-double:
     Talkion:
     Hard:
     15:
     0.681108,0.778235,0.106900,0.641403,0.742958,446,436,10,60,0,0,0.681108,0.778235,0.106900,0.641403,0.742958,446,436,10,60,0,0:
00000000
00000000
00000000
00000000
,
00000000
00000000
00000000
00000000
,
00000000
00000000
00000000
00000000
,
00000000
00000000
00000000
00000000
,
00000000
00000000
00000000
00000000
,
00000000
00001000
00000001
00000010
00000100
00010000
00001000
02000000
,
00000000
00000000
03200000
00000000
00300000
20200000
00000000
00000000
,
00000000
30300000
02002000
03003000
00020200
00030300
00000220
00000330
,
00002002
00003003
00000001
00000100
00000001
00001000
00001000
00000100
,
00010000
00000000
00010000
00000000
00001000
01000000
00010000
01000000
00001000
01000000
00010000
01000000
00100000
01000000
00010000
10000000
,
02000000
00000000
03100000
00000000
00001000
00000000
00020000
00000000
00000000
00000000
00000000
00000000
00030010
00000100
00000000
00000010
,
00001000
00000000
00000000
00000200
00000000
00000000
00000000
00000000
00000000
00000000
00000000
00000000
00000000
00000000
00000000
00000310
00000000
00000000
00000000
00000000
00000000
00000010
00000000
00000000
00001000
00000000
00000000
00000000
00000000
00000000
00010000
00000000
00001000
00000000
00010000
00000000
00000100
00000000
00000000
00000000
00010000
00000000
00001000
00000000
00000000
00000000
02000000
00000000
,
00000000
00000000
00000000
03100000
00000000
00000000
10000000
00010000
00200000
00000000
00000000
00000000
00301000
00000000
00001000
00000000
00000000
00010000
00000000
00000000
00000010
00000100
00000000
00000000
,
00000020
00000000
00001000
00000000
00020030
00000000
00000010
00000000
00030010
00010000
00000010
00001000
00000000
00000100
00010000
00000100
,
00010000
00000100
00000000
00010000
00001000
00000000
01000000
00000000
00010000
10000000
01000000
10000000
00010000
01000000
00001000
00010000
,
00000010
00001000
00000001
00000010
00000100
00000000
00000100
00000000
00000100
00000000
00010000
00001000
00000000
01000000
00000000
00100000
,
20000000
00000000
30100000
00010000
00001000
00000010
00000002
00000000
,
00000013
00000000
00000000
00001000
00000000
00000000
00010000
00000000
00000000
00100000
00000000
00000000
10000000
00000000
00000000
00010000
00000000
00000000
10000000
00000000
01000000
00000000
00000000
01000000
,
00000000
00000000
00010000
01000000
00000000
00100000
00001000
00000000
00001000
01000000
00000000
01000000
00001000
00000000
00001000
00010000
00000020
00000000
00000000
00000000
00000000
00000000
00000000
00000000
,
00000130
00000010
00001000
00000000
00000001
00000010
00001000
00000010
00000100
00000000
00010000
00001000
00000000
01000000
00000000
00010000
,
01000000
00100000
10000000
00000000
00010000
00000000
00100000
00000000
00001000
00010000
00000100
00000010
00000001
00000100
00000010
00000000
,
00020000
00000000
00000000
00000000
00130000
00010000
00000000
00001000
00000000
00000000
01000000
00010000
00000000
00010000
10000000
01000000
,
00100000
00000000
00101000
00000000
00011000
00000000
00010000
00000100
00001000
00000100
00010000
00000010
00000200
00000000
00000001
00000000
,
00000310
00000020
00001000
00010030
00020000
00001000
00030010
00000200
,
00000001
00000310
00020000
00000010
00031000
00200000
00010000
01300000
,
20000000
00010000
30100000
00020000
10000000
00130000
20000000
00010000
,
30100000
02000000
00010000
03001000
00010000
00000100
00000100
00010000
,
00001000
01000000
00200000
10000000
01300000
02000000
00010000
03001000
,
00002000
00010000
01003000
00200000
10000000
01300000
00002000
01000000
,
00013000
00000200
00001000
00000310
00000002
00000100
00000013
00002000
,
00000100
00000000
00003010
00000000
00000001
00000000
00001000
00000000
00000100
00010000
00001000
00000000
01000000
00001000
00100000
00010000
,
01000000
00001000
00010000
00000000
00001000
00000000
01000000
00000000
00100000
01000000
00000000
01000000
00010000
10000000
01000000
00000000
,
00100000
00001000
00010000
00001000
01000000
00000000
00001000
00000000
00020000
00000000
00000010
00000000
00031000
00000000
00010000
00000100
,
00000020
00000000
00000100
00000000
00000031
00000000
00001000
00000000
00000100
00000000
00010000
00000000
00001000
01000000
00100000
10000000
,
00000000
00010000
00000000
02000000
00000000
00000000
00000000
00000000
03001000
00000000
00010000
00000000
00000100
00000000
00000010
00001000
,
00000000
00001000
00010000
00000000
00010000
00001000
00000000
00001000
00000010
00000000
00000001
00000000
00001000
00000000
00000020
00000000
,
00000000
00020030
00000000
00000000
00000000
00001000
00000000
00000000
00000000
01030000
00000000
00100000
00010000
20000000
00000000
00000000
,
30010000
00000000
00000000
00000000
00000000
00000000
01000000
00000000
00000000
00000000
00000000
00000000
00001000
00000000
00000000
01000000
00000000
00000000
00100000
00000000
00000000
00000000
00000000
00000000
00010000
00000000
00000000
00000000
00000000
00000000
00001000
00000000
00000000
00000000
00000000
00000000
00000010
00000000
00000000
00000000
00000001
00000000
00000000
00000000
00000010
00000000
00000000
00000000
,
00000100
00001000
00000001
00000100
00000010
00010000
00001000
01000000
00100000
00000000
10000000
00100000
00000000
00100000
00010000
00000000
,
00001000
00000100
00000000
00000100
00000001
00000000
00000001
00000010
00000000
00000010
00001000
00000000
00010000
01000000
10000000
01000000
,
00200000
00000000
00000000
00000000
00301000
00000000
00010000
00001000
00010000
00000000
00000100
00001000
00000001
00000100
00000010
00000000
,
00000001
00000010
00000100
00000010
00010000
00001000
00010000
00000010
00000100
00000010
00010000
00001000
01000000
00000000
00100000
00000000
,
10000000
00000000
00000000
00000000
00000000
00000000
00010000
00000000
00000000
00000000
00000000
00000000
00100000
00000000
00000000
00000000
00000000
00000000
01000000
00000000
10000000
00000000
00010000
00000000
10000000
00000000
00000000
00100000
00000000
00000000
01000000
00000000
00000000
00000000
00000000
00000000
00001000
00000000
00000000
00000000
00000000
00000000
00010000
00000000
00000000
00000000
00000000
00000000
,
00000100
00000010
00000000
00000010
00000100
00010000
00001000
00000000
00010000
00000010
00000100
00000010
00001000
00000000
00000001
00000010
,
00000100
00010000
00000000
00000010
00000000
00010000
00001000
01000000
00100000
00000000
10000000
00100000
01000000
00001000
00010000
00000010
,
00000000
00000100
00000000
00020000
00000000
00030100
00000010
00000100
00000000
00000001
00001000
00000100
00010000
00000000
00001000
02000000
,
00000000
03100000
00000000
01000000
00001000
01000000
00001000
00010000
00001000
00010000
00001000
00010000
00000010
00000000
00000110
00000000
,
00000001
00001000
00001002
00000000
00000000
00000000
00000000
00000000
00000000
00000000
00000013
00000000
00000100
00000000
00020000
00000000
,
00001000
00030100
00000200
00001000
00010300
00020000
00001000
00130000
,
02000000
00010000
03100000
10000000
00010000
00200000
00000000
00302000
,
00010000
00103000
20000000
00100000
30010000
00001000
00000010
00000100
,
00000000
00000202
00000000
00000000
00000000
00000000
00000000
00000000
00000000
00000000
00000000
00000000
00000000
00000000
00000000
00000000
,
00000303
00000000
00000000
00000000
;

//---------------dance-double - Talkion-CDP----------------
#NOTES:
     dance-double:
     Talkion:
     Challenge:
     17:
     0.804807,1.111764,0.331391,0.438292,1.117109,527,496,31,41,0,0,0.804807,1.111764,0.331391,0.438292,1.117109,527,496,31,41,0,0:
// measure 0
00000000
00000000
00000000
00000000
,  // measure 1
00000000
00000000
00000000
00000000
,  // measure 2
00000000
00000000
00000000
00000000
,  // measure 3
00000000
00000000
00000000
00000000
,  // measure 4
00000000
00000000
00000000
00000000
,  // measure 5
00000000
00001000
00000001
00000010
00000100
00010000
00001000
02000000
,  // measure 6
00000000
00000000
00000000
00000000
00000000
00000000
00000000
00000000
03200000
00000000
00000000
00000000
00000000
00000000
00000000
00000000
00300000
00000000
20000000
00200000
00000000
00000000
00000000
00000000
00000000
00000000
00000000
00000000
00000000
00000000
00000000
00000000
,  // measure 7
00000000
00000000
00000000
30300000
00000000
00000000
00000000
00000000
20020000
00000000
00000000
00000000
30030000
00000000
00000000
00000000
00202000
00000000
00000000
00000000
00303000
00000000
00000000
00000000
00020200
00000000
00000000
00000000
00030300
00000000
00000000
00000000
,  // measure 8
00002002
00003003
00000001
00000100
00000001
00001000
00001000
00000100
,  // measure 9
00010000
00000000
00010000
00000000
00001000
01000000
00010000
01000000
00001000
01000000
00010000
01000000
00100000
10000000
00010000
00100000
,  // measure 10
01000000
00000000
10000000
00010000
00000000
00000000
01000000
00000000
00001000
00000000
00000000
00010100
00000000
00000000
00000000
00000100
00000000
00010000
00000000
00000000
01001000
00000000
00000000
00000000
,  // measure 11
01000000
00000000
00001000
00000000
00000000
00010100
00000000
00000000
00000000
00000100
00000000
00000010
00000000
00000000
00001001
00000000
00000000
00000000
00000001
00000000
00000100
00000000
00000000
00001010
,  // measure 12
00000000
00000000
00000000
00010000
00000000
00000100
00000000
00000000
00000011
00000000
00000000
00000000
00000001
00000000
00001000
00000000
00000000
00000100
00010000
00000000
00010000
00001000
00000000
00001000
,  // measure 13
01000000
00000000
00001000
00000000
00000000
00000000
00100000
00000000
00001000
00000000
00000000
00010010
00000000
00000000
00000000
00000010
00000000
00010000
00000000
00000000
00101000
00000000
00000000
00000000
,  // measure 14
00100000
00000000
01000000
00000000
00000000
10010000
00000000
00000000
00000000
10000000
00000000
00100000
00000000
00000000
01010000
00000000
00000000
00000000
00001000
00000000
00100000
00000000
00000000
11000000
,  // measure 15
00000000
00000000
00000000
00000000
00000000
00000000
10000000
00000000
00000000
00000000
00010000
00000000
01000000
00000000
00000000
00000000
01000000
00000000
00010000
00000000
00000000
00000000
00000000
00000000
01001000
00000000
00000000
00000000
00000000
00000000
00001000
00000000
00000000
00010000
00000000
00000000
00001000
00000000
00000000
00000100
00000000
00000000
00000001
00000000
00000000
00000010
00000000
00000000
,  // measure 16
00000100
00000000
00010000
00001000
00000000
00000000
00010000
00000000
00000000
00000010
00000000
00000000
00010000
00000000
00010000
00001000
00000000
00001000
01000000
00000000
00001000
00010000
00000000
00000000
,  // measure 17
00001000
00000000
00000000
00100000
00000000
00000000
00010000
10000000
00010000
10000000
00010000
10000000
00100000
00000000
01000000
00100000
00000000
00000000
01000000
00000000
00001000
00000000
00000000
00010100
,  // measure 18
00000000
00000000
00000000
00000000
00000100
00000000
00000010
00000000
00000000
00000000
00000010
00000000
00000001
00000000
00000000
00000000
00000000
00000000
00000010
00000000
00000000
00000000
00000010
00000000
00001000
00000000
00000000
00000000
00001000
00000000
00010000
00000000
00000000
00001000
00000000
00000000
00000000
00000000
00000000
00001000
00000000
00000000
00000000
00000000
00000000
00001000
00000000
00000000
,  // measure 19
01000000
00000000
00010000
10000000
00000000
00000000
00100000
00000000
01000000
00000000
00000000
01001000
00000000
00000000
00000000
00000100
00000000
00010000
00000000
00000000
01001000
00000000
00000000
00000000
,  // measure 20
01000000
00000000
00001000
00000000
00000000
00010100
00000000
00000000
00000000
00000100
00000000
00000010
00000001
00000000
00000001
00001000
00000000
00000000
00000100
00000000
00000000
00000100
00000000
00000000
,  // measure 21
00010000
00000000
00000000
00000000
00000000
00000000
00001000
00000000
00000000
00000000
01000000
00000000
00100000
00000000
00000000
10000000
00000000
00000000
00000000
00000000
00000000
00110000
00000000
00000000
00000000
00000000
00000000
00001000
00000000
00000000
01000000
00000000
00000000
00100000
00000000
00000000
00000000
00000000
00000000
10000000
00000000
00000000
00010000
00000000
00000000
00100000
00000000
00000000
,  // measure 22
01000000
00000000
01010000
00000000
00011000
00000000
00001000
00000010
00000100
00001000
00000001
00000100
00000020
00000000
00001000
00000000
,  // measure 23
00010030
00020000
00001000
01030000
02000000
00010000
03001000
00000200
,  // measure 24
00000010
00001300
00000002
00000100
00001003
00020000
00001000
00030100
,  // measure 25
00000002
00000010
00001003
00020000
00001000
00030010
00000002
00000100
,  // measure 26
00001003
00000020
00001000
00010030
00000100
00000100
00010000
00002000
,  // measure 27
00010000
01003000
02000000
00010000
03001000
00002000
00010000
00003010
,  // measure 28
00000020
00001000
00010030
00200000
01000000
00310000
20000000
00100000
,  // measure 29
30010000
00000000
00001000
00000000
00100000
00001000
00010000
00000000
00001000
00000000
00010000
00000010
00001000
00000000
00000001
00000000
,  // measure 30
00000100
00000010
00010000
00000000
00001000
01000000
00001000
00000000
00010000
00001000
01000000
00001000
00010000
00000100
00001000
00000000
,  // measure 31
00000010
00000000
00000000
00001000
00000000
00000000
00001000
00000000
00000000
00000000
00000000
00000000
00000100
00000000
00000000
00000000
00000000
00000000
00010000
00000000
00000000
00001000
00000000
00000000
00000000
00000000
00000000
00001000
00000000
00000000
01000000
00000000
00000000
00000000
01000000
00000000
00010000
00000000
00000000
00000000
00000000
00000000
10000000
00000000
00000000
01000000
00000000
00000000
,  // measure 32
00010000
01000000
00100000
00001000
00010000
00001000
01000000
00001000
00010000
00000000
00000100
00000010
00001000
00000010
00000001
00000000
,  // measure 33
00001000
00000000
00000000
00000000
00000000
00000000
00001000
00000000
00000000
00000000
00000000
00000000
00000001
00000000
00000100
00000000
00000010
00000000
00001000
00000000
00000000
00000010
00000000
00000000
00010000
00000000
00000000
00000000
00000000
00000000
00001000
00000000
00010000
00000000
00001000
00000000
00010000
00000000
00000000
00000010
00000000
00000000
00001000
00000000
00000000
00000100
00000000
00000000
,  // measure 34
00000000
00000000
00000000
00010000
00000000
00000000
00000000
00000000
00000000
00001000
00000000
00000000
01000000
00000000
00000000
00100000
00000000
00000000
00000000
00000000
00000000
00000000
10000000
00000000
00000000
00000000
00000000
00000000
00100000
00000000
01000000
00000000
00000000
00000000
01000000
00000000
00001000
00000000
00000000
00000000
00000000
00000000
00010000
00000000
00000000
00020000
00000000
00000000
,  // measure 35
00000000
00030010
00000020
00000000
00000130
00000200
00000000
00000301
00000001
00001000
00000001
00000010
00000100
00010000
00000010
00010000
,  // measure 36
00000100
00000000
00010000
00001000
00010000
00000000
00000000
00000000
00001000
00000000
01000000
00000000
00100000
00000000
00010000
00000000
00100000
00000000
01000000
00000000
00010000
00000000
10000000
00000000
01000000
00000000
00010000
00000000
10000000
00000000
00100000
00000000
,  // measure 37
01000000
00000000
00000000
00000000
00000000
00000000
00000000
00000000
00000000
00000000
00000000
00000000
10000000
00000000
00000000
00000000
00000000
00000000
01000000
00000000
00000000
00000000
00000000
00000000
10000000
00000000
00000000
00000000
00000000
00000000
00000000
00000000
00000000
00000000
00000000
00000000
00000000
00000000
00000000
00000000
00000000
00000000
00000000
00000000
00000000
00000000
00000000
00000000
01000000
00000000
00000000
00000000
00000000
00000000
00100000
00000000
00000000
00000000
00000000
00000000
01000000
00000000
00000000
00000000
00000000
00000000
00000000
00000000
00000000
00000000
00000000
00000000
00000000
00000000
00000000
00000000
00000000
00000000
00000000
00000000
00000000
00000000
00000000
00000000
00100000
00000000
00000000
00000000
00000000
00000000
00010000
00000000
00000000
00000000
00000000
00000000
00100000
00000000
00000000
00000000
00000000
00000000
00000000
00000000
00000000
00000000
00000000
00000000
00000000
00000000
00000000
00000000
00000000
00000000
00000000
00000000
00000000
00000000
00000000
00000000
00001000
00000000
00000000
00000000
00000000
00000000
00000000
00000000
00000000
00000000
00000000
00000000
00000000
00000000
00000000
00000000
00000000
00000000
00000000
00000000
00000000
00000000
00000000
00000000
00011000
00000000
00000000
00000000
00000000
00000000
00000000
00000000
00000000
00000000
00000000
00000000
00000000
00000000
00000000
00000000
00010000
00000000
00000000
00000000
00000000
00000000
00000000
00000000
00000000
00000000
00000000
00000000
00000000
00000000
00000000
00000000
00000010
00000000
00000000
00000000
00000000
00000000
00000000
00000000
00000000
00000000
00000000
00000000
00000000
00000000
00000000
00000000
,  // measure 38
00000100
00000010
00001000
00000100
00000010
00001000
00010000
00000010
00001000
00000010
00000000
00000110
00000000
00000101
00000000
00000001
,  // measure 39
00001000
00000001
00000000
00000011
00000000
00000110
00000000
00010100
00000000
00011000
00000000
00001000
01000000
00100000
10000000
01000000
,  // measure 40
00000000
00100000
00100000
00000000
00001000
00010000
00001000
01000000
01000000
00000000
00001000
00010000
00001000
00100000
00100000
00000000
,  // measure 41
00001000
00010000
00001000
00000100
00000001
00001000
00000001
00000010
00000100
00010000
00000000
00001000
00000000
01000000
00100000
01000000
,  // measure 42
00010000
10000000
01000000
10000000
00100000
01000000
00000000
10000000
01000000
00010000
00100000
00000000
00100000
01000000
00010000
00001000
,  // measure 43
01000000
00010000
00000000
01000000
00001000
00010000
00000010
00001000
00000000
00000001
00000010
00000100
00010000
00000010
00000000
00001000
,  // measure 44
00010000
00000000
00001000
00000100
00000000
00001000
00010000
00000000
00100000
00010000
00010000
10000000
00100000
01000000
00010000
10000000
,  // measure 45
10000000
01000000
00100000
00001000
00010000
00000100
00000100
00000010
00000001
00001000
00000010
00000100
00000100
00000010
00010000
00001000
,  // measure 46
01000000
00000000
00000000
00010000
01000000
00010000
01000000
00001000
00010000
00001000
00010000
00001000
00010000
00001000
00010000
00001000
00010000
00001000
00010000
00000100
00010000
00000100
00001000
00000100
,  // measure 47
00001000
00000001
00001000
00000002
00000000
00000000
00000000
00000000
00000000
00000000
00000000
00000000
00000000
00000000
00000000
00000103
00000000
00000000
00000010
00000000
00000000
00020000
00000000
00000000
,  // measure 48
00001000
00030010
00000020
00001000
00010030
00020000
00001000
01030000
,  // measure 49
00200000
00010000
01300000
10000000
00010000
02000000
00000000
03002000
,  // measure 50
00010000
01003000
20000000
01000000
30010000
00001000
00000100
00000010
,  // measure 51
00000000
00000022
00000000
00000000
00000000
00000000
00000000
00000000
00000000
00000000
00000000
00000000
00000000
00000000
00000000
00000000
,  // measure 52
00000033
00000000
00000000
00000000
;
