#VERSION:0.83;
#TITLE:Kingslayer;
#ARTIST:ryugyong;
#BANNER:Kingslayer.png;
#BACKGROUND:Kingslayer-bg.png;
#JACKET:Kingslayer-jacket.png;
#MUSIC:Kingslayer.ogg;
#SAMPLESTART:58.320;
#SAMPLELENGTH:15;
#SELECTABLE:YES;
#OFFSET:-0.154;
#BPMS:0=165,96=82.5,112=165,116=82.5,130=165,162=82.5,194=87.5,196=175,224=180,252=174,253=173,254=172,255=171,256=170,257=169,258=168,259=167,259.5=166,260=82.5;
#TIMESIGNATURES:0=4=4,116=2=4,118=4=4,194=2=4,196=4=4;

//---------------dance-single - RGTM-bSP----------------
#NOTEDATA:;
#CHARTNAME:RGTM-bSP;
#STEPSTYPE:dance-single;
#DESCRIPTION:RGTM-bSP;
#DIFFICULTY:Beginner;
#METER:6;
#CREDIT:RGTM;
#NOTES:
0000
0000
0000
0000
,
0000
0000
0000
0000
,
0000
0000
0000
0000
,
0000
0000
0000
0000
,
0000
0000
0000
0000
,
0000
0000
0000
0000
,
0000
0000
0000
0000
,
0000
0000
0000
0000
,
1000
0010
1000
0010
,
0100
0001
0100
0001
,
1000
0100
1000
0100
,
0010
0001
0010
0001
,
1000
0001
1000
0001
,
0100
0010
0100
0010
,
1000
0001
1000
0001
,
0010
0000
0000
0100
,
0110
0010
0001
1000
,
1001
0001
0100
0010
,
0110
0100
0001
1000
,
1001
0001
0010
0100
,
0110
0010
0001
0001
,
0100
0100
0010
0010
,
1000
0000
0000
0001
0000
0000
2000
0000
,
0001
0001
0001
3001
,
1001
0000
1000
1000
0000
0000
0001
1000
,
0001
0000
0001
0001
0000
0000
0100
0010
,
0100
0000
0010
0010
0000
0000
1000
0001
,
1000
0000
1000
1000
0000
0000
0001
1000
,
0001
0001
0001
0001
,
0001
0000
0110
0000
1001
0000
1000
1000
,
0000
0000
0001
1000
0010
0000
0100
0100
,
0000
0000
0010
0100
0010
0000
1000
0000
,
0001
0001
0001
0001
2000
0000
0000
0000
,
0000
0000
3000
0000
,
0000
0000
0002
0000
,
0000
0000
0003
0000
,
0000
0000
1000
0000
,
1000
1000
0000
0001
,
0001
0000
0020
0000
0130
0000
0000
0010
,
0000
0002
1000
1000
,
1000
1003
1001
0000
,
0000
0000
0010
0000
1001
0000
1000
0100
,
0000
0000
0010
0100
0010
0000
0001
2000
,
0000
0000
0010
0000
3001
0000
0100
0100
,
0000
0000
0010
0010
0000
1000
0000
0001
,
0000
1000
0000
0001
0000
0010
0000
0100
,
0000
0010
0000
0100
0000
1000
0000
0002
,
0000
0000
0010
0000
1003
0000
0010
0010
,
0000
0000
0100
0100
0002
0000
0000
0000
,
1003
0000
0100
0000
,
0010
0010
0001
1000
,
0001
0000
0100
0000
,
0010
0010
1000
0001
,
1000
0000
0100
0100
,
0010
0000
0001
1000
,
1000
0000
0001
0000
,
2000
3001
1000
1000
,
1000
0000
0010
1000
,
0100
0010
0100
0010
,
0001
0000
0010
0001
,
0200
0310
1000
0001
,
1000
1000
0100
0100
,
0010
0010
0001
0001
,
1001
0000
0110
0000
,
1001
1000
0002
0003
,
2000
0000
0000
0000
,
3001
0010
0100
1000
,
0001
1000
0001
1000
0000
0000
0010
0010
,
0100
0010
0100
0010
0000
0000
1000
1000
,
0002
0000
0003
0000
;

//---------------dance-single - RGTM-BSP----------------
#NOTEDATA:;
#CHARTNAME:RGTM-BSP;
#STEPSTYPE:dance-single;
#DESCRIPTION:RGTM-BSP;
#DIFFICULTY:Easy;
#METER:10;
#CREDIT:RGTM;
#NOTES:
0000
0000
0000
0000
,
0000
0000
0000
0000
,
0000
0000
0000
0000
,
0000
0000
0000
0000
,
0000
0000
0000
0000
,
0000
0000
0000
0000
,
0000
0000
0000
0000
,
0000
0000
0000
0000
,
1000
0000
0010
0000
1000
0000
0100
0010
,
0001
0000
0010
0000
0001
0000
0100
0010
,
1000
0000
0100
0000
1000
0000
0010
0100
,
0001
0000
1000
0000
0001
0010
0100
0010
,
0001
0000
0100
0000
0010
0000
0001
0010
,
1000
0000
0100
0000
0010
0000
1000
0010
,
0001
0000
0100
0000
0010
0000
1000
0001
,
1000
0200
0000
0000
0000
0000
0310
0100
,
0010
0000
0011
0000
1010
0000
0001
0010
,
0100
0000
1100
0000
0101
0000
1000
0100
,
0010
0000
1010
0000
0011
0000
0001
0010
,
0100
0000
0101
0000
1100
0000
1000
0001
,
1000
0100
0010
0000
0001
0010
0100
0000
,
1000
0010
0100
0000
0001
0100
0010
1000
,
0002
0000
0000
0023
0000
0000
0230
0000
,
2300
0010
0001
3100
,
0110
0000
0000
0000
0001
1000
0001
0000
1000
0000
0010
0000
0100
0010
0100
0000
,
0001
0000
1000
0000
0100
1000
0100
0000
0010
0000
0100
0000
0010
0001
0010
0000
,
0001
0000
1000
0000
0010
1000
0010
0000
0000
0000
0100
0000
0001
0100
0001
0000
,
1000
0000
0001
0000
0010
0001
0010
0000
0000
0000
0100
0000
1000
0100
1000
0000
,
0001
0001
0001
0001
,
0001
0000
0000
0000
0110
0000
1000
0000
1001
0000
0001
0100
0001
0100
0001
0100
,
0010
1000
0010
1000
0010
1000
0010
0000
1000
0000
0001
0000
0010
0100
0010
0000
,
0001
0000
1000
0000
0010
0100
0010
0000
1000
0000
0100
0000
0010
0100
0010
0000
,
0001
0001
0001
0110
2000
0000
0000
0000
,
0000
0000
3002
0000
,
0000
0000
0203
0000
,
0000
0000
0320
0000
,
0000
0000
0000
0000
1030
0000
0000
1000
,
1000
0000
1000
0000
0000
0001
0001
0000
,
0001
0001
0002
0000
0013
0000
0010
0010
,
0000
0010
0010
0000
0002
0000
0010
0000
,
1000
0103
0110
0000
,
0000
0000
0000
0000
0010
0100
0010
0000
1001
0000
1000
0000
0100
0000
0020
0000
,
0000
0000
0000
0000
0031
0001
0000
1000
1000
0000
0000
0010
0100
0000
0001
0000
,
0010
0000
1000
0000
0100
0000
0001
0000
1000
0000
0100
0010
0100
0010
0002
0000
,
0000
0023
0000
0000
0230
0000
1300
0001
1000
0000
1010
0000
0000
0000
0011
0000
,
0000
0101
0000
1100
0000
1010
0000
0011
,
0000
0101
0000
1100
0000
1001
0000
0001
,
0100
0000
1000
0000
0010
0000
0001
0000
1000
0000
0100
0010
0100
0010
0002
0000
,
0000
0203
0000
0000
0320
0000
1030
0001
2000
0000
0000
0000
0000
0000
3010
0000
,
1000
0000
0100
0010
0000
0010
0001
0000
,
1000
0010
0100
0000
0010
1000
0001
0000
,
0010
0000
0100
0000
1000
0001
1000
0001
,
0100
0000
0010
0000
1000
0000
0001
1000
,
0001
0000
0010
0100
0010
0000
0001
0000
,
0100
0000
0010
0000
1000
0001
1000
0000
,
0001
0000
0010
0000
0100
1000
0100
0000
,
2000
3020
0130
0100
,
0001
0010
0001
0000
1000
0000
1000
0000
,
0001
0010
0001
0000
0200
0000
0320
0000
,
1030
0010
1000
0000
0001
0000
0001
0000
,
2000
0000
3100
0000
0010
0100
1000
0100
,
0010
0011
1010
1001
,
0100
0101
1100
1001
,
0001
1000
0001
0000
1000
0001
1000
0000
,
0010
0100
0001
1000
0020
0000
0130
0000
,
0002
0000
0000
0000
,
1003
0001
0010
0100
,
1000
0000
0010
0000
0100
0010
0100
0000
0010
0000
0000
0000
1000
0001
1000
0000
,
0001
0000
0000
0010
0010
0100
0100
0000
1000
0000
0000
0000
0001
1000
0001
0000
,
0200
0000
0300
0000
;

//---------------dance-single - RGTM-DSP----------------
#NOTEDATA:;
#CHARTNAME:RGTM-DSP;
#STEPSTYPE:dance-single;
#DESCRIPTION:RGTM-DSP;
#DIFFICULTY:Medium;
#METER:13;
#CREDIT:RGTM;
#NOTES:
0000
0000
0000
0000
,
0000
0000
0000
0000
,
0000
0000
0000
0000
,
0000
0000
0000
0000
,
0000
0000
0000
0000
,
0000
0000
0000
0000
,
0000
0000
0000
0000
,
0000
0000
0000
0000
,
0010
0000
0001
0010
0000
0100
1000
1000
,
0010
0000
1000
0010
0000
0100
0001
0001
,
0010
0000
0100
0010
0000
0001
1000
1000
,
0010
0000
0000
0100
0010
0000
1000
0000
0001
0000
0010
0000
0010
0000
0100
0000
,
1000
0020
0000
0000
1030
0001
0001
0010
,
0100
0000
0010
0001
0000
0001
1000
1000
,
0010
0000
0100
0020
0000
1030
0001
0001
,
0010
0000
0000
0000
0000
0000
0001
0000
0000
0010
0000
0000
0000
0000
0000
0001
0000
0000
0010
0000
0000
0000
0000
0000
0001
0000
0000
0000
1000
0000
0000
0000
0001
0000
0000
0000
1000
0000
0000
0000
0000
0000
0010
0000
0000
0000
0000
0000
,
1010
0000
0000
1000
0010
0000
2000
0000
0000
0000
3010
1000
0010
0000
1000
0000
,
0010
0000
0200
0000
0000
0000
0310
0000
0000
0000
0100
0010
0100
0000
0010
0000
,
0100
0000
0000
0100
0001
0000
0100
0000
0000
0000
0001
0100
0001
0000
0100
0000
,
0001
0000
0000
1000
0000
0000
0002
0000
0000
0000
1003
0001
1000
0000
0001
0000
,
0010
0100
0010
0001
0100
0010
0100
0001
,
1000
0100
1000
0001
0100
0010
0100
0001
,
0020
0000
0000
0032
0000
0000
2003
3020
,
0130
0020
0031
0020
0130
0020
1030
0000
,
1010
0000
0000
0000
1000
0000
1000
0000
0100
0000
0010
0000
0010
0000
0000
0000
0000
0000
0000
0000
0001
0000
0010
0000
0010
0000
0100
0000
0100
1000
0000
0000
,
1001
0000
1000
0010
0010
0100
0100
0000
0000
0001
1000
1000
0100
0010
0010
0001
,
2000
0000
0000
0000
3010
0000
0100
0000
0001
0000
0010
0000
0020
0000
0000
0000
0030
0000
0000
0000
0100
0000
1000
0000
1000
0000
0001
0000
0001
0000
0100
0002
,
0000
0000
0000
0000
0013
0000
0100
0000
0100
0000
1000
0200
0000
0000
1300
0000
0000
0000
0001
0000
0001
0000
0001
0000
0100
0000
0010
0100
0010
0000
1000
0000
,
1010
0011
0101
1100
,
0010
0000
0000
0000
1001
0000
0000
0000
0100
0000
0000
0000
0110
0000
0000
0000
1002
0000
0000
0000
1003
0000
0001
0000
1000
0000
0010
1000
0000
0010
1000
0000
,
0010
0000
0100
0010
0000
0100
0010
0000
0100
0000
0001
0100
0002
0000
0000
0000
1003
0000
0000
0000
0001
0000
0001
0000
0010
0000
0010
0000
0100
0010
0100
0000
,
1000
0000
1000
0000
0001
0000
0001
0000
0100
0000
0010
0100
0020
0000
0000
0000
1000
0000
0000
0000
0230
0000
0000
0000
0310
0000
0100
0000
0001
0000
0000
0000
,
1000
0200
0310
0200
0301
0200
0310
0000
0002
0000
0000
0000
0000
0000
0000
0000
,
0000
0000
0203
0000
,
0000
0000
0320
0000
,
0000
0000
2030
0000
,
0000
0000
0000
0000
3001
0000
0000
1000
,
1000
0000
1000
0000
0000
0100
0100
0000
,
0100
0000
0010
0000
0010
0000
0002
0000
1003
0000
0000
0001
1000
0000
1000
0000
,
0000
0010
0100
0000
0001
0000
0020
0000
0130
0000
0020
0000
1030
0000
0020
0000
,
0130
0000
0020
0000
0031
0000
0000
0000
2002
0000
0000
0000
3003
0000
1000
0001
,
1000
0001
1000
0001
0010
0010
0100
0000
0110
0000
0001
0001
1000
1000
0001
0100
,
0001
0000
0000
0000
0000
0000
0100
0000
0000
0000
0000
0000
0001
0000
0000
0000
0000
0000
0100
0000
0000
0000
0000
0000
0010
0000
0000
0000
0000
0000
0100
0000
0000
0000
0000
0000
0000
0000
0000
0100
0000
0000
0010
0000
0000
0000
0000
0000
2000
0000
0000
0000
0000
0000
0000
0000
0000
0000
0000
0000
0000
0000
0000
0000
0000
0000
3100
0000
0000
0000
0000
0000
0100
0000
0000
0000
0000
0000
0010
0000
0000
0000
0000
0000
0001
0000
0000
0000
0000
0000
0000
0000
0001
0000
0000
0000
,
0010
0000
0000
0000
0010
0000
0100
0000
0000
0000
0100
0000
1000
0000
0000
0000
1000
0000
0001
0000
0000
0000
0001
0000
1000
0000
0000
0000
0000
0000
0010
0000
0000
0100
0000
0000
0100
0000
0000
0010
0000
0000
2000
0000
0000
0000
0000
0000
,
0000
0000
3002
0000
0000
0000
0000
0000
0013
0000
0100
0010
0100
0000
0010
0000
0001
0000
0000
0000
1010
0000
0000
0000
0100
0000
0000
0000
0011
0000
0000
0000
,
1000
0101
0010
1100
0001
1010
0100
0011
,
1000
0000
0000
0101
0000
0000
0010
0000
0000
1100
0000
0000
0001
0000
0000
0110
0000
0000
1000
0000
0000
0001
0010
0001
,
0010
0000
0100
0000
0010
0000
0100
0000
1000
0000
0100
0000
1000
0000
0001
0000
1000
0000
0001
0000
0100
0000
0001
0000
0100
0000
0000
0000
0000
0000
0010
0000
0000
1000
0000
0000
1000
0000
0000
0001
0000
0000
0002
0000
0000
0000
0000
0000
,
0000
0000
0023
0000
0000
0000
0000
0000
0130
0000
1000
0001
1000
0000
0001
0000
0200
0000
0000
0000
0000
0000
0000
0000
0000
0000
0000
0000
0310
0000
0000
0000
,
2000
0000
3001
0020
0000
0130
0010
0001
,
0100
0010
0100
0001
0010
1000
0010
0100
,
0001
0100
0010
0100
1000
0010
0001
0010
,
0100
0000
0001
0000
0010
0000
0100
1000
0000
0001
0100
0000
0010
0000
1000
0000
,
0001
0000
0010
0001
0000
1000
0010
0000
0100
0010
0000
1000
0001
0000
0010
0000
,
0200
0000
0000
2300
0000
0000
3001
0000
0100
0000
0010
0000
1000
0000
0001
0000
,
0010
1000
0010
0100
1000
0010
0100
0001
,
2000
0000
0000
0000
3100
0010
0100
0010
0100
0000
0000
0000
1001
0000
0000
0000
,
1000
0000
0001
0000
0010
0000
0100
0010
0000
0000
0001
0000
0000
0010
0000
0000
,
0100
0000
1000
0000
0010
0000
1000
0001
0000
0000
0100
0000
0000
0010
0000
0000
,
1000
0000
0100
0000
0010
0000
0001
0010
0000
0000
0100
0000
0000
1000
0000
0000
,
0002
0000
0000
0000
0103
0000
0010
0100
0000
0100
0010
0000
1000
0001
1000
0000
,
0001
0010
0001
0010
0100
1000
0100
2000
,
3001
0100
0001
0100
0010
2000
3010
2000
,
3001
0010
1000
0010
0001
0100
1000
0100
,
0010
0000
0100
0000
0010
0000
0100
0000
0001
1000
0001
1000
0002
0000
0000
0000
,
2003
0010
0000
0010
,
3001
0000
0000
1000
0010
0100
0100
0000
0000
0000
0000
0000
0001
0001
1000
0000
,
0200
0000
0000
0000
0000
0000
0310
0000
0100
0000
0010
0000
0100
0000
0000
1000
0000
0000
1000
0000
0000
0000
0000
0000
0000
0000
0000
0000
0000
0000
0000
0000
0000
0000
0000
0000
0010
0000
0000
0010
0000
0000
0100
0000
0000
0000
0000
0000
,
0001
0000
0000
0001
1000
1000
0001
0000
0000
0000
0000
0000
0010
0010
0100
0000
,
2000
0000
3000
0000
;

//---------------dance-single - Kekkle-ESP----------------
#NOTEDATA:;
#CHARTNAME:Kekkle-ESP;
#STEPSTYPE:dance-single;
#DESCRIPTION:Kekkle-ESP;
#DIFFICULTY:Hard;
#METER:17;
#CREDIT:Kekkle;
#NOTES:
0000
0000
0000
0000
,
0000
0000
0000
0000
,
0000
0000
0000
0000
,
0000
0000
0000
0000
,
0000
0000
0000
0000
,
0000
0000
0000
0000
,
0000
0000
0000
0000
,
0000
0000
0000
0000
,
1001
0000
0000
0000
0001
0000
0100
0000
0010
0000
1000
0010
0100
0000
1000
0000
,
0000
0000
0100
0000
0010
0000
1000
0001
0010
0000
0001
1000
0010
0100
0010
1000
,
0010
0100
0010
1000
0010
0100
0010
1000
0001
0010
0100
1000
0001
0000
0100
0010
,
1000
0000
0010
0100
0001
0000
1000
0100
0010
0000
0001
0010
0100
0000
1000
0000
,
0001
0000
0000
0000
1000
0000
0100
0000
0010
0000
0001
0010
0100
0000
0001
0000
,
0000
0000
0100
0000
0010
0000
0001
1000
0010
0000
1000
0001
0010
0000
0100
1000
,
0001
0000
0100
0001
1000
0100
0010
0100
1000
0100
0010
0100
1000
0100
0010
0100
,
1000
0000
0000
0001
0000
0000
0100
0000
0000
0010
0000
0000
1000
0000
0000
0000
0000
0000
0001
0000
0000
0010
0000
0000
0100
0000
0000
0000
1000
0000
0000
0000
0001
0000
0000
0000
0100
0000
0000
0000
0000
0000
0010
0000
0000
0000
0000
0000
,
1001
0000
0000
0000
1000
0000
0010
0000
0100
0000
0001
0100
0010
0000
0001
0000
,
0000
0000
0010
0000
0100
0000
0001
1000
0100
0000
0010
0001
1000
0000
0001
0100
,
0010
0000
1000
0010
0100
0000
0001
1000
0100
0000
0010
0001
1000
0010
0100
0010
,
1000
0001
0010
0001
1000
0010
0100
0001
1000
0000
0100
0010
0001
0000
0100
0010
,
1000
0001
1000
0001
0010
0100
0010
0100
,
1000
0001
1000
0001
0100
0010
0100
0010
,
1000
0000
0000
0010
0000
0000
0100
0000
0000
0001
0000
0000
1000
0000
0000
0100
0000
0000
1000
0000
0000
0001
0000
0000
0010
0000
0000
0100
0000
0000
1000
0000
0000
0001
0000
0000
0100
0000
0000
0000
0000
0000
0010
0000
1000
0000
0010
0000
,
1000
0000
0000
0001
0010
0001
0010
0000
0000
0100
1000
0100
1000
0000
0000
0001
0100
0001
0200
0000
0000
0000
0000
0000
,
0310
0000
0000
0000
1000
0002
0010
0000
1003
0020
0100
0000
1030
0002
0010
0000
0003
0000
0000
0000
0001
2000
0010
0000
3001
0020
0100
0000
0031
1000
0000
1000
,
0020
0000
0000
0000
0000
0000
0030
0000
0000
0000
0000
0000
1000
0000
0000
0002
0000
0000
0100
0000
0000
0000
0000
0000
1003
0000
0000
0200
0000
0000
0010
0000
0000
0000
0000
0000
1300
0000
0000
0001
0000
0000
0100
0000
0000
0010
0000
0000
0000
0000
0000
0000
0000
0000
1000
0000
0001
0000
1000
0000
0001
0000
0000
0010
0000
0000
0100
0000
0000
1000
0000
0000
0001
0000
0000
0100
0000
0000
0010
0000
0000
1000
0000
0000
0100
0000
0000
0010
0000
0000
0001
0000
0000
0000
0000
0000
,
1001
0000
0000
0000
1000
0002
0010
0000
1003
0020
0100
0000
2030
0000
0000
0000
3000
0000
0000
0000
0001
2000
0100
0000
3001
0200
0010
0000
0301
1000
0000
1000
,
0200
0000
0000
0000
0000
0000
0300
0000
0000
0000
0000
0000
1000
0000
0000
0002
0000
0000
0100
0000
0000
0000
0000
0000
1003
0000
0000
0100
0000
0000
0010
0000
0000
0002
0000
0000
0000
0000
0000
0000
0000
0000
2003
0000
0000
0000
0000
0000
0000
0000
0000
0000
0000
0000
3001
0000
0100
0000
0001
0000
0100
0000
0000
0000
0000
0000
0010
0000
1000
0000
0010
0000
1000
0000
0000
0000
0000
0000
0001
0000
1000
0000
0001
0000
1000
0000
0000
0100
0000
0000
0020
0000
0000
0000
0000
0000
,
0032
1003
0010
1000
0002
1003
0100
1000
0002
1003
0010
1000
0002
1003
0100
1000
,
0002
0103
0010
1000
0002
0000
0003
0000
1000
0200
0010
0000
1300
0000
0000
0000
1001
0000
0000
0000
0001
0000
0100
0000
0010
0000
0001
0010
0000
0010
1000
0000
,
0001
0000
1000
0100
0000
0100
0001
0000
0100
0000
0010
0100
0002
0000
0000
0000
0103
0000
0000
0000
1000
0001
0100
0010
1000
0001
0010
0100
1000
0100
0020
0000
,
0031
1000
0010
0100
0010
1000
0002
0000
1003
0100
0010
0001
2000
0000
0000
0000
3001
0000
0000
0000
1001
0000
0000
0000
1000
0000
1000
0010
0200
0000
0000
0000
,
0301
0000
0000
1000
0100
1000
0100
0000
0000
0010
0001
0010
0001
0000
0000
1000
0010
1000
0020
0000
0000
0000
0000
0000
0230
0000
0000
0000
0000
0000
0000
0000
0000
0000
0000
0000
0000
0000
0000
0000
0000
0000
0000
0000
0000
0000
0000
0000
,
0000
0000
0302
0000
,
0000
0003
2000
0000
,
0000
0000
3200
0000
,
0000
0000
0300
0000
0010
0000
0000
0001
,
0010
0000
0010
0000
0000
0001
0010
0000
,
0010
0000
0000
0000
0000
0000
0001
0000
0000
0000
0000
0000
1000
0000
0000
0010
0000
0000
0100
0000
0010
0000
0100
0000
0010
0000
0000
0000
0000
0000
0000
0000
0000
1000
0000
0000
0010
0000
0000
0000
0000
0000
0010
0000
0000
0000
0000
0000
,
0000
0000
0000
1000
0000
0000
0010
0000
0000
0000
0000
0000
0010
0000
0000
0000
0000
0000
0100
0000
0001
0000
0100
0000
0001
0000
0000
0000
0000
0000
1000
0000
0100
0000
1000
0000
0100
0000
0000
0000
0000
0000
0010
0000
0001
0000
0010
0000
,
0001
0000
0000
0000
0000
0000
0000
0000
0000
0000
0000
0000
1000
0000
0000
0000
0010
0000
0000
0000
1000
0000
0000
0000
0020
0000
0000
0000
0000
0000
0000
0000
0000
0000
0000
0000
0000
0000
0000
0000
0000
0000
0000
0000
0000
0000
0000
0000
0230
0000
0000
0000
0000
0000
0000
0000
0000
0000
0000
0000
0000
0000
0000
0000
0000
0000
0000
0000
0000
0000
0000
0000
0300
0000
0000
0000
0000
0000
0000
0000
0000
0000
0000
0000
0010
0000
0000
1000
0000
0000
0001
0000
0000
0010
0000
0000
,
0100
1000
0001
0100
0010
1000
0001
0010
0100
0000
0010
0000
2000
0000
0000
0000
3010
0000
0000
0000
1010
0000
0010
0000
0012
0000
0000
0000
2003
0000
0000
0000
,
0000
0000
0000
0000
0000
0000
0000
0000
0000
0000
0000
0000
3001
0000
0000
0100
0000
0000
0001
0000
0000
0100
0000
0000
0010
0000
0000
1000
0000
0000
0001
0000
0000
0010
0000
0000
0100
0000
0000
1000
0000
0000
0100
0000
0000
0010
0000
0000
0002
0000
0000
0000
0000
0000
0000
0000
0000
0000
0000
0000
1003
0000
0000
0000
0000
0000
0010
0000
0000
0000
0000
0000
0110
0000
0000
0000
0000
0000
0100
0000
0000
0000
0000
0000
1000
0000
0000
0000
0000
0000
0000
0000
1000
0000
0000
0000
,
0100
0000
0000
0000
0100
0000
0001
0000
0000
0000
0001
0000
0010
0000
0000
0000
0010
0000
1000
0000
0000
0000
1000
0000
0020
0000
0000
0000
0000
0000
1000
0000
0000
0100
0000
0000
0031
0000
0000
0000
0000
0000
2000
0000
0000
0000
0000
0000
,
0000
0000
3020
0000
0000
0000
0000
0000
0130
0000
0001
1000
0100
0000
0100
0000
0220
0000
0000
0000
0000
0000
0000
0000
0330
0000
0000
0000
0010
0001
1000
0010
,
0100
0001
1000
0100
0010
0001
1000
0010
0100
0000
0010
0000
0002
0000
0000
0000
0013
0000
0000
0000
0011
0000
0010
0000
2010
0000
0000
0000
3002
0000
0000
0000
,
0000
0000
0000
0000
0000
0000
0000
0000
0000
0000
0000
0000
1003
0000
0000
0100
0000
0000
1000
0000
0000
0100
0000
0000
0010
0000
0000
0001
0000
0000
1000
0000
0000
0010
0000
0000
0100
0000
0000
0001
0000
0000
0100
0000
0000
0010
0000
0000
2000
0000
0000
0000
0000
0000
0000
0000
0000
0000
0000
0000
3001
0000
0000
0000
0000
0000
0010
0000
0000
0000
0000
0000
0110
0000
0000
0000
0000
0000
0100
0000
0000
0000
0000
0000
0001
0000
0000
0000
0100
0000
0000
0000
0100
0000
0000
0000
,
0010
0000
0001
0000
0001
0000
1000
0000
0010
0000
0010
0000
0100
0000
1000
0000
1000
0000
0100
0000
0010
0000
0010
0000
0200
0000
0000
0000
0000
0000
1000
0000
0000
0010
0000
0000
0301
0000
0000
0000
0000
0000
2000
0000
0000
0000
0000
0000
,
0000
0000
3200
0000
0000
0000
0000
0000
0310
0000
0001
1000
0010
0000
0010
0000
0200
0000
0000
0000
0000
0000
0000
0000
0000
0000
0000
0000
0310
0000
0000
0000
,
2000
0000
0000
0000
3010
0000
0002
0000
0000
0000
0013
0100
0001
0000
1000
0001
,
0010
0000
1000
0000
0010
0001
1000
0010
0100
0000
1000
0000
0100
0000
0010
0000
,
0001
0000
0010
0000
1000
0000
0100
0000
0001
0100
0010
0001
1000
0001
0100
0010
,
1000
0000
0001
0010
0100
0000
1000
0010
0100
0001
1000
0000
0100
0010
0001
0000
,
1000
0000
0010
0001
0000
0010
1000
0000
0001
0010
0000
0100
0001
0000
0100
0000
,
2000
0000
0000
3002
0000
0000
0103
0000
1000
0000
0100
0000
0001
0000
0100
0000
,
1000
0100
0010
1000
0001
1000
0100
0010
0001
0000
0010
0000
0100
1000
0001
0000
,
0020
0000
0000
0000
0031
0100
1000
0100
0002
0000
0000
0000
2003
0000
0000
0000
,
3001
0100
0010
1000
0001
0010
0100
0010
1000
0010
0001
1000
0010
0100
0001
0100
,
0010
1000
0001
0000
1000
0000
0100
0001
0000
0100
0010
0000
0100
1000
0000
0000
,
0001
0100
0001
1000
0100
0010
0100
0001
0100
1000
0001
0100
0010
1000
0100
0010
,
0002
0000
0000
0000
1003
0000
1000
0010
0000
0100
1000
0100
0001
1000
0100
0000
,
0010
0000
0001
0010
0100
0000
1000
0010
0100
0000
0001
0010
0100
0000
0020
0000
,
0031
0000
0100
0010
1000
0000
0100
0010
0001
0000
0100
0010
1000
0000
0002
0000
,
1003
0010
1000
0010
0100
0001
0100
0001
,
1000
0100
0010
0001
1000
0010
0100
0001
1000
0100
0020
0000
0230
0000
0000
0000
,
1300
0000
0000
0100
0001
0100
2000
0000
0001
0000
0000
0000
3010
0100
0001
0000
,
0001
0000
0000
0100
1000
0100
0002
0000
1000
0000
0000
0000
0013
0100
1000
0000
,
0200
0000
0000
0000
0000
0000
1300
0000
0001
0000
0100
0000
0010
0000
0000
1000
0000
0000
0002
0000
0000
0000
0000
0000
1000
0000
0000
0000
0000
0000
0000
0000
0000
0000
0000
0000
0103
0000
0000
0010
0000
0000
1000
0000
0000
0000
0000
0000
,
1000
0000
0000
0010
0001
0010
2000
0000
0001
0000
0000
0000
3100
0010
0001
0000
,
2000
0000
3000
0000
;

//---------------dance-double - t7r-BDP----------------
#NOTEDATA:;
#CHARTNAME:t7r-BDP;
#STEPSTYPE:dance-double;
#DESCRIPTION:t7r-BDP;
#DIFFICULTY:Easy;
#METER:11;
#CREDIT:t7r;
#NOTES:
00000000
00000000
00000000
00000000
,
00000000
00000000
00000000
00000000
,
00000000
00000000
00000000
00000000
,
00000000
00000000
00000000
00000000
,
00000000
00000000
00000000
00000000
,
00000000
00000000
00000000
00000000
,
00000000
00000000
00000000
00000000
,
00000000
00000000
00000000
00000000
,
10000000
00000000
01000000
00000000
10000000
00010000
01000000
00000000
,
00010000
00000000
00100000
00000000
00001000
00010000
00000010
00000000
,
00001000
00000000
00000100
00000000
00000010
00000001
00001000
00000000
,
00000001
00000100
00001000
00010000
,
00001000
00000000
01000000
00000000
00010000
10000000
01000000
00000000
,
10000000
00000000
00010000
00000000
00100000
00010000
10000000
00000000
,
00100000
00000000
00010000
00000000
00001000
00010000
00001000
00000000
,
00000100
00000010
00000100
00001001
,
00000001
00000000
00000010
00000100
00000000
00001000
00000001
00000000
,
00000100
00000000
00000010
00001000
00000000
00000100
00010000
00000000
,
00001000
00000000
00010000
01000000
00000000
00100000
01000000
00000000
,
10000000
00100000
01000000
00010000
,
10000000
00000000
01000000
10000000
01000000
00000000
10000000
00010000
,
00000000
01000000
00010000
00000000
00100000
00000000
00001000
00010000
,
00002000
00000000
00000000
00023000
00000000
00000000
00030020
00000000
,
00000130
00000000
00000001
00001000
00000000
00000000
00000100
00000000
00000000
00011000
00000000
00000000
,
00010000
00000000
01000000
00000000
00100000
01000000
01000000
00000000
00000000
00000000
10000000
00000000
00100000
01000000
01000000
00000000
,
00100000
00000000
00010000
00000000
00001000
00010000
00010000
00000000
00000000
00000000
00001000
00000000
00000010
00000100
00000100
00000000
,
00002000
00000000
00003001
00000000
00000100
00000010
00000020
00000000
00000030
00000000
00001000
00000000
00000100
00010000
00010000
00000000
,
00001000
00000000
00010000
00000000
01000000
10000000
10000000
00000000
00000000
00000000
00100000
00000000
01000000
00010000
10000000
00000000
,
01000000
00010000
00001000
00000100
,
00000001
00000000
00000110
00000000
00000100
00000000
00011000
00000000
00002000
00000000
00013000
00010000
00010000
00010000
00010000
00010000
,
00010000
00000000
00010000
00000000
01000000
10000000
20000000
00000000
30200000
00000000
02300000
00000000
03010000
10000000
10000000
00000000
,
01000000
00100000
00001000
00000000
00010000
00001000
00010000
00000000
00011000
00000000
00000200
00000000
00001300
00000010
00000010
00000000
,
00000100
00000001
00001000
00000000
00000100
00000000
00011000
00000000
00002000
00000000
00000000
00000000
00000000
00000000
00000000
00000000
,
00000000
00000000
00023000
00000000
,
00000000
00000000
02030000
00000000
,
00000000
00000000
03200000
00000000
,
00000000
00000000
00000000
00000000
00302000
00000000
00000000
00013000
,
00000100
00000000
00000100
00000000
00002000
00000001
00003001
00000000
,
00000100
00000100
00000010
00000000
00002000
00000000
00003100
00010000
,
00000000
00001000
00010000
00000000
00200000
00000000
10300000
00000000
,
00010000
00000000
00000000
00000000
10010000
00000000
00000000
00000000
22000000
00000000
00000000
00000000
33000000
00000000
01000000
00100000
,
01000000
00100000
01000000
00100000
00001000
00010000
00020000
00000000
00031000
00000000
00000100
00000000
00000010
00000000
00001000
00000100
,
00001000
00000000
00000001
00000000
00000100
00001000
00000000
00010000
00002000
00000000
00000000
00013000
00001000
00000000
00010000
00000000
,
01000000
00000000
10000000
00000000
00010000
01000000
01000000
00000000
00100000
00000000
10000000
00010000
01000000
00000000
00020000
00000000
,
00000000
00230000
00000000
00000000
00301000
00010000
00001000
00000000
00020000
00000000
00030010
00000000
00001000
00000100
00000100
00000000
,
00000010
00000100
00000010
00000000
00000001
00000100
00000200
00000000
00001300
00000000
00010000
00001000
00010000
00000000
00002000
00000000
,
01003000
00010000
01000000
00000000
00001000
00010000
00000000
00001000
00200000
00000000
00310000
01000000
00100000
00000000
20000000
00000000
,
32000000
00000000
03200000
00000000
00320000
00000000
00032000
00000000
00003100
00000000
00000010
00000000
00000001
00000100
00000200
00000000
,
00000000
00000320
00000000
00000000
00010030
00001000
00010000
00010000
00002000
00000000
00000000
00000000
00000000
00000000
00013000
00000000
,
00001000
00000000
01000000
00020000
00000000
00000000
10030000
00000000
,
01000000
00200000
00000000
00000000
01300000
00000000
10000000
00000000
,
00010000
01000000
10000000
00010000
,
00100000
00000000
01000000
00010000
00100000
00000000
00001000
00000000
,
00010000
00000000
00001000
00000000
00000010
00000100
00000010
00000000
,
00000001
00000000
00000100
00000000
00000001
00000010
00000001
00000000
,
00001000
00000010
00000001
00001000
,
00000100
00000010
00000100
00000000
00000020
00000000
00002030
00000000
,
00003001
00000010
00000001
00000000
00001000
00000000
00001000
00000000
,
00000001
00000100
00000001
00000000
00002000
00000000
00003200
00000000
,
00010300
00001000
00010000
00000000
00001000
00000000
00001000
00000000
,
00010000
00000100
00010000
00002000
00000000
00000000
01003000
00000000
,
00010000
00000000
10000000
01000000
00000000
00000000
00100000
00000000
,
00010000
00000000
10000000
00100000
00000000
00000000
01000000
00000000
,
00001000
00011000
00010000
00011000
,
00001000
00000000
00000100
00000100
00000010
00000000
00002001
00000000
,
00003002
00000000
00000000
00000000
,
00000003
00000000
00000000
00000000
,
00100000
00010000
10010000
20000000
01000000
00000000
30010000
00000000
,
02000000
00000000
00000000
03010000
00200000
00000000
00000000
00000000
00302000
00000000
00000000
00000000
00013000
00000010
00000010
00000000
,
00000220
00000000
00000330
00000000
;

//---------------dance-double - t7r-DDP----------------
#NOTEDATA:;
#CHARTNAME:t7r-DDP;
#STEPSTYPE:dance-double;
#DESCRIPTION:t7r-DDP;
#DIFFICULTY:Medium;
#METER:13;
#CREDIT:t7r;
#NOTES:
00000000
00000000
00000000
00000000
,
00000000
00000000
00000000
00000000
,
00000000
00000000
00000000
00000000
,
00000000
00000000
00000000
00000000
,
00000000
00000000
00000000
00000000
,
00000000
00000000
00000000
00000000
,
00000000
00000000
00000000
00000000
,
00000000
00000000
00000000
00000000
,
00100000
00000000
00010000
01000000
00000000
00010000
00010000
10000000
,
01000000
00000000
00100000
00001000
00000000
00010000
00010000
00001000
,
00010000
00000000
00000010
00001000
00000000
00000001
00000001
00001000
,
00000001
00000000
00000000
00000100
00000010
00000000
00001000
00000000
00000100
00000000
00010000
00000000
00010000
00000000
00001000
00000000
,
00010000
02000000
00000000
00000000
13000000
00010000
00010000
10000000
,
00100000
00000000
00000000
01000000
00010000
00000000
10000000
00000000
01000000
00000000
00100000
00000000
00100000
00000000
00001000
00000000
,
00010000
00000000
00000010
00002000
00000000
00003100
00000100
00001000
,
00000001
00000000
00000000
00000000
00000000
00000000
00000100
00000000
00000000
00000010
00000000
00000000
00000000
00000000
00000000
00001000
00000000
00000000
00000000
00000000
00000000
00000000
00000000
00000000
00000100
00000000
00000000
00000000
00010000
00000000
00000000
00000000
00000100
00000000
00000000
00000000
00010000
00000000
00000000
00000000
00000000
00000000
00001000
00000000
00000000
00000000
00000000
00000000
,
00011000
00000000
00000000
00010000
01000000
00000000
20000000
00000000
00000000
00000000
30010000
10000000
00010000
00000000
10000000
00000000
,
00100000
00000000
00000000
01000000
00010000
00000000
10000000
00000000
00100000
00000000
01000000
00010000
01000000
00000000
00010000
00000000
,
10000000
00000000
00000000
01000000
00010000
00000000
00001000
00000000
00010000
00000000
00000100
00001000
00000100
00000000
00001000
00000000
,
00000010
00000000
00000100
00000001
00000000
00001000
00000100
00000000
00001000
00000000
00000001
00000100
00000001
00000000
00001000
00000000
,
00000001
00000100
00000001
00000100
00000010
00001000
00001000
00000100
,
00010000
00001000
00010000
00001000
01000000
00010000
00010000
10000000
,
00200000
00000000
00000000
00320000
00000000
00000000
00032000
00000000
,
00003010
00000100
00001000
00000010
00000000
00000000
00000110
00000000
00000000
00002001
00000000
00000000
,
00003001
00000000
00000000
00000000
00000100
00000000
00000100
00000000
00000010
00000000
00001000
00000000
00001000
00000000
00000000
00000000
00000000
00000000
00000000
00000000
00000001
00000000
00000010
00000000
00000010
00000000
00001000
00000000
00001000
00010000
00000000
00000000
,
00011000
00000000
00010000
00100000
00100000
01000000
01000000
00000000
00000000
00010000
10000000
10000000
01000000
00100000
00100000
00010000
,
20000000
00000000
00000000
00000000
30100000
00000000
01000000
00000000
00001000
00000000
00010000
00000000
00020000
00000000
00000000
00000000
00030000
00000000
00000000
00000000
00001000
00000000
00000010
00000000
00000010
00000000
00000100
00000000
00000100
00000000
00001000
00000002
,
00000000
00000000
00000000
00000000
00000103
00000000
00000010
00000000
00000010
00000000
00001000
00000001
00000000
00000000
00001000
00000000
00000000
00000000
00000001
00000000
00000001
00000000
00000001
00000000
00000100
00000000
00001000
00010000
00001000
00000000
00010000
00000000
,
01000000
00011000
00000100
00011000
,
01000000
00000000
00000000
00000000
10010000
00000000
00000000
00000000
10000000
00000000
00000000
00000000
01100000
00000000
00000000
00000000
20000000
00000000
00000000
00000000
31000000
00000000
01000000
00000000
00010000
00000000
00001000
00010000
00000000
00001000
00010000
00000000
,
00001000
00000000
00000100
00000010
00000000
00000100
00000010
00000000
00000100
00000000
00000001
00001000
00000002
00000000
00000000
00000000
00002003
00000000
00000000
00000000
00003100
00000000
00000100
00000000
00010000
00000000
00010000
00000000
00001000
00010000
00001000
00000000
,
00010000
00000000
00010000
00000000
01000000
00000000
01000000
00000000
10000000
00000000
00010000
10000000
00020000
00000000
00000000
00000000
00100000
00000000
00000000
00000000
20030000
00000000
00000000
00000000
30100000
00000000
00010000
00000000
00001000
00000000
00000000
00000000
,
00100000
00000000
00001000
00010000
00001000
00000000
00010000
00001000
00010000
00000000
00000000
00000000
00011000
00000000
00000000
00000000
00000020
00000000
00000000
00000000
00000000
00000000
00000000
00000000
00000000
00000000
00000000
00000000
00000000
00000000
00000000
00000000
,
00000000
00000000
00000230
00000000
,
00000000
00000301
00002000
00000000
,
00000000
00000000
00003200
00000000
,
00000000
00000000
00010300
00000000
00002000
00000000
00000000
00010000
,
00010000
00000000
00013000
00000000
02000000
00100000
00100000
00000000
,
13000000
00000000
10000000
00000000
10000000
00000000
00000000
00000000
00100000
00000000
00000000
01000000
00010000
00000000
10000000
00000000
,
00000000
01000000
00010000
00000000
00001000
00000000
00020000
00000000
00031000
00000000
00000200
00000000
00000310
00000000
00002000
00000000
,
00003100
00000000
00000000
00000000
00001001
00000000
00000000
00000000
00000002
00000000
00000000
00000000
00000003
00000000
00001000
00000100
,
00000100
00010000
00010000
00001000
01000000
00010000
00010000
00000000
10010000
00000000
10000000
01000000
00100000
01000000
02000000
00000000
,
23000000
00000000
00000000
00000000
00000000
00000000
00000000
00000000
00000000
00000000
00000000
00000000
00000000
00000000
00000000
00000000
00000000
00000000
00000000
00000000
00000000
00000000
00000000
00000000
30100000
00000000
00000000
00000000
00000000
00000000
00010000
00000000
00000000
00000000
00000000
00000000
00000000
00000000
00000000
00001000
00000000
00000000
00010000
00000000
00000000
00000000
00000000
00000000
00002000
00000000
00000000
00000000
00000000
00000000
00000000
00000000
00000000
00000000
00000000
00000000
00000000
00000000
00000000
00000000
00000000
00000000
00003010
00000000
00000000
00000000
00000000
00000000
00000100
00000000
00000000
00000000
00000000
00000000
00001000
00000000
00000000
00000000
00000000
00000000
00000010
00000000
00000000
00000000
00000000
00000000
00000000
00000000
00000010
00000000
00000000
00000000
,
00000100
00000000
00000000
00000000
00000001
00000000
00000010
00000000
00000000
00000000
00000010
00000000
00000100
00000000
00000000
00000000
00000100
00000000
00010000
00000000
00000000
00000000
00010000
00000000
00001000
00000000
00000000
00000000
00000000
00000000
01000000
00000000
00000000
00010000
00000000
00000000
10000000
00000000
00000000
01000000
00000000
00000000
02000000
00000000
00000000
00000000
00000000
00000000
,
00000000
00000000
03200000
00000000
00000000
00000000
00000000
00000000
00301000
00000000
00010000
00001000
00010000
00000000
00010000
00000000
00000200
00000000
00000000
00000000
00001300
00000000
00000010
00000000
00000100
00000000
00000010
00000000
00000020
00000000
00000000
00000000
,
00002030
00000000
00003002
00000000
00000013
00001000
00001000
00000000
00011000
00000000
00010000
00100000
10000000
01000000
02000000
00000000
,
00010000
00000000
00000000
00000000
00000000
00000000
00000000
00000000
00000000
00000000
00000000
00000000
03100000
00000000
00000000
00000000
00000000
00000000
00000000
00000000
00000000
00000000
00000000
00000000
00010000
00000000
00000000
00000000
00000000
00000000
01000000
00000000
00000000
00000000
00000000
00000000
00000000
00000000
00000000
00001000
00000000
00000000
00010000
00000000
00000000
00000000
00000000
00000000
00002000
00000000
00000000
00000000
00000000
00000000
00000000
00000000
00000000
00000000
00000000
00000000
00003010
00000000
00000000
00000000
00000000
00000000
00000001
00000000
00000000
00000000
00000000
00000000
00000100
00000000
00000000
00000000
00000000
00000000
00000000
00000000
00000000
00000000
00000000
00000000
00000001
00000000
00000000
00000000
00000000
00000000
00000000
00000000
00000001
00000000
00000000
00000000
,
00000010
00000000
00000000
00000000
00000010
00000000
00000100
00000000
00000000
00000000
00000100
00000000
00010000
00000000
00000000
00000000
00010000
00000000
00001000
00000000
00000000
00000000
00001000
00000000
00010000
00000000
00000000
00000000
00000000
00000000
00100000
00000000
00000000
10000000
00000000
00000000
01000000
00000000
00000000
00100000
00000000
00000000
00200000
00000000
00000000
00000000
00000000
00000000
,
00000000
00000000
00302000
00000000
00000000
00000000
00000000
00000000
00013000
00000000
00000010
00001000
00000001
00000000
00000001
00000000
00001002
00000000
00000000
00000000
00000000
00000000
00000000
00000000
00000000
00000000
00000000
00000000
00000013
00000000
00000000
00000000
,
00000002
00000000
00000103
00000020
00000000
00001030
00000100
00010000
,
00001000
01000000
00010000
10000000
01000000
00100000
00010000
10000000
,
00100000
00010000
00001000
00010000
00001000
00000010
00000100
00000010
,
00000001
00000000
00000100
00000000
00000001
00000000
00001000
00000200
00000000
00000000
00001300
00000000
00000010
00000000
00000100
00000000
,
00000001
00000000
00001000
00000020
00000000
00000000
00001030
00000000
00000100
00000010
00000000
00000001
00001000
00000000
00000001
00000000
,
00000200
00000000
00000000
00000320
00000000
00000000
00001030
00000000
00000001
00000000
00000010
00000000
00001000
00000000
00010000
00000000
,
00100000
10000000
01000000
10000000
00100000
01000000
00010000
10000000
,
02000000
00000000
00000000
00000000
03100000
00000000
00001000
00010000
00001000
00000000
00000000
00000000
00011000
00000000
00000000
00000000
,
00001000
00000000
00001000
00000000
00000010
00000000
00000100
00000010
00000000
00000000
00000001
00000000
00000100
00000000
00001000
00000000
,
00010000
00000000
00010000
00000000
00100000
00000000
01000000
00100000
00000000
00000000
10000000
00000000
00020000
00000000
00000000
00000000
,
10030000
00100000
01000000
00100000
10000000
01000000
00010000
00001000
,
00010000
00010000
00010000
00002000
00000000
00003100
00000001
00001000
,
00000001
00000010
00000100
00000100
00001000
00000001
00000100
00001000
,
00010000
00000000
00010000
00000000
00001000
00000000
00000000
00010000
00001000
00000000
00010000
00000000
01000000
00000000
10000000
00000000
,
01000000
01000000
00010000
00010000
00001000
00001000
00000100
00000100
,
00000001
00000000
00000001
00000000
00001000
00000000
00001000
00000000
00000100
00010000
00000100
00010000
00002000
00000000
00000000
00000000
,
00023000
00000000
00000000
00031000
,
00010000
00000000
00000000
01000000
00100000
00010000
00010000
00000000
02000000
00000000
00000000
00000000
03100000
01000000
01000000
00000000
,
00010000
00000000
00000000
00000000
00000000
00000000
10000000
00000000
01000000
00000000
10000000
00000000
00010000
00000000
00000000
10000000
00000000
00000000
10000000
00000000
00000000
00000000
00000000
00000000
00200000
00000000
00000000
00000000
00000000
00000000
00000000
00000000
00000000
00000000
00000000
00000000
00310000
00000000
00000000
00001000
00000000
00000000
00001000
00000000
00000000
00000000
00000000
00000000
,
00021000
00000000
00000000
00031000
00000010
00000100
00000200
00000000
00020300
00000000
00000010
00000000
00032000
00100000
00103000
00000000
,
00022000
00000000
00033000
00000000
;

//---------------dance-double - Kekkle-EDP----------------
#NOTEDATA:;
#CHARTNAME:Kekkle-EDP;
#STEPSTYPE:dance-double;
#DESCRIPTION:Kekkle-EDP;
#DIFFICULTY:Hard;
#METER:17;
#CREDIT:Kekkle;
#NOTES:
00000000
00000000
00000000
00000000
,
00000000
00000000
00000000
00000000
,
00000000
00000000
00000000
00000000
,
00000000
00000000
00000000
00000000
,
00000000
00000000
00000000
00000000
,
00000000
00000000
00000000
00000000
,
00000000
00000000
00000000
00000000
,
00000000
00000000
00000000
00000000
,
10010000
00000000
00010000
01000000
00100000
00010000
00001000
00000100
,
00000000
00000000
00000010
00000000
00001000
00000000
00000001
00000000
00000010
00000000
00000100
00001000
00000001
00001000
00000001
00001000
,
00000001
00001000
00000001
00001000
00000001
00001000
00000001
00001000
00000010
00000000
00001000
00000010
00010000
00000000
00001000
00100000
,
00010000
00000000
00100000
01000000
10000000
00000000
00010000
01000000
00100000
00000000
10000000
00100000
01000000
00000000
00000000
00000000
,
00010000
00000000
10000000
00010000
01000000
00100000
00010000
00001000
,
00000000
00000000
00010000
00000000
00000010
00000000
00001000
00000000
00000100
00000000
00000010
00000001
00001000
00000000
00000001
00001000
,
00000010
00000000
00001000
00000010
00010000
00001000
00010000
00001000
00010000
00001000
00010000
00001000
00010000
00001000
00010000
00001000
,
00100000
00000000
00000000
00000000
00000000
00000000
00010000
00000000
00000000
10000000
00000000
00000000
00100000
00000000
00000000
00000000
00000000
00000000
10000000
00000000
00000000
00100000
00000000
00000000
01000000
00000000
00000000
00000000
00001000
00000000
00000000
00000000
00010000
00000000
00000000
00000000
00000100
00000000
00000000
00000000
00000000
00000000
00010000
00000000
00000000
00000000
00000000
00000000
,
00011000
00000000
00001000
00000010
00000001
00001000
00000010
00000100
,
00000000
00000000
00001000
00000000
00010000
00000000
00000010
00000000
00010000
00000000
00001000
00100000
00010000
00000000
00100000
00010000
,
10000000
00000000
00100000
10000000
00010000
00000000
01000000
00001000
00010000
00000000
00001000
00010000
00000100
00001000
00000100
00001000
,
00000100
00001000
00000100
00001000
00000001
00000000
00000100
00000010
00001000
00000000
00000010
00010000
00001000
00000000
00010000
00001000
,
00100000
01000000
00100000
01000000
10000000
00010000
10000000
00010000
,
01000000
00100000
01000000
00100000
00010000
00001000
00010000
00001000
,
00100000
00000000
00000000
00001000
00000000
00000000
00100000
00000000
00000000
00001000
00000000
00000000
00010000
00000000
00000000
00000100
00000000
00000000
00001000
00000000
00000000
00000000
00000000
00000000
00000100
00000000
00000000
00000010
00000000
00000000
00000001
00000000
00000000
00001000
00000000
00000000
00000010
00000000
00000000
00000000
00000000
00000000
00000100
00000000
00000010
00000000
00000100
00000000
,
00000010
00000000
00000000
00001000
00000010
00001000
00000010
00000000
00000000
00010000
00001000
00010000
00001000
00000000
00000000
00100000
00010000
00100000
00020000
00000000
00000000
00000000
00000000
00000000
,
10030000
00000000
00000000
00000000
00010000
01000000
00100000
00000000
01000000
00001000
00010000
00000000
00001000
00010000
00001000
00000000
00000000
00000000
00000000
00000000
00010000
00000100
00001000
00000000
00000100
00000010
00000001
00000000
00001000
00000001
00000000
00000001
,
00001000
00000000
00000000
00000000
00000001
00000100
00000010
00000000
00000100
00000010
00001000
00000000
00000010
00010000
00001000
00010000
00000000
00000000
00001000
00100000
00010000
00100000
01000000
00100000
01000000
10000000
00010000
01000000
00100000
01000000
00100000
00000000
,
10010000
00000000
00000000
00000000
10000000
01000000
00100000
00000000
01000000
00100000
00010000
00000000
00200000
00000000
00000000
00000000
00300000
00000000
00000000
00000000
00001000
00010000
00000010
00000000
00001000
00000010
00000100
00000000
00000001
00001000
00000000
00001000
,
00000001
00000000
00000000
00000000
00000010
00000100
00001000
00000000
00000001
00000100
00000010
00000100
00000000
00000000
00001000
00000000
00000000
00000000
00010000
00001000
00100000
00000000
00001000
00010000
00000010
00000000
00010000
00001000
00100000
00001000
00010000
00000000
,
00002000
01003000
00010000
01000000
00002000
01003000
00010000
01000000
00002000
01003000
00010000
01000000
00002000
01003000
00010000
01000000
,
00002000
01000000
00103000
10000000
00010000
00000000
00000000
00000000
10000000
01000000
00100000
00000000
00100000
00000000
00000000
00000000
00011000
00000000
00000000
00000000
00010000
00000000
00000100
00000000
00000010
00000000
00000001
00001000
00000000
00001000
00000001
00000000
,
00000100
00000000
00000010
00000100
00000000
00000100
00001000
00000000
00010000
00000000
00001000
00100000
00010000
00000000
00000000
00000000
10010000
00000000
00000000
00000000
10000000
00100000
10000000
00100000
01000000
00001000
01000000
00001000
00010000
00001000
01000000
00000000
,
00001000
00010000
00001000
00010000
00000100
00000010
00000001
00000000
00001000
00000001
00000010
00000001
00001000
00000000
00000000
00000000
00000001
00000000
00000000
00000000
00000100
00000000
00000000
00000000
00000010
00000000
00000100
00001000
00010000
00000000
00000000
00000000
,
00001000
00000000
00000000
00100000
00010000
00100000
00010000
00000000
00000000
10000000
00100000
10000000
00100000
00000000
00000000
01000000
00010000
01000000
00010000
00000000
00000000
00000000
00000000
00000000
20000000
00000000
00000000
00000000
00000000
00000000
00000000
00000000
00000000
00000000
00000000
00000000
00000000
00000000
00000000
00000000
00000000
00000000
00000000
00000000
00000000
00000000
00000000
00000000
,
00000000
00000000
32000000
00000000
,
00000000
03000000
00020000
00000000
,
00000000
00000000
00032000
00000000
,
00000000
00000000
00003000
00000000
00000010
00000000
00000000
00000001
,
00000010
00000000
00000010
00000000
00000000
00000001
00000010
00000000
,
00000010
00000000
00000001
00000000
00001000
00000010
00000100
00001000
00010000
00000000
00000000
00001000
00010000
00000000
00010000
00000000
,
00000000
00000000
00000000
00001000
00000000
00000000
00010000
00000000
00000000
00000000
00000000
00000000
00010000
00000000
00000000
00000000
00000000
00000000
00001000
00000000
01000000
00000000
00001000
00000000
01000000
00000000
00000000
00000000
00000000
00000000
00100000
00000000
10000000
00000000
00100000
00000000
10000000
00000000
00000000
00000000
00000000
00000000
00010000
00000000
00100000
00000000
00010000
00000000
,
00100000
00000000
00000000
00000000
00000000
00000000
00000000
00000000
00000000
00000000
00000000
00000000
00001000
00000000
00000000
00000000
00010000
00000000
00000000
00000000
00001000
00000000
00000000
00000000
00010000
00000000
00000000
00000000
00000000
00000000
00000000
00000000
00000000
00000000
00000000
00000000
00000000
00000000
00000000
00000000
00000000
00000000
00000000
00000000
00000000
00000000
00000000
00000000
00002000
00000000
00000000
00000000
00000000
00000000
00000000
00000000
00000000
00000000
00000000
00000000
00000000
00000000
00000000
00000000
00000000
00000000
00000000
00000000
00000000
00000000
00000000
00000000
00003000
00000000
00000000
00000000
00000000
00000000
00000000
00000000
00000000
00000000
00000000
00000000
00010000
00000000
00000000
00001000
00000000
00000000
00010000
00000000
00000000
00000100
00000000
00000000
,
00001000
00000100
00001000
00000001
00000100
00000010
00000100
00000010
00001000
00000000
00000001
00000000
00000010
00000000
00000000
00000000
00002000
00000000
00000000
00000000
00010000
00000000
00010000
00000000
00103000
00000000
00000000
00000000
00012000
00000000
00000000
00000000
,
00000000
00000000
00000000
00000000
00000000
00000000
00000000
00000000
00000000
00000000
00000000
00000000
01003000
00000000
00000000
00010000
00000000
00000000
01000000
00000000
00000000
00010000
00000000
00000000
10000000
00000000
00000000
01000000
00000000
00000000
10000000
00000000
00000000
01000000
00000000
00000000
00100000
00000000
00000000
00001000
00000000
00000000
00010000
00000000
00000000
00000000
00000000
00000000
00012000
00000000
00000000
00000000
00000000
00000000
00000000
00000000
00000000
00000000
00000000
00000000
00000000
00000000
00000000
00000000
00000000
00000000
00000000
00000000
00000000
00000000
00000000
00000000
00103000
00000000
00000000
00000000
00000000
00000000
00000000
00000000
00000000
00000000
00000000
00000000
00001000
00000000
00000000
00000000
00000000
00000000
00000000
00000000
00001000
00000000
00000000
00000000
,
00010000
00000000
00000000
00000000
00010000
00000000
00100000
00000000
00000000
00000000
00100000
00000000
10000000
00000000
00000000
00000000
10000000
00000000
01000000
00000000
00000000
00000000
01000000
00000000
00020000
00000000
00000000
00000000
00000000
00000000
00001000
00000000
00000000
00001000
00000000
00000000
00030010
00000000
00000000
00000000
00000000
00000000
00012000
00000000
00000000
00000000
00000000
00000000
,
00000000
00000000
00003200
00000000
00000000
00000000
00000000
00000000
00000020
00000000
00000000
00000000
00000330
00000000
00000000
00000000
00002002
00000000
00000000
00000000
00000000
00000000
00000000
00000000
00003003
00000000
00000000
00000000
00001000
00000100
00001000
00000001
,
00000100
00000010
00001000
00000010
00010000
00001000
00010000
00000010
00010000
00000000
00000100
00000000
00000010
00000000
00000000
00000000
00002000
00000000
00000000
00000000
00010000
00000000
00010000
00000000
00103000
00000000
00000000
00000000
00012000
00000000
00000000
00000000
,
00000000
00000000
00000000
00000000
00000000
00000000
00000000
00000000
00000000
00000000
00000000
00000000
01003000
00000000
00000000
00010000
00000000
00000000
10000000
00000000
00000000
00010000
00000000
00000000
00100000
00000000
00000000
01000000
00000000
00000000
00100000
00000000
00000000
00010000
00000000
00000000
00100000
00000000
00000000
00001000
00000000
00000000
00010000
00000000
00000000
00000000
00000000
00000000
00012000
00000000
00000000
00000000
00000000
00000000
00000000
00000000
00000000
00000000
00000000
00000000
00000000
00000000
00000000
00000000
00000000
00000000
00000000
00000000
00000000
00000000
00000000
00000000
01003000
00000000
00000000
00000000
00000000
00000000
00000000
00000000
00000000
00000000
00000000
00000000
00001000
00000000
00000000
00000000
00010000
00000000
00000000
00000000
00001000
00000000
00000000
00000000
,
01000000
00000000
00100000
00000000
01000000
00000000
00010000
00000000
10000000
00000000
01000000
00000000
00100000
00000000
00001000
00000000
00010000
00000000
00000100
00000000
00001000
00000000
00000100
00000000
00020000
00000000
00000000
00000000
00000000
00000000
00001000
00000000
00000000
00001000
00000000
00000000
00030100
00000000
00000000
00000000
00000000
00000000
00012000
00000000
00000000
00000000
00000000
00000000
,
00000000
00003020
00000000
00000000
00000200
00000000
00000330
00000000
00002002
00000000
00000000
00000000
00000000
00000000
00003003
00000000
,
00002000
00000000
00000000
00000000
00003010
00000000
00000200
00000000
00000000
00000000
00001300
00010000
00001000
00000000
00100000
00010000
,
10000000
00000000
00010000
00000000
01000000
00100000
10000000
00010000
00100000
00000000
01000000
00000000
00010000
00000000
00010000
00000000
,
01000000
00000000
00010000
00000000
00001000
00000000
00010000
00000000
00000100
00000010
00000001
00001000
00000001
00000100
00000010
00001000
,
00000001
00000000
00000010
00000100
00001000
00000000
00000100
00010000
00001000
00100000
00001000
00000000
00100000
00010000
10000000
00000000
,
00010000
00000000
01000000
00100000
00000000
00100000
00010000
00000000
00001000
00000100
00000000
00000100
00000010
00000000
00001000
00000000
,
00000002
00000000
00000000
00000023
00000000
00000000
00001030
00000000
00010000
00000000
00000100
00000000
00000010
00000000
00000001
00000000
,
00001000
00000010
00010000
00001000
00100000
00010000
10000000
00100000
01000000
00000000
00010000
00000000
10000000
01000000
00100000
00000000
,
00020000
00000000
00000000
00000000
10030000
00100000
00010000
00001000
00020000
00000000
00000000
00000000
00032000
00000000
00000000
00000000
,
00003010
00000000
00000001
00000000
00001000
00000000
00000010
00000100
00000000
00001000
00010000
00000000
00001000
00000100
00000000
00001000
,
00010000
00001000
00100000
01000000
10000000
00000000
00010000
01000000
00000000
10000000
01000000
00000000
00100000
10000000
00000000
00000000
,
00010000
00100000
01000000
00100000
00001000
00000000
00010000
00001000
00000000
00000100
00000010
00000000
00001000
00000001
00000000
00000000
,
00000010
00001000
00010000
00000010
00001000
00000000
00000010
00000100
00000000
00001000
00010000
00100000
01000000
00010000
10000000
00000000
,
00010000
00000000
10000000
01000000
00100000
00000000
01000000
00010000
00001000
00000000
00010000
00001000
00010000
00000000
00000200
00000000
,
00001300
00000000
00000001
00000100
00000010
00000000
00000100
00001000
00010000
00000000
00001000
00010000
00001000
00000000
00200000
00000000
,
00310000
10000000
00010000
10000000
00100000
01000000
00100000
01000000
,
00010000
10000000
01000000
00100000
00001000
00010000
00000010
00000100
00000001
00001000
00000100
00000010
00000002
00000000
00000000
00000000
,
00001003
00000000
00000000
00000010
00000100
00001000
00020000
00000000
00100000
00000000
00000000
00000000
00030010
00000000
00000000
00000000
,
00011000
00000000
00000000
00010000
01000000
10000000
00020000
00000000
01000000
00000000
00000000
00000000
10030000
00000000
00000000
00000000
,
00020000
00000000
00000000
00000000
00000000
00000000
00130000
00000000
01000000
00000000
00100000
00000000
00001000
00000000
00000000
00010000
00000000
00000000
00002000
00000000
00000000
00000000
00000000
00000000
00000100
00000000
00000000
00000000
00000000
00000000
00000000
00000000
00000000
00000000
00000000
00000000
01003000
00000000
00000000
00000000
00000000
00000000
00000000
00000000
00000000
00000000
00000000
00000000
,
00011000
00000000
00000000
00001000
00000010
00000001
00002000
00000000
00000010
00000000
00000000
00000000
00003001
00000000
00000000
00000000
,
00002002
00000000
00003003
00000000
;
