#TITLE:キミとワタシのオンガク;
#ARTIST:seiya-murai feat. ALT;
#TITLETRANSLIT:Kimi to watashi no ongaku;
#BANNER:Kimi to watashi no ongaku.png;
#BACKGROUND:Kimi to watashi no ongaku-bg.png;
#MUSIC:Kimi to watashi no ongaku.ogg;
#OFFSET:1.026;
#SAMPLESTART:72.1;
#SAMPLELENGTH:15;
#BPMS:0=160;
#BGCHANGES:1.75=Kimi to watashi no ongaku.avi=1=0=0=0=StretchNoLoop====,99999=-nosongbg-=1=0=0=0 // don't automatically add -songbackground-;

//---------------dance-single - NewbStepper-bSP----------------
#NOTES:
     dance-single:
     NewbStepper:
     Beginner:
     2:
     0.084721,0.234711,0.045619,0.136858,0,65,60,5,15,0,0,0.084721,0.234711,0.045619,0.136858,0,65,60,5,15,0,0:
0000
0000
0000
0000
,
0000
0000
0000
0000
,
0000
0000
0000
0000
,
0000
0000
0000
0000
,
0000
0000
0000
0000
,
0000
0000
0000
0000
,
0000
0000
0000
0000
,
0000
0000
0000
0000
,
0000
0000
0000
0000
,
1000
0000
0000
0000
,
1000
0000
0000
0000
,
1000
0000
0000
0000
,
1000
0000
0000
0000
,
0001
0000
0000
0000
,
0001
0000
0000
0000
,
0001
0000
0000
0000
,
0001
0000
0000
0000
,
0200
0000
0000
0000
,
0000
0000
0300
0000
,
0001
0000
0000
0000
,
0001
0000
0000
0000
,
0200
0000
0000
0000
,
0000
0000
0300
0000
,
1000
0000
0000
0000
,
1000
0000
0000
0000
,
1001
0000
0000
0000
,
1001
0000
0000
0000
,
0001
0000
1000
0000
,
0001
0001
0001
0000
,
1001
0000
0000
0000
,
1001
0000
0000
0000
,
1000
0000
0001
0000
,
2000
0000
3000
0000
,
0001
0000
0001
0000
,
1000
0000
1000
0000
,
0200
0000
0000
0000
,
0000
0000
0300
0000
,
1000
0000
1000
0000
,
0001
0000
0001
0000
,
0200
0000
0000
0000
,
0000
0000
0300
0000
,
0020
0000
0000
0000
,
0000
0000
0030
0000
,
0020
0000
0000
0000
,
0000
0000
0030
0000
,
0002
0000
0000
0000
,
0000
0000
0003
0000
,
1001
0000
0000
0000
,
0000
0000
0000
0000
,
0002
0000
0000
0000
,
0000
0000
0003
0000
,
2000
0000
0000
0000
,
0000
0000
3000
0000
,
0020
0000
0000
0000
,
0000
0000
0030
0000
,
1000
0000
0000
0001
,
0001
0000
0000
0000
,
2000
0000
0000
0000
,
0000
0000
3000
0000
,
0002
0000
0000
0000
,
0000
0000
0003
0000
,
0020
0000
0000
0000
,
0000
0000
0030
0000
,
0001
0000
0000
1000
,
1000
0000
0000
0000
,
0001
0000
0000
0000
,
0001
0000
0000
0000
,
0001
0000
0000
0000
,
0001
0000
0000
0000
,
1000
0000
0000
0000
,
1000
0000
0000
0000
,
1000
0000
0000
0000
,
2000
0000
0000
0000
,
0000
0000
3000
0000
;

//---------------dance-single - NewbStepper-BSP----------------
#NOTES:
     dance-single:
     NewbStepper:
     Easy:
     7:
     0.301087,0.435891,0.465316,0.310210,0,231,180,51,34,0,0,0.301087,0.435891,0.465316,0.310210,0,231,180,51,34,0,0:
0000
0000
0000
0000
,
0000
0000
0000
0000
,
0000
0000
0000
0000
,
0000
0000
0000
0000
,
0000
0000
0000
0000
,
0000
0000
0000
0000
,
0000
0000
0000
0000
,
0000
0000
0000
0000
,
0000
0000
0000
0000
,
0001
0100
0101
0000
,
1000
0100
1100
0000
,
0001
0010
0110
0000
,
1000
0010
0110
0000
,
1001
0100
1001
0000
,
0110
0001
0110
0000
,
1001
0010
1001
0000
,
0110
1000
0110
0000
,
0001
0101
0010
1000
,
0100
1100
0010
0001
,
0100
1000
0100
0001
,
0010
0010
0000
0001
,
1000
1100
0010
0001
,
0100
0101
0020
1030
,
0100
0001
0100
1000
,
0010
0010
0010
0000
,
1100
1000
1010
0010
,
0110
0100
0101
0000
,
0001
0010
1000
0001
,
0100
0010
0110
0000
,
0101
0001
0011
0010
,
0110
0100
1100
0000
,
1000
0010
0001
1000
,
0200
0000
0300
0000
,
0001
0001
0100
0001
,
0010
1000
0100
0001
,
0020
0000
0000
0000
,
0200
0000
0000
0330
,
1000
0100
0001
0010
,
1000
0100
0010
0001
,
0200
0000
0000
0000
,
0320
0000
0000
0000
,
2030
0000
0000
0000
,
3002
0000
0000
0000
,
0203
0000
0000
0000
,
0300
0000
0010
0100
,
0020
0000
0000
0000
,
2030
0000
3002
0000
,
1003
0000
0001
0001
0000
0100
0000
0010
,
0000
1000
0001
1000
0000
0000
0000
0000
,
0011
0001
0101
0100
,
0220
0330
0001
1000
,
2002
3003
0220
0330
,
1000
0100
0010
0001
,
0202
0000
0303
0000
,
2020
0000
3030
0000
,
1000
0000
0000
0001
0000
0000
1000
0000
,
0000
0100
1000
0010
,
1010
1000
1100
0100
,
0220
0330
1000
0001
,
2002
0000
0000
3003
,
0220
0330
0010
1000
,
2200
0000
3300
0000
,
0022
0000
0033
0000
,
0001
0000
0000
1000
0000
0000
0001
0000
,
0000
0100
0001
0010
,
0001
0100
0101
0000
,
1000
0100
1100
0000
,
0001
0010
0110
0000
,
1000
0010
0110
0000
,
1001
0100
1001
0000
,
0110
0001
0110
0000
,
1001
0010
1001
0000
,
0110
1000
0220
0000
,
0000
0000
0330
0000
;

//---------------dance-single - NewbStepper-DSP----------------
#NOTES:
     dance-single:
     NewbStepper:
     Medium:
     10:
     0.437944,0.502952,0.209848,0.456192,0.050181,336,313,23,50,0,0,0.437944,0.502952,0.209848,0.456192,0.050181,336,313,23,50,0,0:
0000
0000
0000
0000
,
0000
0000
0000
0000
,
0000
0000
0000
0000
,
0000
0000
0000
0000
,
0000
0000
0000
0000
,
0000
0000
0000
0000
,
0000
0000
0000
0000
,
0000
0000
0000
0000
,
0000
0000
0000
0000
,
1000
0000
0000
1000
0000
0000
1000
0000
0001
0000
0100
0000
0020
0000
0000
0000
,
1030
0000
0000
0100
0000
0000
0010
0000
0001
0000
1000
0000
1000
0000
0000
0000
,
0001
0000
0000
0001
0000
0000
0001
0000
1000
0000
0100
0000
0020
0000
0000
0000
,
0031
0000
0000
0100
0000
0000
0010
0000
1000
0000
0001
0000
0001
0000
0000
0000
,
1000
0100
1000
0100
0010
0100
1000
0000
,
0001
0100
0001
0100
0010
0100
0001
0000
,
1000
0010
0100
0010
1000
0001
0010
0000
,
0001
0100
0010
1000
0100
0010
0002
0000
,
0103
0000
0110
0000
1000
0000
0001
0100
,
0000
0010
1000
0001
1000
0010
0100
0000
,
0000
0001
0001
1000
0010
0100
0000
1000
,
0100
0001
0100
0010
0000
0000
2000
0000
,
3100
0000
0110
0000
0001
0000
1000
0100
,
0000
0010
0001
1000
0001
0010
0100
0000
,
0000
1000
1000
0001
0010
0100
0000
1000
,
0100
0000
0000
0010
0000
0000
0100
0000
0110
0000
0000
0000
1001
0000
0000
0000
,
0020
0000
1030
0001
0020
0000
0031
2000
,
0000
3002
0000
0103
0010
0000
1000
0100
,
0010
0011
0100
1100
,
0010
0000
0000
0001
0000
0000
0010
0000
0100
0000
1000
0000
0001
0000
0000
0000
,
0020
0000
0031
1000
0020
0000
1030
0002
,
0000
2003
0000
3100
0010
0000
0001
0100
,
0010
1010
0100
0101
,
0010
0000
0000
0100
0000
0000
0010
0000
1000
0000
0001
0000
1000
0000
0000
0000
,
0002
0203
0320
2030
,
3200
0302
0203
2300
,
3020
1000
0001
1000
,
0230
0001
1000
0301
,
0010
0000
0001
0100
1000
0100
0001
0002
,
0000
2003
0000
3200
0000
0320
0000
0031
,
1000
0100
1000
0000
0001
0100
0001
0000
,
2000
0100
0001
3100
,
0020
0100
0100
0130
,
0002
1000
1000
1003
,
0200
0010
0010
0310
,
2000
0001
0001
3001
,
0021
0000
0100
0030
,
1020
0000
0100
0030
,
0110
0000
1000
0001
0000
0101
0000
1100
,
0000
0010
0100
0010
0000
0000
0000
0000
,
0001
0000
1000
0100
0000
0010
0000
2002
,
0000
0000
0000
3003
0010
0000
0100
0000
,
0020
0000
0000
1000
1030
0000
0000
0002
,
0000
1003
0100
1000
0010
0100
0001
0000
,
0022
0000
0000
0000
0033
0100
1000
0200
,
0000
0000
0000
0300
0010
0000
0001
0000
,
0101
0000
0000
1010
0000
0000
0110
0000
,
0000
1000
1000
0001
0010
0000
0100
0000
,
1000
0000
0001
0100
0000
0010
0000
2002
,
0000
0000
0000
3003
0010
0000
0100
0000
,
0020
0000
0000
0000
0030
0001
0100
0020
,
0000
0030
1000
0010
,
2020
0000
0000
0000
3030
0100
0001
0200
,
0000
0000
0000
0300
0010
0000
1000
0000
,
1100
0000
0000
0011
0000
0000
0110
0000
,
0000
0001
0001
1000
0010
0000
0100
0000
,
0001
0000
0000
0001
0000
0000
0001
0000
1000
0000
0100
0000
0020
0000
0000
0000
,
0031
0000
0000
0100
0000
0000
0010
0000
1000
0000
0001
0000
0001
0000
0000
0000
,
1000
0000
0000
1000
0000
0000
1000
0000
0001
0000
0100
0000
0020
0000
0000
0000
,
1030
0000
0000
0100
0000
0000
0010
0000
0001
0000
1000
0000
1000
0000
0000
0000
,
0001
0100
0001
0100
0010
0100
0001
0000
,
1000
0100
1000
0100
0010
0100
1000
0000
,
0001
0010
0100
0010
0001
1000
0010
0000
,
1000
0100
0010
0001
0100
0010
2000
0000
,
0000
0000
3000
0000
;

//---------------dance-single - NewbStepper-ESP----------------
#NOTES:
     dance-single:
     NewbStepper:
     Hard:
     14:
     0.739031,0.838253,0.693412,0.383201,0.415135,567,491,76,42,0,0,0.739031,0.838253,0.693412,0.383201,0.415135,567,491,76,42,0,0:
0000
0000
0000
0000
,
0000
0000
0000
0000
,
0000
0000
0000
0000
,
0000
0000
0000
0000
,
0000
0000
0000
0000
,
0000
0000
0000
0000
,
0000
0000
0000
0000
,
0000
0000
0000
0000
,
0000
0000
0000
0000
,
0011
0000
0010
0001
0000
0100
0010
0000
1000
0000
0010
0000
2020
0000
3030
0000
,
0110
0000
0100
0001
0000
0100
0010
0000
0100
0000
0001
0000
2000
0000
3000
0000
,
0101
0000
0100
0001
0000
1000
0001
0000
0010
0000
0100
0000
0220
0000
0330
0000
,
1001
0000
1000
0100
0000
0001
0100
0000
1000
0000
0010
0100
0002
0000
0003
0000
,
1010
0000
0010
1000
0000
0100
0010
0000
0001
0000
0010
0000
0022
0000
0033
0000
,
0110
0000
0100
1000
0000
0100
0010
0000
0100
0000
1000
0000
0002
0000
0003
0000
,
1100
0000
0100
1000
0000
0001
1000
0000
0010
0000
0100
0000
0220
0000
0330
0000
,
1001
0000
0001
0100
0000
1000
0100
0000
0001
0000
0010
0000
0001
0000
0010
0000
,
1000
0010
1000
0010
0001
0100
0010
0100
,
0000
0000
0001
0010
0100
0000
1000
0000
0010
0000
0100
0001
0100
0001
1000
0100
,
0010
0000
0100
0000
0100
0000
1000
0010
0000
0000
1010
0000
0000
0000
0100
0000
,
0001
0000
0010
0000
0100
0000
0110
0000
0000
0000
1000
0010
1000
0000
0010
0000
,
0001
0010
0001
0010
1000
0100
0010
0100
,
0000
0000
1000
0010
0100
0000
0001
0000
0010
0000
0100
1000
0100
1000
0001
0100
,
0010
0000
0100
0000
0100
0000
0001
0010
0000
0001
0100
0000
0000
0000
0110
0000
,
1010
0000
0000
0110
0000
0000
0101
0000
0110
0000
0000
0000
1001
0000
0000
0000
,
0012
0000
0000
0000
1003
0000
0010
0000
1020
0000
0000
0030
0100
0001
0100
0000
,
0010
0000
2010
0000
0000
0000
3001
0000
0100
0000
0010
1000
0010
1000
0100
0000
,
1000
0010
0001
0010
1000
0001
0100
0000
,
1010
0000
1000
0010
0000
1000
0100
0000
0010
0000
0001
0000
0101
0000
0000
0000
,
2010
0000
0000
0000
3001
0000
0010
0000
0021
0000
0000
0030
0100
1000
0100
0000
,
0010
0000
0012
0000
0000
0000
1003
0000
0100
0000
0010
0001
0010
0001
0100
0000
,
0001
0000
0010
0000
1000
0000
0010
0001
0000
0001
1000
0000
0000
0000
0110
0000
,
0011
0000
0000
0110
0000
0000
1100
0000
0110
0000
0001
0000
1001
0000
0000
0000
,
0020
1000
1030
0200
0010
0320
0000
1000
,
0000
0000
0001
0000
0000
0000
0130
0000
0000
0000
1000
0100
0010
0000
0001
0000
,
0100
1000
0001
0010
1000
0100
0010
0001
,
0100
0000
0010
0000
1000
0000
0100
0000
0001
0000
0100
0010
0100
0000
0000
0000
,
1100
0000
0011
0001
0100
0101
0001
2001
,
0000
0000
3200
0000
0000
0000
0320
0000
0000
0030
0001
0100
0010
0000
1000
0000
,
0100
0001
1000
0010
0001
0100
0010
1000
,
0100
0000
0010
0000
0001
0000
0100
0000
1000
0000
0100
0010
0100
0000
0000
0000
,
0001
0010
1000
0001
0100
1000
0010
0001
,
1000
0000
0100
0000
0001
0000
0010
0000
0100
0000
1000
0010
1000
0000
0001
0000
,
0010
1000
0010
0001
1000
0010
0001
0010
,
1000
0010
0100
0001
0101
0000
1010
0000
,
1000
0010
0001
1000
0100
0001
0010
1000
,
0001
0000
0100
0000
1000
0000
0010
0000
0100
0000
0001
0010
0001
0000
1000
0000
,
1010
0000
0100
0110
0000
1001
0000
1010
,
0000
0101
0110
0101
0000
0000
1000
0100
,
0020
0000
0031
0200
0000
0310
0000
2001
,
0000
0000
0010
3001
,
0011
0100
1000
0010
0001
0010
1000
0200
,
0000
0300
1000
0010
0100
0000
0001
0010
0100
0000
1000
0010
0100
0000
0001
0000
,
0010
0100
0010
0100
0010
0100
1000
0000
0001
0000
1000
0000
0010
0000
0100
0001
,
0100
0001
0100
0001
0010
0000
0000
0000
0001
0000
0000
0000
1000
0000
0000
0000
,
1010
1000
0100
0011
0001
0100
0110
1001
,
0000
1010
1000
0100
0011
0000
1001
0000
,
0020
0000
1030
0200
0000
0310
0000
1002
,
0000
0000
0010
1003
,
0001
0100
0001
0100
0001
0100
0001
0100
0010
0000
1000
0000
0100
0000
0010
0001
,
0010
0001
0010
0001
1000
0000
0000
0000
0001
0000
0000
0000
1000
0000
0000
0000
,
0010
0100
0010
0100
0010
0100
0001
0000
1000
0000
0001
0000
0010
0000
0100
1000
,
0100
1000
0100
1000
0010
0000
0000
0000
1000
0000
0000
0000
0001
0000
0000
0000
,
0011
0001
0100
1010
1000
0100
0110
1001
,
0000
0011
0001
0100
1010
0000
1001
0000
,
1010
0000
0010
1000
0000
0100
0010
0000
0001
0000
0010
0000
0022
0000
0033
0000
,
0110
0000
0100
1000
0000
0100
0010
0000
0100
0000
1000
0000
0002
0000
0003
0000
,
1100
0000
0100
1000
0000
0001
1000
0000
0010
0000
0100
0000
0220
0000
0330
0000
,
1001
0000
0001
0100
0000
1000
0100
0000
0001
0000
0010
0100
2000
0000
3000
0000
,
0011
0000
0010
0001
0000
0100
0010
0000
1000
0000
0010
0000
2020
0000
3030
0000
,
0110
0000
0100
0001
0000
0100
0010
0000
0100
0000
0001
0000
2000
0000
3000
0000
,
0101
0000
0100
0001
0000
1000
0001
0000
0010
0000
0100
0000
0220
0000
0330
0000
,
1001
0000
1000
0100
0000
0001
0100
0000
1000
0000
0010
0100
0002
0000
0000
0000
,
0000
0000
0003
0000
;

//---------------dance-double - NewbStepper-BDP----------------
#NOTES:
     dance-double:
     NewbStepper:
     Easy:
     7:
     0.301087,0.435891,0.355830,0.209848,0,231,192,39,23,0,0,0.301087,0.435891,0.355830,0.209848,0,231,192,39,23,0,0:
00000000
00000000
00000000
00000000
,
00000000
00000000
00000000
00000000
,
00000000
00000000
00000000
00000000
,
00000000
00000000
00000000
00000000
,
00000000
00000000
00000000
00000000
,
00000000
00000000
00000000
00000000
,
00000000
00000000
00000000
00000000
,
00000000
00000000
00000000
00000000
,
00000000
00000000
00000000
00000000
,
10000000
01000000
11000000
00000000
,
00010000
01000000
01010000
00000000
,
00100000
00001000
00011000
00000000
,
00000010
00010000
00011000
00000000
,
00000100
00000001
00000011
00000000
,
00000100
00001000
00001010
00000000
,
01000000
00010000
00110000
00000000
,
01000000
10000000
10100000
00000000
,
00010000
01010000
00100000
10000000
,
01000000
11000000
00100000
00010000
,
00001000
00000100
00000001
00000100
,
00001000
00001000
00000000
00000001
,
00001000
00001100
00000010
00000001
,
00000100
00000101
00000010
00001000
,
00010000
01000000
10000000
01000000
,
00010000
10000000
10010000
00000000
,
10100000
10000000
11000000
01000000
,
01010000
00010000
00011000
00000000
,
00001000
00000010
00000001
00000100
,
00000001
00000010
00001000
00000000
,
00000011
00000001
00000101
00000100
,
00001100
00001000
00011000
00000000
,
00010000
00100000
10000000
01000000
,
10000000
00100000
00010000
00000000
,
00001000
01000000
00001000
00000100
,
00010000
01000000
00010000
00000100
,
00001000
00100000
00001000
00000010
,
00000001
00000100
00001000
00000000
,
00010000
00000100
00010000
01000000
,
00001000
00000100
00001000
01000000
,
00010000
00000010
00010000
00100000
,
10000000
01000000
00010000
00001000
,
00000020
00000000
00000000
00000000
,
00002030
00000000
00000000
00000000
,
00023000
00000000
00000000
00000000
,
00030000
00000000
00100000
01000000
,
00200000
00000000
00000000
00000000
,
20300000
00000000
30020000
00000000
,
10030000
00000000
00000000
00010000
00000000
01000000
00000000
00100000
,
00000000
00010000
00001000
00010000
00000000
00000000
00000000
00000000
,
00001010
00001000
00001100
00000100
,
00000220
00000330
00000001
00001000
,
00020000
00000000
10030000
00000000
,
00010000
01000000
00100000
10000000
,
22000000
00000000
33000000
00000000
,
00220000
00000000
00330000
00000000
,
10000000
00000000
00000000
00010000
00000000
00000000
10000000
00000000
,
00000000
01000000
00100000
00010000
,
00110000
00010000
01010000
01000000
,
02200000
03300000
10000000
00010000
,
00002000
00000000
00000000
00000000
,
00003002
00000003
00000010
00000001
,
00000202
00000000
00000303
00000000
,
00002020
00000000
00003030
00000000
,
00000001
00000000
00000000
00001000
00000000
00000000
00000001
00000000
,
00000000
00000100
00000010
00001000
,
00000001
00000100
00000101
00000000
,
00001000
00000100
00001100
00000000
,
00000010
00010000
00011000
00000000
,
00100000
00001000
00011000
00000000
,
01000000
10000000
10100000
00000000
,
01000000
00010000
00110000
00000000
,
00000100
00001000
00001010
00000000
,
00000100
00000001
00000022
00000000
,
00000000
00000000
00000033
00000000
;

//---------------dance-double - NewbStepper-DDP----------------
#NOTES:
     dance-double:
     NewbStepper:
     Medium:
     11:
     0.428820,0.502952,0.164229,0.510935,0.054743,329,311,18,56,0,0,0.428820,0.502952,0.164229,0.510935,0.054743,329,311,18,56,0,0:
00000000
00000000
00000000
00000000
,
00000000
00000000
00000000
00000000
,
00000000
00000000
00000000
00000000
,
00000000
00000000
00000000
00000000
,
00000000
00000000
00000000
00000000
,
00000000
00000000
00000000
00000000
,
00000000
00000000
00000000
00000000
,
00000000
00000000
00000000
00000000
,
00000000
00000000
00000000
00000000
,
10000000
00000000
00000000
10000000
00000000
00000000
10000000
00000000
00010000
00000000
01000000
00000000
00200000
00000000
00000000
00000000
,
00310000
00000000
00000000
00001000
00000000
00000000
00001000
00000000
00000010
00000000
00000001
00000000
00001000
00000000
00000000
00000000
,
00000001
00000000
00000000
00000001
00000000
00000000
00000001
00000000
00001000
00000000
00000100
00000000
00000020
00000000
00000000
00000000
,
00001030
00000000
00000000
00010000
00000000
00000000
00010000
00000000
00100000
00000000
10000000
00000000
00010000
00000000
00000000
00000000
,
10000000
01000000
00010000
01000000
10000000
01000000
00010000
00000000
,
00001000
00100000
00001000
00010000
00000010
00001000
00000100
00000000
,
00010000
00000100
00000010
00001000
00000010
00000001
00000100
00000000
,
00001000
00100000
00001000
00010000
01000000
10000000
00020000
00000000
,
01030000
00000000
01100000
00000000
10000000
00000000
00010000
01000000
,
00000000
00100000
10000000
00100000
00010000
00001000
00000010
00000000
,
00000000
00000001
00000001
00000100
00001000
00010000
00000000
00100000
,
00010000
00001000
00100000
01000000
00000000
00000000
00002000
00000000
,
00003100
00000000
00000110
00000000
00000001
00000000
00001000
00000100
,
00000000
00000010
00000001
00000010
00001000
00010000
00100000
00000000
,
00000000
10000000
10000000
01000000
00010000
00001000
00000000
00000010
,
00001000
00000000
00000000
00010000
00000000
00000000
00001000
00000000
00000100
00000000
00000000
00000000
00001001
00000000
00000000
00000000
,
00000002
00000000
00000103
00000010
00000020
00000000
00001030
00000200
,
00000000
00020300
00000000
01030000
00200000
00000000
00310000
01000000
,
10000000
01000000
00100000
01000000
00001000
00010000
00000100
00000000
,
00000001
00000000
00000000
00000100
00000000
00000000
00001000
00000000
00000010
00000000
00001000
00000000
00010000
00000000
00000000
00000000
,
20000000
00000000
31000000
00100000
00200000
00000000
00310000
02000000
,
00000000
03002000
00000000
00003100
00000020
00000000
00001030
00000100
,
00000001
00000000
00000100
00000000
00000010
00000000
00000100
00000000
00010000
00000000
00000000
00010000
00000000
00000000
00001000
00000000
,
00010000
00000000
00000000
01000000
00000000
00000000
00100000
00000000
00020000
00000000
00000000
00000000
00030000
00000000
00000000
00000000
,
20000000
32000000
03200000
00320000
,
00032000
00003200
00000320
00000032
,
00002003
00000100
00000001
00000010
,
00023000
01000000
10000000
00100000
,
00031000
00000000
00000100
00000010
00000100
00001000
00000001
00000200
,
00000000
00002300
00000000
00023000
00000000
02030000
00000000
13000000
,
00020000
01000000
10000000
00100000
,
00032000
00000100
00000001
00000010
,
00023000
00100000
00100000
00130000
,
02000000
10000000
10000000
13000000
,
00200000
00010000
00010000
00310000
,
00002000
00010000
00010000
00013000
,
00102000
00000000
00000100
00003000
,
00020010
00000000
01000000
00030000
,
01100000
00000000
10000000
00010000
00000000
00001000
00000000
00000001
,
00000000
00000100
00000010
00000100
00000000
00000000
00000000
00000000
,
00000001
00000000
00001000
00000100
00000000
00000010
00000000
00002002
,
00000000
00000000
00000000
00003003
00000001
00000000
00000100
00000000
,
00002000
00000000
00000000
00010000
00013000
00000000
00000000
00002000
,
00000000
00103000
00010000
00100000
01000000
10000000
01000000
00000000
,
22000000
00000000
00000000
00000000
00000000
33000000
00000000
00220000
,
00000000
00330000
00010000
10000000
,
01010000
00000000
00000000
00101000
00000000
00000000
00011000
00000000
,
00000000
00001000
00010000
01000000
10000000
00000000
00100000
00000000
,
10000000
00000000
00010000
01000000
00000000
00100000
00000000
20020000
,
00000000
00000000
00000000
30030000
10000000
00000000
01000000
00000000
,
00020000
00000000
00000000
00000000
00030000
00001000
00000100
00000002
,
00000000
00000000
00000000
00000003
00000010
00000000
00000001
00000000
,
00000202
00000000
00000000
00000000
00000000
00000303
00000000
00002020
,
00000000
00003030
00001000
00000001
,
00001100
00000000
00000000
00010010
00000000
00000000
00011000
00000000
,
00000000
00010000
00001000
00000100
00000001
00000000
00000010
00000000
,
00000001
00000000
00000000
00000001
00000000
00000000
00000001
00000000
00001000
00000000
00000100
00000000
00000020
00000000
00000000
00000000
,
00001030
00000000
00000000
00010000
00000000
00000000
00010000
00000000
00100000
00000000
10000000
00000000
00010000
00000000
00000000
00000000
,
10000000
00000000
00000000
10000000
00000000
00000000
10000000
00000000
00010000
00000000
01000000
00000000
00200000
00000000
00000000
00000000
,
00310000
00000000
00000000
00001000
00000000
00000000
00001000
00000000
00000010
00000000
00000001
00000000
00001000
00000000
00000000
00000000
,
00000001
00000100
00001000
00000100
00000001
00000100
00001000
00000000
,
00010000
00000010
00010000
00001000
00100000
00010000
01000000
00000000
,
00001000
01000000
00100000
00010000
00100000
10000000
01000000
00000000
,
00010000
00000010
00010000
00001000
00000100
00000001
00002000
00000000
,
00000000
00000000
00003000
00000000
;

//---------------dance-double - NewbStepper-EDP----------------
#NOTES:
     dance-double:
     NewbStepper:
     Hard:
     14:
     0.675164,0.771192,0.364954,0.291963,0.310210,518,478,40,32,0,0,0.675164,0.771192,0.364954,0.291963,0.310210,518,478,40,32,0,0:
// measure 0
00000000
00000000
00000000
00000000
,  // measure 1
00000000
00000000
00000000
00000000
,  // measure 2
00000000
00000000
00000000
00000000
,  // measure 3
00000000
00000000
00000000
00000000
,  // measure 4
00000000
00000000
00000000
00000000
,  // measure 5
00000000
00000000
00000000
00000000
,  // measure 6
00000000
00000000
00000000
00000000
,  // measure 7
00000000
00000000
00000000
00000000
,  // measure 8
00000000
00000000
00000000
00000000
,  // measure 9
10100000
00000000
00100000
10000000
00000000
01000000
00010000
00000000
00001000
00000000
00100000
00000000
02000000
00000000
00000000
00000000
,  // measure 10
03010000
00000000
00001000
00010000
00000000
00100000
00010000
00000000
00000010
00000000
00001000
00000000
00000002
00000000
00000003
00000000
,  // measure 11
00000101
00000000
00000001
00000100
00000000
00001000
00000100
00000000
00000010
00000000
00010000
00000000
00002000
00000000
00000000
00000000
,  // measure 12
00103000
00000000
00010000
01000000
00000000
00100000
10000000
00000000
01000000
00000000
00010000
00001000
00000020
00000000
00000030
00000000
,  // measure 13
00000011
00000000
00000010
00000001
00000000
00000100
00001000
00000000
00010000
00000000
00000010
00000000
00000200
00000000
00000000
00000000
,  // measure 14
00001300
00000000
00010000
00001000
00000000
00000010
00001000
00000000
00100000
00000000
00010000
00000000
20000000
00000000
30000000
00000000
,  // measure 15
11000000
00000000
10000000
01000000
00000000
00010000
01000000
00000000
00100000
00000000
00001000
00000000
00020000
00000000
00000000
00000000
,  // measure 16
00030010
00000000
00001000
00000100
00000000
00000010
00000001
00000000
00000100
00000000
00001000
00000000
00020000
00000000
00000000
00000000
,  // measure 17
00032000
00000000
00103000
00010000
00100000
10000000
00100000
00010000
,  // measure 18
00000000
00000000
01000000
00000000
00001000
00000000
00010000
00001000
00010000
00000000
00000010
00001000
00000001
00001000
00000001
00000100
,  // measure 19
00000010
00000000
00001000
00000000
00000001
00000000
00000100
00001000
00000000
00000000
00011000
00000000
00000000
00000000
00010000
00000000
,  // measure 20
01000000
10000000
00100000
00010000
00000000
00000000
00002000
00000000
,  // measure 21
00023000
00000000
00030010
00001000
00000010
00000001
00000010
00001000
,  // measure 22
00000000
00000000
00000100
00000000
00010000
00000000
00001000
00010000
00001000
00000000
00100000
00010000
10000000
00010000
10000000
01000000
,  // measure 23
00100000
00000000
00010000
00000000
10000000
00000000
01000000
00100000
00000000
00100000
01000000
00000000
00000000
00000000
00010000
00000000
,  // measure 24
00011000
00000000
00000000
00001100
00000000
00000000
00000101
00000000
00000110
00000000
00000000
00000000
00001001
00000000
00000000
00000000
,  // measure 25
00000010
00000000
00000001
00000100
00000001
00000000
00000100
00000000
00001000
00000000
00010000
00001000
00010000
00000000
00000010
00000000
,  // measure 26
00010000
00000000
00001000
00010000
00001000
00000000
01000000
00000000
00010000
00000000
00100000
00010000
00100000
00010000
10000000
00000000
,  // measure 27
01000000
00010000
00001000
00000100
00001000
00010000
00100000
00000000
,  // measure 28
10100000
00000000
10000000
01000000
00000000
10000000
00010000
00000000
00100000
00000000
00001000
00000000
00010000
00000000
00000000
00000000
,  // measure 29
00100000
00000000
10000000
01000000
10000000
00000000
01000000
00000000
00010000
00000000
00001000
00010000
00001000
00000000
00100000
00000000
,  // measure 30
00001000
00000000
00010000
00000010
00010000
00000000
00000100
00000000
00001000
00000000
00000010
00001000
00000010
00001000
00000001
00000000
,  // measure 31
00000100
00000000
00001000
00000000
00010000
00000000
00001000
00000010
00000000
00000100
00000010
00000000
00000000
00000000
00001000
00000000
,  // measure 32
00011000
00000000
00000000
01010000
00000000
00000000
11000000
00000000
01100000
00000000
00010000
00000000
10010000
00000000
00000000
00000000
,  // measure 33
00200000
10000000
10000000
02300000
00001000
03002000
00000000
00100000
,  // measure 34
00000000
00010000
00000000
00000010
00003000
00010000
00000010
00010000
,  // measure 35
00001000
00000100
00000001
00000010
00001000
00010000
00000010
00001000
,  // measure 36
00010000
01000000
00001000
00010000
00100000
10000000
00010000
00100000
,  // measure 37
00101000
00000000
00011000
00010000
00000100
00001100
00001000
00001002
,  // measure 38
00000000
00000203
00000000
00000320
00000000
00010030
00000000
00001000
,  // measure 39
00010000
01000000
10000000
00100000
00010000
00001000
00100000
00010000
,  // measure 40
00001000
00000100
00010000
00001000
00000010
00000001
00001000
00000000
,  // measure 41
00000001
00000010
00001000
00000001
00000100
00001000
00010000
00100000
,  // measure 42
10000000
00000000
00010000
00000000
01000000
00000000
10000000
00000000
00100000
00000000
00010000
00001000
00010000
00000000
00000010
00000000
,  // measure 43
00010000
00001000
00000010
00000100
00000001
00000100
00001000
00000010
,  // measure 44
00000001
00000000
00000010
00000000
00001000
00000000
00010000
00000000
01000000
00000000
00100000
01000000
00100000
00000000
00000000
00000000
,  // measure 45
10000000
00100000
00010000
10000000
01000000
00010000
00001000
00000010
,  // measure 46
00000001
00000000
00001000
00000000
00000100
00000000
00000001
00000000
00000010
00000000
00001000
00010000
00001000
00000000
00000000
00000000
,  // measure 47
01001000
00000000
01000000
01010000
00000000
10010000
00000000
10100000
,  // measure 48
00000000
00100000
00010000
00001000
00000000
00000000
00000010
00000001
,  // measure 49
00002000
00000000
00003001
00000200
00000000
00000310
00000000
00002001
,  // measure 50
00000000
00000000
00010000
00013000
,  // measure 51
00100000
00010000
01000000
10000000
01000000
00010000
00100000
00002000
,  // measure 52
00000000
00000000
00103000
00010000
00100000
00000000
00001000
00010000
00001000
00000000
01000000
00010000
01000000
00000000
00100000
00000000
,  // measure 53
00010000
00000010
00010000
00100000
00001000
00000010
00001000
00010000
,  // measure 54
01000000
00100000
00010000
00001000
00000010
00000000
00000100
00000000
,  // measure 55
00001100
00001000
00000010
00000101
00000001
00000010
00001000
00011000
,  // measure 56
00000000
00010000
01000000
10000000
11000000
00000000
10010000
00000000
,  // measure 57
00020000
00000000
10030000
02000000
00000000
03100000
00000000
10020000
,  // measure 58
00000000
00000000
00001000
00031000
,  // measure 59
00000010
00001000
00000100
00000001
00000100
00001000
00010000
01000000
,  // measure 60
10000000
01000000
00010000
00100000
00001000
00010000
01000000
00010000
,  // measure 61
00001000
00100000
00001000
00000010
00010000
00100000
00010000
00001000
,  // measure 62
00000100
00000010
00001000
00010000
00100000
00000000
01000000
00000000
,  // measure 63
01010000
00010000
00100000
11000000
10000000
00100000
00010000
00011000
,  // measure 64
00000000
00001000
00000100
00000001
00000101
00000000
00001001
00000000
,  // measure 65
00000011
00000000
00000010
00000001
00000000
00000100
00001000
00000000
00010000
00000000
00000010
00000000
00000200
00000000
00000000
00000000
,  // measure 66
00001300
00000000
00010000
00001000
00000000
00000010
00001000
00000000
00100000
00000000
00010000
00000000
20000000
00000000
30000000
00000000
,  // measure 67
11000000
00000000
10000000
01000000
00000000
00010000
01000000
00000000
00100000
00000000
00001000
00000000
00020000
00000000
00000000
00000000
,  // measure 68
00030010
00000000
00001000
00000100
00000000
00000010
00000001
00000000
00000100
00000000
00001000
00010000
00200000
00000000
00300000
00000000
,  // measure 69
10100000
00000000
00100000
10000000
00000000
01000000
00010000
00000000
00001000
00000000
00100000
00000000
02000000
00000000
00000000
00000000
,  // measure 70
03010000
00000000
00001000
00010000
00000000
00100000
00010000
00000000
00000010
00000000
00001000
00000000
00000002
00000000
00000003
00000000
,  // measure 71
00000101
00000000
00000001
00000100
00000000
00001000
00000100
00000000
00000010
00000000
00010000
00000000
00002000
00000000
00000000
00000000
,  // measure 72
00103000
00000000
00010000
01000000
00000000
00100000
10000000
00000000
01000000
00000000
00010000
00001000
00000020
00000000
00000000
00000000
,  // measure 73
00000000
00000000
00000030
00000000
;
